osu file format v14

[General]
AudioFilename: Last Time(t+pazolite Remix).mp3
AudioLeadIn: 0
PreviewTime: 100752
Countdown: 1
SampleSet: Soft
StackLeniency: 0.7
Mode: 1
LetterboxInBreaks: 1
WidescreenStoryboard: 0

[Editor]
DistanceSpacing: 0.5
BeatDivisor: 2
GridSize: 32
TimelineZoom: 3.675998

[Metadata]
Title:Last Time(t+pazolite Remix)
TitleUnicode:Last Time(t+pazolite Remix)
Artist:ALiCE'S EMOTiON
ArtistUnicode:野宮あゆみ
Creator:superSSS
Version:ultimate Oni
Source:
Tags:
BeatmapID:652957
BeatmapSetID:289716

[Difficulty]
HPDrainRate:5
CircleSize:5
OverallDifficulty:5
ApproachRate:5
SliderMultiplier:1.4
SliderTickRate:1

[Events]
//Background and Video events
0,0,"`~ZEQY~$O38KBD))0}715BU.jpg",0,0
//Break Periods
2,39677,57552
//Storyboard Layer 0 (Background)
//Storyboard Layer 1 (Fail)
//Storyboard Layer 2 (Pass)
//Storyboard Layer 3 (Foreground)
//Storyboard Sound Samples

[TimingPoints]
-48,300,4,2,0,100,1,0
2352,-90.9090909090909,4,2,0,100,0,0
3552,-100,4,2,0,100,0,0
7152,-90.9090909090909,4,2,0,100,0,0
8277,-100,4,2,0,100,0,0
19077,-66.6666666666667,4,2,0,100,0,0
19452,-100,4,2,0,100,0,0
37902,-90.9090909090909,4,2,0,100,0,0
37977,-83.3333333333333,4,2,0,100,0,0
38052,-71.4285714285714,4,2,0,100,0,0
38127,-62.5,4,2,0,100,0,0
38202,-52.6315789473684,4,2,0,100,0,0
38277,-45.4545454545455,4,2,0,100,0,0
38352,-40,4,2,0,100,0,0
38427,-35.7142857142857,4,2,0,100,0,0
38502,-32.258064516129,4,2,0,100,0,0
38577,-29.4117647058824,4,2,0,100,0,0
38652,-27.027027027027,4,2,0,100,0,0
38727,-25,4,2,0,100,0,0
49152,-133.333333333333,4,2,0,100,0,0
58452,-100,4,2,0,100,0,0
78102,-100,4,2,0,100,0,0
87552,-25,4,2,0,100,0,0
89952,-100,4,2,0,100,0,0
91152,-83.3333333333333,4,2,0,100,0,1
100302,-50,4,2,0,100,0,1
100677,-83.3333333333333,4,2,0,100,0,0
100752,-83.3333333333333,4,2,0,100,0,1
110277,-100,4,2,0,100,0,0
110352,-83.3333333333333,4,2,0,100,0,1
119877,-100,4,2,0,100,0,0
119952,-83.3333333333333,4,2,0,100,0,1

[HitObjects]
256,192,1152,5,4,0:0:0:0:
256,192,1302,1,8,0:0:0:0:
256,192,1377,1,8,0:0:0:0:
256,192,1452,1,0,0:0:0:0:
256,192,1602,1,8,0:0:0:0:
256,192,1677,1,8,0:0:0:0:
256,192,1752,1,0,0:0:0:0:
256,192,1902,1,8,0:0:0:0:
256,192,2052,1,0,0:0:0:0:
256,192,2127,1,0,0:0:0:0:
256,192,2202,1,8,0:0:0:0:
256,192,2352,1,8,0:0:0:0:
256,192,2452,1,8,0:0:0:0:
256,192,2552,1,0,0:0:0:0:
256,192,2652,1,8,0:0:0:0:
256,192,2752,1,8,0:0:0:0:
256,192,2852,1,0,0:0:0:0:
256,192,2952,1,8,0:0:0:0:
256,192,3052,1,8,0:0:0:0:
256,192,3152,1,0,0:0:0:0:
256,192,3252,1,8,0:0:0:0:
256,192,3352,1,8,0:0:0:0:
256,192,3452,1,0,0:0:0:0:
256,192,3552,1,0,0:0:0:0:
256,192,3702,1,8,0:0:0:0:
256,192,3777,1,8,0:0:0:0:
256,192,3852,1,0,0:0:0:0:
256,192,3927,1,0,0:0:0:0:
256,192,4002,1,0,0:0:0:0:
256,192,4077,1,8,0:0:0:0:
256,192,4152,1,0,0:0:0:0:
256,192,4302,1,8,0:0:0:0:
256,192,4452,1,0,0:0:0:0:
256,192,4602,1,8,0:0:0:0:
256,192,4752,1,0,0:0:0:0:
256,192,4827,1,0,0:0:0:0:
256,192,4902,1,8,0:0:0:0:
256,192,4977,1,8,0:0:0:0:
288,192,5052,1,0,0:0:0:0:
256,192,5202,1,8,0:0:0:0:
256,192,5277,1,8,0:0:0:0:
224,192,5352,1,0,0:0:0:0:
256,192,5427,1,0,0:0:0:0:
256,192,5502,1,8,0:0:0:0:
256,192,5577,1,8,0:0:0:0:
256,192,5652,1,0,0:0:0:0:
256,192,5802,1,8,0:0:0:0:
256,192,5952,1,0,0:0:0:0:
256,192,6027,1,0,0:0:0:0:
256,192,6102,1,8,0:0:0:0:
256,192,6177,1,0,0:0:0:0:
256,192,6252,1,0,0:0:0:0:
256,192,6402,1,8,0:0:0:0:
256,192,6552,1,0,0:0:0:0:
256,192,6627,1,0,0:0:0:0:
256,192,6702,1,8,0:0:0:0:
256,192,6852,1,0,0:0:0:0:
256,192,6927,1,0,0:0:0:0:
256,192,7002,1,2,0:0:0:0:
256,192,7152,1,8,0:0:0:0:
256,192,7227,1,8,0:0:0:0:
256,192,7302,1,2,0:0:0:0:
256,192,7377,1,8,0:0:0:0:
256,192,7452,1,0,0:0:0:0:
256,192,7527,1,8,0:0:0:0:
256,192,7602,1,8,0:0:0:0:
256,192,7677,1,8,0:0:0:0:
256,192,7752,1,0,0:0:0:0:
256,192,7827,1,8,0:0:0:0:
256,192,7902,1,8,0:0:0:0:
256,192,7977,1,8,0:0:0:0:
256,192,8052,1,0,0:0:0:0:
256,192,8127,1,8,0:0:0:0:
256,192,8202,1,8,0:0:0:0:
256,192,8352,1,0,0:0:0:0:
256,192,8427,1,0,0:0:0:0:
256,192,8502,1,8,0:0:0:0:
256,192,8577,1,8,0:0:0:0:
256,192,8652,1,0,0:0:0:0:
256,192,8727,1,0,0:0:0:0:
256,192,8802,1,8,0:0:0:0:
256,192,8877,1,8,0:0:0:0:
256,192,8952,1,0,0:0:0:0:
256,192,9027,1,0,0:0:0:0:
256,192,9102,1,8,0:0:0:0:
256,192,9177,1,8,0:0:0:0:
256,192,9252,1,0,0:0:0:0:
256,192,9327,1,0,0:0:0:0:
256,192,9402,1,8,0:0:0:0:
256,192,9552,1,2,0:0:0:0:
256,192,9589,1,2,0:0:0:0:
256,192,9702,1,8,0:0:0:0:
256,192,9739,1,2,0:0:0:0:
256,192,9852,1,8,0:0:0:0:
256,192,9889,1,2,0:0:0:0:
256,192,10002,1,8,0:0:0:0:
256,192,10039,1,2,0:0:0:0:
256,192,10152,1,4,0:0:0:0:
288,192,10302,1,0,0:0:0:0:
256,192,10752,1,8,0:0:0:0:
256,192,10827,1,8,0:0:0:0:
256,192,10902,1,8,0:0:0:0:
256,192,10977,1,8,0:0:0:0:
256,192,11052,1,0,0:0:0:0:
256,192,11202,1,8,0:0:0:0:
256,192,11352,1,0,0:0:0:0:
256,192,11427,1,0,0:0:0:0:
256,192,11502,1,0,0:0:0:0:
288,192,11577,1,8,0:0:0:0:
256,192,11652,1,8,0:0:0:0:
256,192,11802,1,8,0:0:0:0:
256,192,11952,1,8,0:0:0:0:
256,192,12002,1,8,0:0:0:0:
256,192,12052,1,8,0:0:0:0:
256,192,12102,1,8,0:0:0:0:
256,192,12252,1,8,0:0:0:0:
256,192,12302,1,8,0:0:0:0:
256,192,12352,1,8,0:0:0:0:
256,192,12402,1,8,0:0:0:0:
256,192,12552,1,8,0:0:0:0:
256,192,12602,1,8,0:0:0:0:
256,192,12652,1,8,0:0:0:0:
256,192,12702,1,8,0:0:0:0:
256,192,12852,1,8,0:0:0:0:
256,192,12902,1,8,0:0:0:0:
256,192,12952,1,8,0:0:0:0:
256,192,13002,1,8,0:0:0:0:
256,192,13152,1,0,0:0:0:0:
256,192,13302,1,8,0:0:0:0:
256,192,13452,1,0,0:0:0:0:
256,192,13527,1,0,0:0:0:0:
256,192,13602,1,8,0:0:0:0:
288,192,13752,1,0,0:0:0:0:
256,192,13827,1,0,0:0:0:0:
256,192,13902,1,8,0:0:0:0:
256,192,13977,1,8,0:0:0:0:
256,192,14052,1,0,0:0:0:0:
256,192,14202,1,8,0:0:0:0:
256,192,14352,1,0,0:0:0:0:
256,192,14427,1,0,0:0:0:0:
256,192,14502,1,8,0:0:0:0:
256,192,14652,1,0,0:0:0:0:
256,192,14727,1,0,0:0:0:0:
256,192,14802,1,8,0:0:0:0:
256,192,14952,1,0,0:0:0:0:
256,192,15027,1,0,0:0:0:0:
256,192,15102,1,8,0:0:0:0:
256,192,15252,1,8,0:0:0:0:
256,192,15402,1,8,0:0:0:0:
256,192,15552,1,0,0:0:0:0:
256,192,15702,1,0,0:0:0:0:
256,192,15777,1,0,0:0:0:0:
256,192,15852,1,8,0:0:0:0:
256,192,16002,1,8,0:0:0:0:
256,192,16152,1,8,0:0:0:0:
256,192,16227,1,0,0:0:0:0:
256,192,16302,1,0,0:0:0:0:
256,192,16377,1,8,0:0:0:0:
256,192,16527,1,8,0:0:0:0:
256,192,16602,1,0,0:0:0:0:
256,192,16752,1,8,0:0:0:0:
256,192,16827,1,8,0:0:0:0:
256,192,16902,1,0,0:0:0:0:
256,192,17052,1,8,0:0:0:0:
256,192,17127,1,8,0:0:0:0:
224,192,17202,1,0,0:0:0:0:
256,192,17352,1,8,0:0:0:0:
256,192,17427,1,8,0:0:0:0:
256,192,17502,1,0,0:0:0:0:
256,192,17652,1,8,0:0:0:0:
256,192,17727,1,8,0:0:0:0:
256,192,17802,1,0,0:0:0:0:
256,192,17952,1,0,0:0:0:0:
256,192,18102,1,8,0:0:0:0:
256,192,18252,1,0,0:0:0:0:
256,192,18402,1,8,0:0:0:0:
256,192,18552,1,0,0:0:0:0:
256,192,18702,1,8,0:0:0:0:
256,192,18852,1,0,0:0:0:0:
256,192,19002,1,8,0:0:0:0:
160,224,19152,2,0,L|576:64,1,420.000016021729
256,192,20052,1,8,0:0:0:0:
256,192,20352,1,0,0:0:0:0:
256,192,20502,1,8,0:0:0:0:
256,192,20652,1,8,0:0:0:0:
256,192,20727,1,8,0:0:0:0:
256,192,20802,1,0,0:0:0:0:
256,192,20952,1,8,0:0:0:0:
256,192,21102,1,8,0:0:0:0:
256,192,21177,1,8,0:0:0:0:
256,192,21252,1,0,0:0:0:0:
256,192,21402,1,8,0:0:0:0:
256,192,21552,1,8,0:0:0:0:
256,192,21702,1,8,0:0:0:0:
256,192,21777,1,8,0:0:0:0:
256,160,21852,1,0,0:0:0:0:
256,160,21927,1,0,0:0:0:0:
256,160,22002,1,0,0:0:0:0:
256,192,22152,1,8,0:0:0:0:
256,192,22302,1,8,0:0:0:0:
256,192,22377,1,8,0:0:0:0:
256,192,22452,1,0,0:0:0:0:
256,192,22527,1,0,0:0:0:0:
256,192,22602,1,8,0:0:0:0:
256,192,22752,1,0,0:0:0:0:
256,192,22789,1,8,0:0:0:0:
256,192,22902,1,8,0:0:0:0:
256,192,22939,1,8,0:0:0:0:
256,192,23052,1,8,0:0:0:0:
256,192,23089,1,8,0:0:0:0:
256,192,23202,1,8,0:0:0:0:
256,192,23239,1,8,0:0:0:0:
256,192,23352,1,8,0:0:0:0:
256,192,23389,1,8,0:0:0:0:
256,192,23502,1,8,0:0:0:0:
256,192,23577,1,2,0:0:0:0:
256,192,23652,1,2,0:0:0:0:
256,192,23802,1,0,0:0:0:0:
256,192,23952,1,0,0:0:0:0:
256,192,24102,1,0,0:0:0:0:
256,192,24177,1,0,0:0:0:0:
256,192,24252,1,8,0:0:0:0:
256,192,24402,1,8,0:0:0:0:
256,192,24552,1,8,0:0:0:0:
256,192,24627,1,8,0:0:0:0:
256,192,24702,1,0,0:0:0:0:
256,192,24777,1,0,0:0:0:0:
256,192,24852,1,8,0:0:0:0:
256,192,25002,1,8,0:0:0:0:
256,192,25152,1,0,0:0:0:0:
256,192,25302,1,0,0:0:0:0:
256,192,25377,1,0,0:0:0:0:
256,192,25452,1,8,0:0:0:0:
256,192,25602,1,8,0:0:0:0:
256,192,25677,1,8,0:0:0:0:
256,192,25752,1,0,0:0:0:0:
256,192,25827,1,0,0:0:0:0:
256,192,25902,1,8,0:0:0:0:
256,192,26052,1,8,0:0:0:0:
256,192,26127,1,8,0:0:0:0:
256,192,26202,1,8,0:0:0:0:
256,192,26277,1,8,0:0:0:0:
256,192,26352,1,0,0:0:0:0:
256,192,26502,1,0,0:0:0:0:
256,192,26577,1,0,0:0:0:0:
256,192,26652,1,8,0:0:0:0:
256,192,26727,1,8,0:0:0:0:
256,192,26802,1,0,0:0:0:0:
256,192,26952,1,8,0:0:0:0:
256,192,27027,1,8,0:0:0:0:
256,192,27102,1,8,0:0:0:0:
256,192,27177,1,0,0:0:0:0:
256,192,27252,1,0,0:0:0:0:
256,192,27327,1,8,0:0:0:0:
224,192,27402,1,0,0:0:0:0:
256,192,27552,1,8,0:0:0:0:
256,192,27627,1,8,0:0:0:0:
256,192,27702,1,0,0:0:0:0:
256,192,27852,1,8,0:0:0:0:
256,192,27927,1,0,0:0:0:0:
256,192,28002,1,8,0:0:0:0:
256,192,28077,1,0,0:0:0:0:
256,192,28152,1,8,0:0:0:0:
256,192,28227,1,0,0:0:0:0:
256,192,28302,1,8,0:0:0:0:
256,192,28377,1,0,0:0:0:0:
256,192,28452,1,8,0:0:0:0:
224,192,28602,1,8,0:0:0:0:
256,192,28752,1,8,0:0:0:0:
256,192,28902,1,0,0:0:0:0:
256,192,28977,1,8,0:0:0:0:
256,192,29127,1,0,0:0:0:0:
256,192,29202,1,8,0:0:0:0:
256,192,29352,1,12,0:0:0:0:
256,192,29502,1,12,0:0:0:0:
256,192,29652,1,12,0:0:0:0:
256,192,29802,1,12,0:0:0:0:
256,192,29952,1,8,0:0:0:0:
224,192,30102,1,0,0:0:0:0:
224,192,30177,1,0,0:0:0:0:
256,192,30252,1,8,0:0:0:0:
256,192,30402,1,8,0:0:0:0:
256,192,30477,1,8,0:0:0:0:
256,192,30552,1,0,0:0:0:0:
256,192,30702,1,8,0:0:0:0:
256,192,30852,1,8,0:0:0:0:
256,192,31002,1,0,0:0:0:0:
256,192,31077,1,0,0:0:0:0:
256,192,31152,1,8,0:0:0:0:
256,192,31302,1,8,0:0:0:0:
256,192,31377,1,8,0:0:0:0:
256,192,31452,1,8,0:0:0:0:
256,192,31527,1,8,0:0:0:0:
256,192,31602,1,0,0:0:0:0:
256,192,31752,1,0,0:0:0:0:
256,192,31827,1,8,0:0:0:0:
256,192,31902,1,0,0:0:0:0:
256,192,32052,1,8,0:0:0:0:
256,192,32127,1,8,0:0:0:0:
256,192,32202,1,8,0:0:0:0:
256,192,32352,1,0,0:0:0:0:
256,192,32427,1,8,0:0:0:0:
256,192,32502,1,8,0:0:0:0:
256,192,32577,1,8,0:0:0:0:
256,192,32652,1,0,0:0:0:0:
256,192,32727,1,8,0:0:0:0:
256,192,32802,1,8,0:0:0:0:
256,192,32877,1,8,0:0:0:0:
256,192,32952,1,0,0:0:0:0:
256,192,33027,1,8,0:0:0:0:
256,192,33102,1,8,0:0:0:0:
256,192,33177,1,8,0:0:0:0:
256,192,33252,1,0,0:0:0:0:
256,192,33402,1,0,0:0:0:0:
256,192,33552,1,8,0:0:0:0:
256,192,33702,1,0,0:0:0:0:
224,192,33777,1,8,0:0:0:0:
256,192,33927,1,8,0:0:0:0:
256,192,34002,1,0,0:0:0:0:
256,192,34152,1,8,0:0:0:0:
256,192,34227,1,8,0:0:0:0:
256,192,34302,1,0,0:0:0:0:
256,192,34452,1,0,0:0:0:0:
256,192,34527,1,0,0:0:0:0:
256,192,34602,1,8,0:0:0:0:
256,192,34752,1,8,0:0:0:0:
256,192,34827,1,8,0:0:0:0:
256,192,34902,1,0,0:0:0:0:
256,192,34977,1,0,0:0:0:0:
256,192,35052,1,8,0:0:0:0:
256,192,35202,1,0,0:0:0:0:
256,192,35277,1,0,0:0:0:0:
256,192,35352,1,8,0:0:0:0:
256,192,35427,1,8,0:0:0:0:
256,192,35502,1,0,0:0:0:0:
256,192,35577,1,0,0:0:0:0:
256,192,35652,1,8,0:0:0:0:
256,192,35802,1,8,0:0:0:0:
256,192,35952,1,8,0:0:0:0:
256,192,36102,1,8,0:0:0:0:
256,192,36177,1,8,0:0:0:0:
256,192,36252,1,0,0:0:0:0:
256,192,36402,1,2,0:0:0:0:
256,192,36452,1,0,0:0:0:0:
256,192,36502,1,0,0:0:0:0:
256,192,36552,1,2,0:0:0:0:
256,192,36702,1,8,0:0:0:0:
256,192,36852,1,8,0:0:0:0:
256,192,37002,1,0,0:0:0:0:
256,192,37077,1,0,0:0:0:0:
256,192,37152,1,8,0:0:0:0:
256,192,37302,1,8,0:0:0:0:
256,192,37452,1,8,0:0:0:0:
256,192,37602,1,8,0:0:0:0:
256,192,37752,1,8,0:0:0:0:
256,192,37902,1,8,0:0:0:0:
256,192,37977,1,0,0:0:0:0:
256,192,38052,1,2,0:0:0:0:
256,192,38127,1,0,0:0:0:0:
256,192,38202,1,8,0:0:0:0:
256,192,38277,1,0,0:0:0:0:
256,192,38352,1,2,0:0:0:0:
256,192,38427,1,0,0:0:0:0:
256,192,38502,1,2,0:0:0:0:
256,192,38577,1,0,0:0:0:0:
256,192,38652,1,2,0:0:0:0:
256,192,38727,1,0,0:0:0:0:
256,192,38802,1,2,0:0:0:0:
256,192,38877,1,0,0:0:0:0:
256,192,38952,1,2,0:0:0:0:
256,192,39027,1,0,0:0:0:0:
256,192,39102,1,2,0:0:0:0:
256,192,39177,1,0,0:0:0:0:
256,192,39252,1,2,0:0:0:0:
256,192,39327,1,0,0:0:0:0:
256,192,39402,1,2,0:0:0:0:
256,192,39477,1,0,0:0:0:0:
256,192,58752,5,0,0:0:0:0:
256,192,59052,1,0,0:0:0:0:
256,192,59352,1,8,0:0:0:0:
256,192,59652,1,8,0:0:0:0:
256,192,59952,1,8,0:0:0:0:
256,192,60252,1,8,0:0:0:0:
256,192,60552,1,0,0:0:0:0:
256,192,60852,1,0,0:0:0:0:
256,192,61152,1,8,0:0:0:0:
256,192,61452,1,0,0:0:0:0:
256,192,61752,1,8,0:0:0:0:
256,192,62052,1,8,0:0:0:0:
256,192,62352,1,0,0:0:0:0:
256,192,62652,1,8,0:0:0:0:
256,192,62952,1,0,0:0:0:0:
256,192,63252,1,0,0:0:0:0:
256,192,63552,1,0,0:0:0:0:
256,192,63852,1,0,0:0:0:0:
256,192,64152,1,8,0:0:0:0:
256,192,64452,1,0,0:0:0:0:
256,192,64752,1,8,0:0:0:0:
256,192,65052,1,8,0:0:0:0:
256,192,65352,1,0,0:0:0:0:
256,192,65652,1,8,0:0:0:0:
256,192,65952,1,0,0:0:0:0:
256,192,66252,1,0,0:0:0:0:
256,192,66552,1,8,0:0:0:0:
256,192,66852,1,8,0:0:0:0:
256,192,67152,1,8,0:0:0:0:
256,192,67452,1,8,0:0:0:0:
256,192,67752,1,0,0:0:0:0:
256,192,68052,1,0,0:0:0:0:
256,192,68352,1,4,0:0:0:0:
256,192,68652,1,8,0:0:0:0:
256,192,68952,1,8,0:0:0:0:
256,192,69252,1,8,0:0:0:0:
256,192,69552,1,8,0:0:0:0:
256,192,69852,1,0,0:0:0:0:
256,192,70152,1,0,0:0:0:0:
256,192,70452,1,0,0:0:0:0:
256,192,70752,1,8,0:0:0:0:
256,192,71052,1,0,0:0:0:0:
256,192,71352,1,8,0:0:0:0:
256,192,71652,1,0,0:0:0:0:
256,192,71952,1,0,0:0:0:0:
256,192,72252,1,8,0:0:0:0:
256,192,72552,1,0,0:0:0:0:
256,192,72852,1,8,0:0:0:0:
256,192,73152,1,0,0:0:0:0:
256,192,73452,1,8,0:0:0:0:
256,192,73752,1,8,0:0:0:0:
256,192,74052,1,0,0:0:0:0:
256,192,74352,1,8,0:0:0:0:
256,192,74652,1,0,0:0:0:0:
256,192,74952,1,0,0:0:0:0:
256,192,75252,1,8,0:0:0:0:
256,192,75552,12,0,76752,0:0:0:0:
256,192,77052,5,8,0:0:0:0:
256,192,77352,1,0,0:0:0:0:
256,192,77427,1,0,0:0:0:0:
256,192,77502,1,8,0:0:0:0:
256,192,77577,1,8,0:0:0:0:
256,192,77652,1,0,0:0:0:0:
256,192,77727,1,0,0:0:0:0:
256,192,77802,1,8,0:0:0:0:
256,192,77877,1,8,0:0:0:0:
256,192,77952,1,12,0:0:0:0:
224,192,78102,1,0,0:0:0:0:
256,192,78252,1,0,0:0:0:0:
224,192,78402,1,0,0:0:0:0:
256,192,78552,1,8,0:0:0:0:
256,192,78702,1,0,0:0:0:0:
256,192,78852,1,0,0:0:0:0:
256,192,79002,1,0,0:0:0:0:
256,192,79152,1,12,0:0:0:0:
256,192,79302,1,0,0:0:0:0:
256,192,79452,1,0,0:0:0:0:
256,192,79602,1,0,0:0:0:0:
256,192,79752,1,8,0:0:0:0:
256,192,79902,1,0,0:0:0:0:
256,192,80052,1,0,0:0:0:0:
256,192,80202,1,0,0:0:0:0:
256,192,80352,1,12,0:0:0:0:
256,192,80502,1,0,0:0:0:0:
256,192,80652,1,0,0:0:0:0:
256,192,80802,1,0,0:0:0:0:
256,192,80952,1,8,0:0:0:0:
256,192,81102,1,0,0:0:0:0:
256,192,81252,1,0,0:0:0:0:
256,192,81402,1,0,0:0:0:0:
256,192,81552,1,12,0:0:0:0:
256,192,81702,1,0,0:0:0:0:
256,192,81852,1,0,0:0:0:0:
256,192,82002,1,0,0:0:0:0:
256,192,82152,1,8,0:0:0:0:
256,192,82302,1,0,0:0:0:0:
256,192,82452,1,0,0:0:0:0:
256,192,82602,1,0,0:0:0:0:
256,192,82752,1,12,0:0:0:0:
256,192,82902,1,0,0:0:0:0:
256,192,83052,1,0,0:0:0:0:
256,192,83202,1,0,0:0:0:0:
256,192,83352,1,12,0:0:0:0:
256,192,83502,1,0,0:0:0:0:
256,192,83652,1,0,0:0:0:0:
256,192,83802,1,0,0:0:0:0:
256,192,83952,1,12,0:0:0:0:
256,192,84102,1,0,0:0:0:0:
256,192,84252,1,0,0:0:0:0:
256,192,84402,1,0,0:0:0:0:
256,192,84552,1,12,0:0:0:0:
256,192,84702,1,0,0:0:0:0:
256,192,84852,1,0,0:0:0:0:
256,192,85002,1,0,0:0:0:0:
256,192,85152,1,12,0:0:0:0:
256,192,85302,1,0,0:0:0:0:
256,192,85452,1,12,0:0:0:0:
256,192,85602,1,0,0:0:0:0:
256,192,85752,1,12,0:0:0:0:
256,192,85902,1,0,0:0:0:0:
256,192,86052,1,12,0:0:0:0:
256,192,86202,1,0,0:0:0:0:
256,192,86352,1,12,0:0:0:0:
256,192,86502,1,12,0:0:0:0:
256,192,86652,1,12,0:0:0:0:
256,192,86802,1,12,0:0:0:0:
256,192,86952,1,12,0:0:0:0:
256,192,87102,1,12,0:0:0:0:
256,192,87252,1,12,0:0:0:0:
256,192,87402,1,12,0:0:0:0:
96,96,87552,2,0,L|256:96,11,140
256,192,88452,12,0,89277,0:0:0:0:
256,192,89352,12,0,89427,0:0:0:0:
256,192,89502,12,0,89577,0:0:0:0:
256,192,89652,12,0,89727,0:0:0:0:
256,192,89802,12,0,89877,0:0:0:0:
256,192,89952,5,8,0:0:0:0:
256,192,90102,1,0,0:0:0:0:
256,192,90252,1,8,0:0:0:0:
256,192,90402,1,0,0:0:0:0:
224,192,90552,1,8,0:0:0:0:
256,192,90702,1,0,0:0:0:0:
256,192,90852,1,8,0:0:0:0:
256,192,91002,1,0,0:0:0:0:
256,192,91152,1,8,0:0:0:0:
256,192,91227,1,8,0:0:0:0:
256,192,91302,1,8,0:0:0:0:
256,192,91377,1,0,0:0:0:0:
256,192,91452,1,0,0:0:0:0:
256,192,91527,1,8,0:0:0:0:
256,192,91602,1,8,0:0:0:0:
256,192,91677,1,8,0:0:0:0:
256,192,91752,1,0,0:0:0:0:
256,192,91827,1,0,0:0:0:0:
256,192,91902,1,8,0:0:0:0:
256,192,91977,1,0,0:0:0:0:
256,192,92052,1,0,0:0:0:0:
256,192,92127,1,8,0:0:0:0:
256,192,92202,1,8,0:0:0:0:
288,192,92277,1,0,0:0:0:0:
256,192,92427,1,0,0:0:0:0:
256,192,92502,1,0,0:0:0:0:
288,192,92577,1,8,0:0:0:0:
288,192,92652,1,8,0:0:0:0:
256,192,92727,1,0,0:0:0:0:
288,192,92802,1,8,0:0:0:0:
288,192,92877,1,8,0:0:0:0:
256,192,92952,1,0,0:0:0:0:
256,192,93027,1,0,0:0:0:0:
256,192,93102,1,8,0:0:0:0:
256,192,93177,1,0,0:0:0:0:
256,192,93252,1,0,0:0:0:0:
256,192,93327,1,0,0:0:0:0:
256,192,93402,1,8,0:0:0:0:
256,192,93552,1,8,0:0:0:0:
256,192,93627,1,8,0:0:0:0:
256,192,93702,1,0,0:0:0:0:
256,192,93777,1,0,0:0:0:0:
256,192,93852,1,0,0:0:0:0:
256,192,93927,1,8,0:0:0:0:
256,192,94002,1,8,0:0:0:0:
256,192,94077,1,0,0:0:0:0:
256,192,94152,1,0,0:0:0:0:
256,192,94227,1,8,0:0:0:0:
256,192,94302,1,0,0:0:0:0:
256,192,94377,1,0,0:0:0:0:
256,192,94452,1,0,0:0:0:0:
256,192,94527,1,8,0:0:0:0:
256,192,94602,1,8,0:0:0:0:
256,192,94677,1,8,0:0:0:0:
256,192,94827,1,8,0:0:0:0:
256,192,94902,1,8,0:0:0:0:
256,192,94977,1,8,0:0:0:0:
256,192,95052,1,8,0:0:0:0:
256,192,95127,1,0,0:0:0:0:
256,192,95202,1,0,0:0:0:0:
256,192,95277,1,0,0:0:0:0:
256,192,95352,1,8,0:0:0:0:
256,192,95427,1,8,0:0:0:0:
256,192,95502,1,0,0:0:0:0:
256,192,95577,1,0,0:0:0:0:
256,192,95652,1,0,0:0:0:0:
256,192,95727,1,8,0:0:0:0:
256,192,95802,1,0,0:0:0:0:
256,192,95952,1,0,0:0:0:0:
256,192,96027,1,0,0:0:0:0:
256,192,96102,1,0,0:0:0:0:
256,192,96177,1,8,0:0:0:0:
256,192,96252,1,0,0:0:0:0:
256,192,96327,1,8,0:0:0:0:
256,192,96402,1,8,0:0:0:0:
256,192,96477,1,8,0:0:0:0:
256,192,96552,1,8,0:0:0:0:
256,192,96627,1,0,0:0:0:0:
256,192,96702,1,0,0:0:0:0:
256,192,96777,1,8,0:0:0:0:
256,192,96927,1,8,0:0:0:0:
256,192,97002,1,8,0:0:0:0:
256,192,97077,1,0,0:0:0:0:
256,192,97152,1,0,0:0:0:0:
256,192,97227,1,0,0:0:0:0:
256,192,97302,1,0,0:0:0:0:
256,192,97377,1,0,0:0:0:0:
256,192,97452,1,0,0:0:0:0:
256,192,97527,1,8,0:0:0:0:
256,192,97602,1,8,0:0:0:0:
256,192,97677,1,0,0:0:0:0:
256,192,97752,1,8,0:0:0:0:
256,192,97827,1,8,0:0:0:0:
256,192,97902,1,8,0:0:0:0:
224,192,97977,1,0,0:0:0:0:
256,192,98052,1,0,0:0:0:0:
256,192,98127,1,8,0:0:0:0:
256,192,98202,1,0,0:0:0:0:
256,192,98277,1,8,0:0:0:0:
256,192,98427,1,8,0:0:0:0:
256,192,98502,1,8,0:0:0:0:
256,192,98577,1,0,0:0:0:0:
256,192,98652,1,0,0:0:0:0:
256,192,98727,1,0,0:0:0:0:
256,192,98802,1,0,0:0:0:0:
256,192,98877,1,8,0:0:0:0:
256,192,98952,1,8,0:0:0:0:
256,192,99027,1,0,0:0:0:0:
256,192,99102,1,8,0:0:0:0:
256,192,99177,1,8,0:0:0:0:
256,192,99252,1,8,0:0:0:0:
256,192,99327,1,0,0:0:0:0:
256,192,99402,1,0,0:0:0:0:
256,192,99477,1,0,0:0:0:0:
256,192,99552,1,8,0:0:0:0:
256,192,99702,1,8,0:0:0:0:
256,192,99777,1,8,0:0:0:0:
256,192,99852,1,0,0:0:0:0:
256,192,99927,1,0,0:0:0:0:
256,192,100002,1,8,0:0:0:0:
256,192,100077,1,8,0:0:0:0:
256,192,100152,1,0,0:0:0:0:
256,192,100302,1,12,0:0:0:0:
256,192,100452,1,12,0:0:0:0:
256,192,100602,1,12,0:0:0:0:
256,192,100752,1,0,0:0:0:0:
256,192,100827,1,0,0:0:0:0:
256,192,100902,1,0,0:0:0:0:
256,192,100977,1,0,0:0:0:0:
256,192,101052,1,0,0:0:0:0:
256,192,101127,1,0,0:0:0:0:
256,192,101202,1,0,0:0:0:0:
256,192,101277,1,0,0:0:0:0:
256,192,101352,1,0,0:0:0:0:
256,192,101427,1,0,0:0:0:0:
256,192,101502,1,0,0:0:0:0:
256,192,101577,1,0,0:0:0:0:
256,192,101652,1,0,0:0:0:0:
256,192,101727,1,0,0:0:0:0:
256,192,101802,1,0,0:0:0:0:
256,192,101877,1,0,0:0:0:0:
256,192,101952,1,8,0:0:0:0:
256,192,102027,1,8,0:0:0:0:
256,192,102102,1,8,0:0:0:0:
256,192,102177,1,8,0:0:0:0:
256,192,102252,1,8,0:0:0:0:
256,192,102327,1,8,0:0:0:0:
256,192,102402,1,8,0:0:0:0:
256,192,102477,1,8,0:0:0:0:
256,192,102552,1,8,0:0:0:0:
256,192,102627,1,8,0:0:0:0:
256,192,102702,1,8,0:0:0:0:
256,192,102777,1,8,0:0:0:0:
256,192,102852,1,8,0:0:0:0:
256,192,102927,1,8,0:0:0:0:
256,192,103002,1,8,0:0:0:0:
256,192,103077,1,8,0:0:0:0:
256,192,103152,1,0,0:0:0:0:
256,192,103227,1,0,0:0:0:0:
256,192,103302,1,0,0:0:0:0:
256,192,103377,1,0,0:0:0:0:
256,192,103452,1,8,0:0:0:0:
256,192,103527,1,8,0:0:0:0:
256,192,103602,1,8,0:0:0:0:
256,192,103677,1,0,0:0:0:0:
256,192,103752,1,8,0:0:0:0:
256,192,103827,1,8,0:0:0:0:
256,192,103902,1,0,0:0:0:0:
256,192,103977,1,0,0:0:0:0:
256,192,104052,1,8,0:0:0:0:
256,192,104127,1,0,0:0:0:0:
224,192,104202,1,8,0:0:0:0:
224,192,104277,1,8,0:0:0:0:
256,192,104352,1,0,0:0:0:0:
256,192,104427,1,0,0:0:0:0:
256,192,104502,1,8,0:0:0:0:
256,192,104577,1,0,0:0:0:0:
256,192,104652,1,8,0:0:0:0:
256,192,104727,1,8,0:0:0:0:
256,192,104802,1,8,0:0:0:0:
256,192,104877,1,8,0:0:0:0:
256,192,104952,1,0,0:0:0:0:
256,192,105027,1,0,0:0:0:0:
256,192,105102,1,0,0:0:0:0:
256,192,105177,1,8,0:0:0:0:
256,192,105252,1,8,0:0:0:0:
256,192,105327,1,0,0:0:0:0:
256,192,105402,1,0,0:0:0:0:
256,192,105477,1,8,0:0:0:0:
256,192,105552,1,0,0:0:0:0:
256,192,105702,1,0,0:0:0:0:
256,192,105777,1,0,0:0:0:0:
256,192,105852,1,0,0:0:0:0:
256,192,105927,1,8,0:0:0:0:
256,192,106002,1,8,0:0:0:0:
256,192,106077,1,0,0:0:0:0:
256,192,106152,1,8,0:0:0:0:
256,192,106227,1,8,0:0:0:0:
256,192,106302,1,8,0:0:0:0:
256,192,106377,1,0,0:0:0:0:
256,192,106452,1,0,0:0:0:0:
288,192,106527,1,8,0:0:0:0:
256,192,106602,1,0,0:0:0:0:
224,192,106677,1,8,0:0:0:0:
256,192,106752,1,0,0:0:0:0:
256,192,106827,1,0,0:0:0:0:
256,192,106902,1,0,0:0:0:0:
256,192,106977,1,8,0:0:0:0:
256,192,107052,1,8,0:0:0:0:
256,192,107127,1,8,0:0:0:0:
256,192,107202,1,0,0:0:0:0:
256,192,107277,1,8,0:0:0:0:
256,192,107427,1,8,0:0:0:0:
256,192,107502,1,8,0:0:0:0:
256,192,107577,1,8,0:0:0:0:
256,192,107652,1,0,0:0:0:0:
256,192,107727,1,0,0:0:0:0:
256,192,107802,1,8,0:0:0:0:
256,192,107877,1,0,0:0:0:0:
256,192,108027,1,0,0:0:0:0:
256,192,108102,1,0,0:0:0:0:
256,192,108177,1,0,0:0:0:0:
256,192,108252,1,8,0:0:0:0:
256,192,108327,1,8,0:0:0:0:
256,192,108402,1,8,0:0:0:0:
256,192,108477,1,8,0:0:0:0:
256,192,108552,1,0,0:0:0:0:
256,192,108627,1,0,0:0:0:0:
256,192,108702,1,0,0:0:0:0:
256,192,108777,1,0,0:0:0:0:
256,192,108852,1,0,0:0:0:0:
256,192,108927,1,8,0:0:0:0:
256,192,109002,1,8,0:0:0:0:
256,192,109077,1,8,0:0:0:0:
256,192,109152,1,0,0:0:0:0:
256,192,109227,1,0,0:0:0:0:
256,192,109302,1,8,0:0:0:0:
256,192,109377,1,8,0:0:0:0:
256,192,109452,1,8,0:0:0:0:
256,192,109527,1,0,0:0:0:0:
256,192,109602,1,8,0:0:0:0:
256,192,109677,1,0,0:0:0:0:
256,192,109752,1,0,0:0:0:0:
256,192,109827,1,0,0:0:0:0:
256,192,109902,1,8,0:0:0:0:
256,192,109977,1,0,0:0:0:0:
256,192,110052,1,8,0:0:0:0:
256,192,110202,1,8,0:0:0:0:
256,192,110352,1,0,0:0:0:0:
256,192,110427,1,0,0:0:0:0:
256,192,110502,1,0,0:0:0:0:
256,192,110577,1,0,0:0:0:0:
256,192,110652,1,8,0:0:0:0:
256,192,110727,1,8,0:0:0:0:
256,192,110802,1,8,0:0:0:0:
256,192,110877,1,0,0:0:0:0:
256,192,110952,1,0,0:0:0:0:
256,192,111027,1,0,0:0:0:0:
256,192,111102,1,8,0:0:0:0:
256,192,111252,1,8,0:0:0:0:
256,192,111402,1,8,0:0:0:0:
256,192,111552,1,8,0:0:0:0:
256,192,111627,1,8,0:0:0:0:
256,192,111702,1,8,0:0:0:0:
256,192,111777,1,0,0:0:0:0:
256,192,111852,1,0,0:0:0:0:
256,192,111927,1,0,0:0:0:0:
256,192,112002,1,8,0:0:0:0:
256,192,112077,1,0,0:0:0:0:
256,192,112152,1,0,0:0:0:0:
256,192,112227,1,0,0:0:0:0:
256,192,112302,1,8,0:0:0:0:
256,192,112377,1,8,0:0:0:0:
256,192,112452,1,8,0:0:0:0:
256,192,112602,1,8,0:0:0:0:
256,192,112752,1,0,0:0:0:0:
256,192,112827,1,0,0:0:0:0:
256,192,112902,1,8,0:0:0:0:
256,192,112977,1,8,0:0:0:0:
256,192,113052,1,0,0:0:0:0:
256,192,113127,1,0,0:0:0:0:
256,192,113202,1,0,0:0:0:0:
256,192,113277,1,8,0:0:0:0:
256,192,113352,1,8,0:0:0:0:
256,192,113427,1,0,0:0:0:0:
256,192,113502,1,8,0:0:0:0:
256,192,113577,1,8,0:0:0:0:
256,192,113652,1,8,0:0:0:0:
256,192,113727,1,0,0:0:0:0:
256,192,113802,1,0,0:0:0:0:
256,192,113877,1,0,0:0:0:0:
224,192,113952,1,8,0:0:0:0:
256,192,114027,1,8,0:0:0:0:
256,192,114102,1,0,0:0:0:0:
256,192,114252,1,0,0:0:0:0:
256,192,114327,1,0,0:0:0:0:
256,192,114402,1,8,0:0:0:0:
256,192,114552,1,8,0:0:0:0:
256,192,114627,1,8,0:0:0:0:
256,192,114702,1,8,0:0:0:0:
256,192,114777,1,0,0:0:0:0:
256,192,114852,1,0,0:0:0:0:
256,192,114927,1,8,0:0:0:0:
256,192,115002,1,8,0:0:0:0:
256,192,115152,1,0,0:0:0:0:
256,192,115227,1,0,0:0:0:0:
256,192,115302,1,0,0:0:0:0:
288,192,115377,1,8,0:0:0:0:
288,192,115452,1,8,0:0:0:0:
256,192,115602,1,8,0:0:0:0:
256,192,115677,1,8,0:0:0:0:
256,192,115752,1,0,0:0:0:0:
256,192,115827,1,0,0:0:0:0:
256,192,115902,1,8,0:0:0:0:
256,192,115977,1,8,0:0:0:0:
256,192,116052,1,0,0:0:0:0:
256,192,116127,1,0,0:0:0:0:
256,192,116202,1,0,0:0:0:0:
256,192,116352,1,8,0:0:0:0:
256,192,116427,1,8,0:0:0:0:
256,192,116502,1,8,0:0:0:0:
256,192,116577,1,8,0:0:0:0:
288,192,116652,1,0,0:0:0:0:
288,192,116727,1,0,0:0:0:0:
288,192,116802,1,0,0:0:0:0:
288,192,116877,1,0,0:0:0:0:
256,192,116952,1,8,0:0:0:0:
256,192,117027,1,8,0:0:0:0:
256,192,117102,1,0,0:0:0:0:
256,192,117177,1,0,0:0:0:0:
256,192,117252,1,0,0:0:0:0:
256,192,117327,1,0,0:0:0:0:
256,192,117402,1,8,0:0:0:0:
256,192,117477,1,8,0:0:0:0:
256,192,117627,1,8,0:0:0:0:
256,192,117702,1,8,0:0:0:0:
256,192,117777,1,8,0:0:0:0:
256,192,117852,1,0,0:0:0:0:
256,192,117927,1,8,0:0:0:0:
256,192,118002,1,8,0:0:0:0:
256,192,118077,1,0,0:0:0:0:
256,192,118152,1,0,0:0:0:0:
256,192,118227,1,0,0:0:0:0:
256,192,118302,1,0,0:0:0:0:
256,192,118377,1,0,0:0:0:0:
256,192,118452,1,0,0:0:0:0:
256,192,118527,1,0,0:0:0:0:
256,192,118602,1,0,0:0:0:0:
256,192,118677,1,0,0:0:0:0:
256,192,118752,1,8,0:0:0:0:
256,192,118902,1,8,0:0:0:0:
256,192,118977,1,8,0:0:0:0:
256,192,119052,1,8,0:0:0:0:
256,192,119127,1,0,0:0:0:0:
256,192,119202,1,0,0:0:0:0:
256,192,119277,1,0,0:0:0:0:
256,192,119352,1,8,0:0:0:0:
256,192,119427,1,0,0:0:0:0:
256,192,119502,1,8,0:0:0:0:
256,192,119577,1,8,0:0:0:0:
256,192,119652,1,8,0:0:0:0:
256,192,119727,1,8,0:0:0:0:
256,192,119802,1,8,0:0:0:0:
256,192,119877,1,0,0:0:0:0:
256,192,119952,1,0,0:0:0:0:
256,192,120102,1,8,0:0:0:0:
256,192,120177,1,8,0:0:0:0:
256,192,120252,1,0,0:0:0:0:
256,192,120402,1,8,0:0:0:0:
256,192,120552,1,8,0:0:0:0:
256,192,120627,1,8,0:0:0:0:
256,192,120702,1,0,0:0:0:0:
256,192,120777,1,0,0:0:0:0:
256,192,120852,1,0,0:0:0:0:
256,192,120927,1,8,0:0:0:0:
256,192,121002,1,8,0:0:0:0:
256,192,121077,1,8,0:0:0:0:
256,192,121152,1,0,0:0:0:0:
256,192,121302,1,0,0:0:0:0:
256,192,121377,1,0,0:0:0:0:
256,192,121452,1,0,0:0:0:0:
256,192,121527,1,0,0:0:0:0:
256,192,121602,1,8,0:0:0:0:
256,192,121752,1,8,0:0:0:0:
256,192,121827,1,8,0:0:0:0:
256,192,121902,1,8,0:0:0:0:
256,192,121977,1,0,0:0:0:0:
256,192,122052,1,0,0:0:0:0:
256,192,122127,1,0,0:0:0:0:
256,192,122202,1,8,0:0:0:0:
256,192,122277,1,0,0:0:0:0:
256,192,122352,1,8,0:0:0:0:
256,192,122427,1,8,0:0:0:0:
256,192,122502,1,8,0:0:0:0:
256,192,122577,1,8,0:0:0:0:
256,192,122727,1,0,0:0:0:0:
256,192,122802,1,0,0:0:0:0:
256,192,122877,1,0,0:0:0:0:
256,192,122952,1,8,0:0:0:0:
256,192,123102,1,8,0:0:0:0:
256,192,123177,1,8,0:0:0:0:
256,192,123252,1,8,0:0:0:0:
256,192,123327,1,0,0:0:0:0:
256,192,123477,1,0,0:0:0:0:
256,192,123552,1,8,0:0:0:0:
256,192,123702,1,8,0:0:0:0:
256,192,123777,1,8,0:0:0:0:
256,192,123852,1,8,0:0:0:0:
256,192,123927,1,8,0:0:0:0:
256,192,124002,1,0,0:0:0:0:
256,192,124077,1,0,0:0:0:0:
256,192,124152,1,8,0:0:0:0:
256,192,124227,1,0,0:0:0:0:
256,192,124377,1,8,0:0:0:0:
288,192,124452,1,8,0:0:0:0:
256,192,124527,1,0,0:0:0:0:
256,192,124602,1,8,0:0:0:0:
256,192,124677,1,8,0:0:0:0:
256,192,124902,1,8,0:0:0:0:
256,192,124977,1,8,0:0:0:0:
256,192,125052,1,0,0:0:0:0:
256,192,125202,1,0,0:0:0:0:
256,192,125277,1,0,0:0:0:0:
256,192,125352,1,0,0:0:0:0:
256,192,125427,1,8,0:0:0:0:
256,192,125502,1,8,0:0:0:0:
256,192,125577,1,8,0:0:0:0:
256,192,125652,1,0,0:0:0:0:
256,192,125727,1,0,0:0:0:0:
256,192,125802,1,0,0:0:0:0:
256,192,125877,1,8,0:0:0:0:
256,192,125952,1,8,0:0:0:0:
256,192,126102,1,8,0:0:0:0:
256,192,126177,1,8,0:0:0:0:
256,192,126252,1,8,0:0:0:0:
256,192,126327,1,0,0:0:0:0:
256,192,126402,1,0,0:0:0:0:
256,192,126477,1,0,0:0:0:0:
256,192,126552,1,8,0:0:0:0:
256,192,126702,1,8,0:0:0:0:
256,192,126777,1,8,0:0:0:0:
256,192,126852,1,8,0:0:0:0:
256,192,126927,1,0,0:0:0:0:
256,192,127002,1,8,0:0:0:0:
256,192,127077,1,0,0:0:0:0:
256,192,127152,1,0,0:0:0:0:
256,192,127227,1,0,0:0:0:0:
256,192,127302,1,8,0:0:0:0:
256,192,127452,1,8,0:0:0:0:
256,192,127527,1,8,0:0:0:0:
256,192,127602,1,0,0:0:0:0:
256,192,127677,1,0,0:0:0:0:
256,192,127752,1,0,0:0:0:0:
256,192,127827,1,8,0:0:0:0:
256,192,127902,1,0,0:0:0:0:
256,192,127977,1,8,0:0:0:0:
256,192,128052,1,8,0:0:0:0:
256,192,128127,1,0,0:0:0:0:
256,192,128202,1,0,0:0:0:0:
256,192,128277,1,8,0:0:0:0:
256,192,128352,1,0,0:0:0:0:
256,192,128427,1,0,0:0:0:0:
256,192,128502,1,8,0:0:0:0:
256,192,128577,1,8,0:0:0:0:
256,192,128652,1,8,0:0:0:0:
256,192,128727,1,8,0:0:0:0:
256,192,128802,1,0,0:0:0:0:
256,192,128877,1,0,0:0:0:0:
256,192,128952,1,0,0:0:0:0:
256,192,129027,1,0,0:0:0:0:
256,192,129102,1,0,0:0:0:0:
256,192,129177,1,0,0:0:0:0:
256,192,129252,1,0,0:0:0:0:
256,192,129327,1,0,0:0:0:0:
256,192,129402,1,0,0:0:0:0:
256,192,129477,1,0,0:0:0:0:
