osu file format v14

[General]
AudioFilename: Last Time(t+pazolite Remix).mp3
AudioLeadIn: 0
PreviewTime: 100752
Countdown: 1
SampleSet: Soft
StackLeniency: 0.7
Mode: 1
LetterboxInBreaks: 1
WidescreenStoryboard: 1

[Editor]
DistanceSpacing: 0.5
BeatDivisor: 4
GridSize: 32
TimelineZoom: 0.876

[Metadata]
Title:Last Time(t+pazolite Remix)
TitleUnicode:Last Time(t+pazolite Remix)
Artist:ALiCE'S EMOTiON
ArtistUnicode:野宮あゆみ
Creator:superSSS
Version:Muzu
Source:
Tags:野宮あゆみ ALiCE'S EMOTiON t+pazolite Last Time superSSS anime remix
BeatmapID:652955
BeatmapSetID:289716

[Difficulty]
HPDrainRate:5
CircleSize:5
OverallDifficulty:5
ApproachRate:5
SliderMultiplier:1.4
SliderTickRate:1

[Events]
//Background and Video events
0,0,"`~ZEQY~$O38KBD))0}715BU.jpg",0,0
//Break Periods
//Storyboard Layer 0 (Background)
//Storyboard Layer 1 (Fail)
//Storyboard Layer 2 (Pass)
//Storyboard Layer 3 (Foreground)
//Storyboard Sound Samples

[TimingPoints]
-48,300,4,2,0,100,1,0
37902,-99.009900990099,4,2,0,100,0,0
37977,-97.0873786407767,4,2,0,100,0,0
38052,-96.1538461538461,4,2,0,100,0,0
38127,-95.2380952380952,4,2,0,100,0,0
38202,-94.3396226415094,4,2,0,100,0,0
38277,-93.4579439252336,4,2,0,100,0,0
38352,-83.3333333333333,4,2,0,100,0,0
38427,-82.6446280991736,4,2,0,100,0,0
38502,-81.9672131147541,4,2,0,100,0,0
38577,-81.3008130081301,4,2,0,100,0,0
38652,-80.6451612903226,4,2,0,100,0,0
38727,-80,4,2,0,100,0,0
38802,-79.3650793650794,4,2,0,100,0,0
38877,-76.9230769230769,4,2,0,100,0,0
38952,-71.4285714285714,4,2,0,100,0,0
39027,-66.6666666666667,4,2,0,100,0,0
39102,-71.4285714285714,4,2,0,100,0,0
39177,-76.9230769230769,4,2,0,100,0,0
39252,-83.3333333333333,4,2,0,100,0,0
39327,-90.9090909090909,4,2,0,100,0,0
39402,-100,4,2,0,100,0,0
49152,-200,4,2,0,100,0,0
58452,-133.333333333333,4,2,0,100,0,0
78102,-100,4,2,0,100,0,0
91152,-83.3333333333333,4,2,0,100,0,1
100302,-50,4,2,0,100,0,1
100677,-83.3333333333333,4,2,0,100,0,0
100752,-83.3333333333333,4,2,0,100,0,1
110277,-100,4,2,0,100,0,0
110352,-83.3333333333333,4,2,0,100,0,1
119877,-100,4,2,0,100,0,0
119952,-83.3333333333333,4,2,0,100,0,1
129552,-100,4,2,0,100,0,0

[HitObjects]
256,192,1152,5,0,0:0:0:0:
256,192,1452,1,0,0:0:0:0:
256,192,1752,1,8,0:0:0:0:
256,192,2352,1,8,0:0:0:0:
256,192,2652,1,8,0:0:0:0:
256,192,2952,1,8,0:0:0:0:
256,192,3252,1,8,0:0:0:0:
256,192,3552,1,0,0:0:0:0:
256,192,4152,1,8,0:0:0:0:
256,192,4752,1,0,0:0:0:0:
256,192,5352,1,0,0:0:0:0:
256,192,5652,1,8,0:0:0:0:
256,192,5952,1,0,0:0:0:0:
256,192,6552,1,0,0:0:0:0:
256,192,7152,1,8,0:0:0:0:
256,192,7452,1,8,0:0:0:0:
256,192,7752,1,8,0:0:0:0:
256,192,8052,1,0,0:0:0:0:
256,192,8502,1,8,0:0:0:0:
256,192,8952,1,0,0:0:0:0:
256,192,9252,1,8,0:0:0:0:
256,192,9552,1,8,0:0:0:0:
256,192,10152,1,0,0:0:0:0:
256,192,10752,1,8,0:0:0:0:
256,192,11352,1,8,0:0:0:0:
256,192,11952,1,8,0:0:0:0:
256,192,12252,1,8,0:0:0:0:
256,192,12552,1,0,0:0:0:0:
256,192,12852,1,8,0:0:0:0:
256,192,13152,1,0,0:0:0:0:
256,192,13752,1,0,0:0:0:0:
256,192,14352,1,8,0:0:0:0:
256,192,14652,1,8,0:0:0:0:
256,192,14952,1,8,0:0:0:0:
256,192,15252,1,8,0:0:0:0:
256,192,15552,1,0,0:0:0:0:
256,192,16152,1,0,0:0:0:0:
256,192,16752,1,8,0:0:0:0:
256,192,17052,1,8,0:0:0:0:
256,192,17352,1,8,0:0:0:0:
256,192,17652,1,8,0:0:0:0:
288,192,17952,1,0,0:0:0:0:
256,192,18552,1,0,0:0:0:0:
256,192,19152,1,8,0:0:0:0:
256,192,19752,1,8,0:0:0:0:
256,192,20352,1,8,0:0:0:0:
256,192,20502,1,0,0:0:0:0:
256,192,20952,1,0,0:0:0:0:
256,192,21552,1,0,0:0:0:0:
256,192,22152,1,0,0:0:0:0:
224,192,22752,1,8,0:0:0:0:
224,192,23052,1,8,0:0:0:0:
224,192,23352,1,8,0:0:0:0:
224,192,23652,1,8,0:0:0:0:
224,192,23952,1,8,0:0:0:0:
224,192,24102,1,0,0:0:0:0:
224,192,24552,1,0,0:0:0:0:
224,192,25152,1,8,0:0:0:0:
224,192,25302,1,0,0:0:0:0:
224,192,25752,1,0,0:0:0:0:
224,192,26352,1,0,0:0:0:0:
224,192,26952,1,0,0:0:0:0:
224,192,27552,1,8,0:0:0:0:
224,192,27852,1,8,0:0:0:0:
224,192,28152,1,8,0:0:0:0:
224,192,28452,1,8,0:0:0:0:
224,192,28752,1,8,0:0:0:0:
224,192,29352,1,0,0:0:0:0:
224,192,29952,1,8,0:0:0:0:
224,192,30102,1,0,0:0:0:0:
224,192,30552,1,8,0:0:0:0:
224,192,30702,1,0,0:0:0:0:
224,192,31152,1,0,0:0:0:0:
224,192,31752,1,0,0:0:0:0:
224,192,32352,1,8,0:0:0:0:
224,192,32652,1,8,0:0:0:0:
224,192,32952,1,8,0:0:0:0:
224,192,33252,1,8,0:0:0:0:
224,192,33552,1,8,0:0:0:0:
224,192,33702,1,0,0:0:0:0:
224,192,34152,1,0,0:0:0:0:
224,192,34752,1,8,0:0:0:0:
224,192,34952,1,8,0:0:0:0:
256,192,35152,1,0,0:0:0:0:
256,192,35352,1,8,0:0:0:0:
224,192,35952,1,8,0:0:0:0:
224,192,36152,1,8,0:0:0:0:
256,192,36352,1,0,0:0:0:0:
256,192,36552,1,8,0:0:0:0:
256,192,37152,1,8,0:0:0:0:
256,192,37452,1,8,0:0:0:0:
256,192,37752,1,8,0:0:0:0:
256,192,38052,1,8,0:0:0:0:
96,224,38352,2,0,P|256:0|480:224,1,671.999979492188
256,192,44352,1,8,0:0:0:0:
256,192,45552,1,8,0:0:0:0:
256,192,46752,1,8,0:0:0:0:
256,192,47952,1,8,0:0:0:0:
256,192,49302,1,0,0:0:0:0:
256,192,49602,1,0,0:0:0:0:
256,192,49902,1,8,0:0:0:0:
256,192,50502,1,8,0:0:0:0:
256,192,51327,1,0,0:0:0:0:
256,192,52302,1,8,0:0:0:0:
256,192,52602,1,8,0:0:0:0:
256,192,52902,1,8,0:0:0:0:
256,192,53202,1,0,0:0:0:0:
256,192,54102,1,8,0:0:0:0:
256,192,54702,1,0,0:0:0:0:
256,192,55302,1,0,0:0:0:0:
256,192,55602,1,8,0:0:0:0:
256,192,56052,1,8,0:0:0:0:
256,192,56652,1,0,0:0:0:0:
256,192,56952,12,0,58452,0:0:0:0:
256,192,58752,5,8,0:0:0:0:
256,192,59052,1,0,0:0:0:0:
256,192,59352,1,8,0:0:0:0:
256,192,59652,1,0,0:0:0:0:
256,192,59952,1,0,0:0:0:0:
256,192,60252,1,8,0:0:0:0:
256,192,60552,1,8,0:0:0:0:
256,192,60852,1,0,0:0:0:0:
256,192,61152,1,0,0:0:0:0:
256,192,61452,1,0,0:0:0:0:
256,192,61752,1,8,0:0:0:0:
256,192,62052,1,8,0:0:0:0:
256,192,62352,1,0,0:0:0:0:
256,192,62652,1,8,0:0:0:0:
256,192,62952,1,8,0:0:0:0:
256,192,63252,1,0,0:0:0:0:
256,192,63552,1,8,0:0:0:0:
256,192,63852,1,8,0:0:0:0:
256,192,64152,1,0,0:0:0:0:
256,192,64452,1,0,0:0:0:0:
256,192,64752,1,8,0:0:0:0:
256,192,65052,1,0,0:0:0:0:
256,192,65352,1,8,0:0:0:0:
256,192,65652,1,0,0:0:0:0:
256,192,65952,1,8,0:0:0:0:
256,192,66252,1,8,0:0:0:0:
256,192,66552,1,8,0:0:0:0:
256,192,66852,1,8,0:0:0:0:
256,192,67152,1,0,0:0:0:0:
256,192,67452,1,0,0:0:0:0:
256,192,67752,1,8,0:0:0:0:
256,192,68052,1,8,0:0:0:0:
256,192,68352,1,4,0:0:0:0:
256,192,68652,1,0,0:0:0:0:
224,192,68952,1,8,0:0:0:0:
256,192,69252,1,0,0:0:0:0:
256,192,69552,1,8,0:0:0:0:
256,192,69852,1,0,0:0:0:0:
256,192,70152,1,8,0:0:0:0:
256,192,70452,1,8,0:0:0:0:
256,192,70752,1,0,0:0:0:0:
256,192,71052,1,0,0:0:0:0:
256,192,71352,1,0,0:0:0:0:
256,192,71652,1,0,0:0:0:0:
256,192,71952,1,8,0:0:0:0:
256,192,72252,1,8,0:0:0:0:
256,192,72552,1,8,0:0:0:0:
256,192,72852,1,8,0:0:0:0:
256,192,73152,1,0,0:0:0:0:
256,192,73452,1,0,0:0:0:0:
256,192,73752,1,8,0:0:0:0:
256,192,74052,1,0,0:0:0:0:
256,192,74352,1,8,0:0:0:0:
256,192,74652,1,8,0:0:0:0:
256,192,74952,1,0,0:0:0:0:
256,192,75252,1,0,0:0:0:0:
160,192,75552,2,0,B|256:32|384:128|384:224,1,315.000012016297
256,192,76752,1,8,0:0:0:0:
256,192,77052,1,8,0:0:0:0:
256,192,77352,1,0,0:0:0:0:
256,192,77502,1,0,0:0:0:0:
256,192,77952,1,12,0:0:0:0:
256,192,78102,1,8,0:0:0:0:
256,192,79152,1,12,0:0:0:0:
256,192,79302,1,0,0:0:0:0:
256,192,80352,1,12,0:0:0:0:
256,192,80502,1,8,0:0:0:0:
256,192,81552,1,12,0:0:0:0:
256,192,81702,1,4,0:0:0:0:
256,192,82752,1,12,0:0:0:0:
256,192,83052,1,12,0:0:0:0:
256,192,83352,1,12,0:0:0:0:
256,192,83652,1,12,0:0:0:0:
256,192,83952,1,12,0:0:0:0:
256,192,84252,1,12,0:0:0:0:
256,192,84552,1,12,0:0:0:0:
256,192,84852,1,12,0:0:0:0:
256,192,85152,1,12,0:0:0:0:
256,192,85302,1,12,0:0:0:0:
256,192,85452,1,12,0:0:0:0:
256,192,85752,1,12,0:0:0:0:
256,192,86052,1,12,0:0:0:0:
256,192,86352,1,12,0:0:0:0:
256,192,86502,1,12,0:0:0:0:
256,192,86652,1,12,0:0:0:0:
256,192,86952,1,12,0:0:0:0:
256,192,87252,1,12,0:0:0:0:
64,224,87552,2,12,P|256:32|416:224,1,560
256,192,89352,1,12,0:0:0:0:
256,192,89502,1,12,0:0:0:0:
256,192,89652,1,12,0:0:0:0:
256,192,89952,1,0,0:0:0:0:
256,192,90252,1,8,0:0:0:0:
256,192,90552,1,0,0:0:0:0:
224,192,90852,1,8,0:0:0:0:
256,192,91152,1,0,0:0:0:0:
256,192,91302,1,0,0:0:0:0:
256,192,91452,1,0,0:0:0:0:
256,192,91752,1,8,0:0:0:0:
256,192,92052,1,8,0:0:0:0:
256,192,92352,1,8,0:0:0:0:
256,192,92652,1,0,0:0:0:0:
256,192,92952,1,0,0:0:0:0:
256,192,93252,1,8,0:0:0:0:
256,192,93552,1,0,0:0:0:0:
256,192,93702,1,0,0:0:0:0:
256,192,93852,1,8,0:0:0:0:
256,192,94152,1,8,0:0:0:0:
256,192,94452,1,8,0:0:0:0:
224,192,94752,1,0,0:0:0:0:
256,192,95052,1,8,0:0:0:0:
256,192,95352,1,0,0:0:0:0:
256,192,95652,1,0,0:0:0:0:
256,192,95952,1,8,0:0:0:0:
256,192,96102,1,8,0:0:0:0:
256,192,96252,1,0,0:0:0:0:
256,192,96402,1,8,0:0:0:0:
256,192,96552,1,0,0:0:0:0:
256,192,96852,1,0,0:0:0:0:
256,192,97152,1,8,0:0:0:0:
256,192,97452,1,8,0:0:0:0:
256,192,97752,1,8,0:0:0:0:
256,192,98052,1,8,0:0:0:0:
256,192,98352,1,0,0:0:0:0:
256,192,98652,1,0,0:0:0:0:
256,192,98952,1,8,0:0:0:0:
256,192,99252,1,8,0:0:0:0:
256,192,99552,1,8,0:0:0:0:
256,192,99852,1,0,0:0:0:0:
256,192,100152,1,12,0:0:0:0:
256,192,100302,1,12,0:0:0:0:
256,192,100452,1,12,0:0:0:0:
256,192,100752,1,0,0:0:0:0:
256,192,100902,1,0,0:0:0:0:
256,192,101052,1,8,0:0:0:0:
256,192,101352,1,8,0:0:0:0:
256,192,101652,1,8,0:0:0:0:
256,192,101952,1,8,0:0:0:0:
256,192,102102,1,8,0:0:0:0:
256,192,102402,1,8,0:0:0:0:
256,192,102552,1,0,0:0:0:0:
256,192,102852,1,0,0:0:0:0:
256,192,103152,1,8,0:0:0:0:
256,192,103302,1,8,0:0:0:0:
256,192,103452,1,8,0:0:0:0:
256,192,103602,1,8,0:0:0:0:
256,192,103752,1,0,0:0:0:0:
256,192,104052,1,0,0:0:0:0:
256,192,104352,1,8,0:0:0:0:
256,192,104502,1,8,0:0:0:0:
256,192,104802,1,8,0:0:0:0:
288,192,104952,1,0,0:0:0:0:
256,192,105102,1,8,0:0:0:0:
256,192,105252,1,0,0:0:0:0:
256,192,105552,1,0,0:0:0:0:
256,192,105702,1,0,0:0:0:0:
256,192,105852,1,8,0:0:0:0:
256,192,106152,1,8,0:0:0:0:
256,192,106302,1,8,0:0:0:0:
256,192,106452,1,0,0:0:0:0:
256,192,106752,1,0,0:0:0:0:
256,192,106902,1,0,0:0:0:0:
256,192,107052,1,8,0:0:0:0:
256,192,107202,1,0,0:0:0:0:
256,192,107352,1,8,0:0:0:0:
256,192,107652,1,8,0:0:0:0:
256,192,107952,1,0,0:0:0:0:
256,192,108102,1,0,0:0:0:0:
256,192,108252,1,0,0:0:0:0:
256,192,108402,1,0,0:0:0:0:
256,192,108552,1,8,0:0:0:0:
256,192,108852,1,8,0:0:0:0:
256,192,109002,1,8,0:0:0:0:
96,224,109152,2,8,P|192:0|288:256,1,629.999980773926
256,192,110652,1,8,0:0:0:0:
256,192,110802,1,0,0:0:0:0:
256,192,110952,1,0,0:0:0:0:
256,192,111252,1,8,0:0:0:0:
256,192,111402,1,8,0:0:0:0:
256,192,111552,1,0,0:0:0:0:
256,192,111702,1,8,0:0:0:0:
256,192,111852,1,0,0:0:0:0:
256,192,112152,1,8,0:0:0:0:
256,192,112452,1,8,0:0:0:0:
256,192,112602,1,0,0:0:0:0:
256,192,112902,1,0,0:0:0:0:
256,192,113052,1,8,0:0:0:0:
256,192,113352,1,8,0:0:0:0:
256,192,113652,1,0,0:0:0:0:
256,192,113802,1,0,0:0:0:0:
256,192,113952,1,0,0:0:0:0:
256,192,114102,1,8,0:0:0:0:
224,192,114402,1,0,0:0:0:0:
256,192,114552,1,0,0:0:0:0:
256,192,114852,1,8,0:0:0:0:
256,192,115002,1,8,0:0:0:0:
256,192,115302,1,8,0:0:0:0:
224,192,115452,1,0,0:0:0:0:
224,192,115752,1,0,0:0:0:0:
224,192,115902,1,0,0:0:0:0:
256,192,116052,1,8,0:0:0:0:
256,192,116202,1,8,0:0:0:0:
256,192,116352,1,0,0:0:0:0:
256,192,116502,1,8,0:0:0:0:
256,192,116802,1,8,0:0:0:0:
256,192,116952,1,0,0:0:0:0:
256,192,117252,1,8,0:0:0:0:
256,192,117402,1,8,0:0:0:0:
224,192,117552,1,0,0:0:0:0:
256,192,117852,1,8,0:0:0:0:
256,192,118002,1,8,0:0:0:0:
256,192,118152,1,8,0:0:0:0:
256,192,118302,1,8,0:0:0:0:
256,192,118452,1,0,0:0:0:0:
256,192,118752,1,0,0:0:0:0:
256,192,119052,1,0,0:0:0:0:
256,192,119352,1,8,0:0:0:0:
256,192,119502,1,8,0:0:0:0:
256,192,119652,1,8,0:0:0:0:
256,192,119802,1,0,0:0:0:0:
256,192,119952,1,0,0:0:0:0:
256,192,120252,1,0,0:0:0:0:
256,192,120402,1,0,0:0:0:0:
256,192,120552,1,8,0:0:0:0:
256,192,120702,1,8,0:0:0:0:
256,192,121002,1,8,0:0:0:0:
256,192,121152,1,0,0:0:0:0:
256,192,121452,1,8,0:0:0:0:
256,192,121752,1,8,0:0:0:0:
256,192,121902,1,8,0:0:0:0:
256,192,122052,1,0,0:0:0:0:
256,192,122202,1,8,0:0:0:0:
256,192,122502,1,8,0:0:0:0:
256,192,122652,1,8,0:0:0:0:
256,192,122952,1,0,0:0:0:0:
256,192,123102,1,0,0:0:0:0:
256,192,123402,1,0,0:0:0:0:
288,192,123552,1,8,0:0:0:0:
256,192,123852,1,8,0:0:0:0:
256,192,124152,1,8,0:0:0:0:
256,192,124302,1,0,0:0:0:0:
256,192,124602,1,0,0:0:0:0:
256,192,124902,1,8,0:0:0:0:
256,192,125202,1,8,0:0:0:0:
256,192,125502,1,0,0:0:0:0:
256,192,125652,1,8,0:0:0:0:
256,192,125802,1,8,0:0:0:0:
256,192,126102,1,8,0:0:0:0:
256,192,126402,1,0,0:0:0:0:
256,192,126552,1,8,0:0:0:0:
256,192,126702,1,8,0:0:0:0:
256,192,126852,12,8,129552,0:0:0:0:
