osu file format v14

[General]
AudioFilename: Last Time(t+pazolite Remix).mp3
AudioLeadIn: 0
PreviewTime: 100752
Countdown: 1
SampleSet: Soft
StackLeniency: 0.7
Mode: 1
LetterboxInBreaks: 1
WidescreenStoryboard: 1

[Editor]
DistanceSpacing: 0.5
BeatDivisor: 4
GridSize: 32
TimelineZoom: 0.876

[Metadata]
Title:Last Time(t+pazolite Remix)
TitleUnicode:Last Time(t+pazolite Remix)
Artist:ALiCE'S EMOTiON
ArtistUnicode:野宮あゆみ
Creator:superSSS
Version:Futsuu
Source:
Tags:野宮あゆみ ALiCE'S EMOTiON t+pazolite Last Time superSSS anime remix
BeatmapID:652954
BeatmapSetID:289716

[Difficulty]
HPDrainRate:5
CircleSize:5
OverallDifficulty:5
ApproachRate:5
SliderMultiplier:1.4
SliderTickRate:1

[Events]
//Background and Video events
0,0,"`~ZEQY~$O38KBD))0}715BU.jpg",0,0
//Break Periods
2,39752,48102
//Storyboard Layer 0 (Background)
//Storyboard Layer 1 (Fail)
//Storyboard Layer 2 (Pass)
//Storyboard Layer 3 (Foreground)
//Storyboard Sound Samples

[TimingPoints]
-48,300,4,2,0,100,1,0
37902,-99.009900990099,4,2,0,100,0,0
37977,-97.0873786407767,4,2,0,100,0,0
38052,-96.1538461538461,4,2,0,100,0,0
38127,-95.2380952380952,4,2,0,100,0,0
38202,-94.3396226415094,4,2,0,100,0,0
38277,-93.4579439252336,4,2,0,100,0,0
38352,-83.3333333333333,4,2,0,100,0,0
38427,-82.6446280991736,4,2,0,100,0,0
38502,-81.9672131147541,4,2,0,100,0,0
38577,-81.3008130081301,4,2,0,100,0,0
38652,-80.6451612903226,4,2,0,100,0,0
38727,-80,4,2,0,100,0,0
38802,-79.3650793650794,4,2,0,100,0,0
38877,-76.9230769230769,4,2,0,100,0,0
38952,-71.4285714285714,4,2,0,100,0,0
39027,-66.6666666666667,4,2,0,100,0,0
39102,-71.4285714285714,4,2,0,100,0,0
39177,-76.9230769230769,4,2,0,100,0,0
39252,-83.3333333333333,4,2,0,100,0,0
39327,-90.9090909090909,4,2,0,100,0,0
39402,-100,4,2,0,100,0,0
49152,-200,4,2,0,100,0,0
58452,-133.333333333333,4,2,0,100,0,0
78102,-100,4,2,0,100,0,0
91152,-83.3333333333333,4,2,0,100,0,1
100302,-50,4,2,0,100,0,1
100677,-83.3333333333333,4,2,0,100,0,0
100752,-83.3333333333333,4,2,0,100,0,1
110277,-100,4,2,0,100,0,0
110352,-83.3333333333333,4,2,0,100,0,1
119877,-100,4,2,0,100,0,0
119952,-83.3333333333333,4,2,0,100,0,1
129552,-100,4,2,0,100,0,0

[HitObjects]
256,192,1152,5,4,0:0:0:0:
256,192,2352,1,8,0:0:0:0:
256,192,2802,1,8,0:0:0:0:
256,192,3252,1,8,0:0:0:0:
256,192,3552,1,4,0:0:0:0:
256,192,4752,1,4,0:0:0:0:
256,192,5352,1,8,0:0:0:0:
256,192,5652,1,8,0:0:0:0:
288,192,5952,1,4,0:0:0:0:
288,192,7152,1,0,0:0:0:0:
288,192,7602,1,8,0:0:0:0:
288,192,8052,1,8,0:0:0:0:
256,192,8352,1,0,0:0:0:0:
256,192,9552,1,8,0:0:0:0:
256,192,10152,1,8,0:0:0:0:
256,192,10452,1,8,0:0:0:0:
256,192,10752,1,0,0:0:0:0:
256,192,11352,1,0,0:0:0:0:
256,192,11952,1,8,0:0:0:0:
256,192,12402,1,8,0:0:0:0:
256,192,12852,1,8,0:0:0:0:
256,192,13152,1,0,0:0:0:0:
256,192,13752,1,8,0:0:0:0:
256,192,14352,1,0,0:0:0:0:
256,192,14952,1,0,0:0:0:0:
256,192,15252,1,8,0:0:0:0:
256,192,15552,1,0,0:0:0:0:
256,192,16152,1,0,0:0:0:0:
256,192,16752,1,8,0:0:0:0:
256,192,17202,1,8,0:0:0:0:
256,192,17652,1,8,0:0:0:0:
256,192,17952,1,0,0:0:0:0:
128,224,19152,2,0,P|192:64|448:224,1,560
256,192,20952,1,8,0:0:0:0:
256,192,21552,1,0,0:0:0:0:
256,192,22152,1,8,0:0:0:0:
256,192,22752,1,8,0:0:0:0:
256,192,23352,1,8,0:0:0:0:
256,192,23952,1,8,0:0:0:0:
256,192,24552,1,4,0:0:0:0:
256,192,25152,1,4,0:0:0:0:
256,192,25752,1,8,0:0:0:0:
256,192,26352,1,0,0:0:0:0:
256,192,26952,1,8,0:0:0:0:
256,192,27552,1,8,0:0:0:0:
256,192,28152,1,8,0:0:0:0:
256,192,28752,1,8,0:0:0:0:
256,192,29202,1,0,0:0:0:0:
256,192,29652,1,0,0:0:0:0:
256,192,29952,1,0,0:0:0:0:
256,192,30552,1,8,0:0:0:0:
256,192,31152,1,0,0:0:0:0:
256,192,31752,1,8,0:0:0:0:
256,192,32352,1,8,0:0:0:0:
256,192,32802,1,8,0:0:0:0:
256,192,33252,1,8,0:0:0:0:
256,192,33552,1,8,0:0:0:0:
256,192,34152,1,0,0:0:0:0:
256,192,34752,1,8,0:0:0:0:
256,160,35052,1,0,0:0:0:0:
256,192,35352,1,8,0:0:0:0:
256,192,35952,1,8,0:0:0:0:
256,192,36252,1,0,0:0:0:0:
256,192,36552,1,8,0:0:0:0:
256,192,37152,1,8,0:0:0:0:
32,352,37752,2,0,P|256:0|448:224,1,840
256,192,49302,5,0,0:0:0:0:
256,192,49902,1,0,0:0:0:0:
256,192,50502,1,8,0:0:0:0:
256,192,51252,1,8,0:0:0:0:
256,192,52302,1,8,0:0:0:0:
256,192,52902,1,0,0:0:0:0:
256,192,54102,1,8,0:0:0:0:
256,192,54702,1,8,0:0:0:0:
256,192,55302,1,0,0:0:0:0:
256,192,55902,1,8,0:0:0:0:
256,192,56952,1,8,0:0:0:0:
256,192,57552,12,8,58752,0:0:0:0:
256,192,59352,5,8,0:0:0:0:
256,192,59952,1,0,0:0:0:0:
256,192,60552,1,8,0:0:0:0:
256,192,60852,1,0,0:0:0:0:
256,192,61752,1,8,0:0:0:0:
256,192,62352,1,0,0:0:0:0:
256,192,62802,1,8,0:0:0:0:
256,192,63552,1,0,0:0:0:0:
256,192,64152,1,8,0:0:0:0:
256,192,64752,1,8,0:0:0:0:
256,192,65352,1,8,0:0:0:0:
32,192,65952,2,0,P|224:64|384:160,1,420.000016021729
256,192,67752,1,12,0:0:0:0:
256,192,68352,1,12,0:0:0:0:
256,192,68952,1,0,0:0:0:0:
256,192,69552,1,8,0:0:0:0:
256,192,70302,1,8,0:0:0:0:
256,192,70752,1,0,0:0:0:0:
288,192,71952,1,0,0:0:0:0:
288,192,72552,1,8,0:0:0:0:
288,192,73152,1,4,0:0:0:0:
288,192,74352,1,4,0:0:0:0:
288,192,74952,1,8,0:0:0:0:
288,192,75552,1,8,0:0:0:0:
288,192,76152,1,8,0:0:0:0:
256,192,76752,12,8,77952,0:0:0:0:
256,192,79152,5,12,0:0:0:0:
256,192,80352,1,12,0:0:0:0:
256,192,81552,1,12,0:0:0:0:
256,192,82752,1,12,0:0:0:0:
256,192,83352,1,12,0:0:0:0:
256,192,83952,1,12,0:0:0:0:
256,192,84552,1,12,0:0:0:0:
256,192,85152,1,12,0:0:0:0:
256,192,85752,1,12,0:0:0:0:
256,192,86352,1,12,0:0:0:0:
256,192,86952,1,12,0:0:0:0:
128,256,87552,2,0,P|192:64|384:224,1,525
256,192,88752,12,0,89952,0:0:0:0:
256,192,90552,5,8,0:0:0:0:
256,192,91152,1,0,0:0:0:0:
256,192,91752,1,0,0:0:0:0:
256,192,92352,1,8,0:0:0:0:
256,192,92952,1,8,0:0:0:0:
256,192,93552,1,0,0:0:0:0:
256,192,94152,1,8,0:0:0:0:
256,192,94752,1,0,0:0:0:0:
256,192,95352,1,8,0:0:0:0:
256,192,95652,1,0,0:0:0:0:
256,192,96552,1,8,0:0:0:0:
256,192,97152,1,8,0:0:0:0:
256,192,97752,1,8,0:0:0:0:
256,192,98352,1,0,0:0:0:0:
256,192,98952,1,0,0:0:0:0:
64,224,99552,2,0,P|256:64|320:224,1,503.999984619141
256,192,100752,1,8,0:0:0:0:
256,192,101352,1,8,0:0:0:0:
256,192,101952,1,8,0:0:0:0:
256,192,102552,1,8,0:0:0:0:
256,192,103152,1,0,0:0:0:0:
256,192,103752,1,8,0:0:0:0:
256,192,104352,1,8,0:0:0:0:
256,192,104952,1,8,0:0:0:0:
256,192,105552,1,0,0:0:0:0:
256,192,106152,1,8,0:0:0:0:
256,192,106752,1,8,0:0:0:0:
256,192,107352,1,0,0:0:0:0:
256,192,107952,1,8,0:0:0:0:
256,192,108552,1,8,0:0:0:0:
256,192,109152,1,0,0:0:0:0:
256,192,109752,1,0,0:0:0:0:
256,192,110052,1,0,0:0:0:0:
256,192,110352,1,0,0:0:0:0:
256,192,110952,1,8,0:0:0:0:
256,192,111552,1,8,0:0:0:0:
256,192,112152,1,0,0:0:0:0:
256,192,112452,1,8,0:0:0:0:
256,192,113352,1,8,0:0:0:0:
256,192,113952,1,0,0:0:0:0:
256,192,114552,1,0,0:0:0:0:
256,192,115152,1,0,0:0:0:0:
256,192,115752,1,8,0:0:0:0:
256,192,116352,1,8,0:0:0:0:
224,192,116952,1,0,0:0:0:0:
256,192,117552,1,8,0:0:0:0:
256,192,117852,1,8,0:0:0:0:
256,192,118452,1,8,0:0:0:0:
256,192,119352,1,0,0:0:0:0:
256,192,119952,1,8,0:0:0:0:
256,192,120552,1,8,0:0:0:0:
256,192,121152,1,8,0:0:0:0:
256,192,121752,1,0,0:0:0:0:
256,192,122952,1,0,0:0:0:0:
256,192,123552,1,8,0:0:0:0:
256,192,124152,1,8,0:0:0:0:
256,192,124452,1,0,0:0:0:0:
256,192,124752,1,0,0:0:0:0:
256,192,125352,1,8,0:0:0:0:
256,192,126252,1,8,0:0:0:0:
256,192,126852,1,0,0:0:0:0:
256,192,127152,12,0,129552,0:0:0:0:
