osu file format v14

[General]
AudioFilename: audio.mp3
AudioLeadIn: 0
PreviewTime: 34254
Countdown: 0
SampleSet: Normal
StackLeniency: 0.7
Mode: 2
LetterboxInBreaks: 0
WidescreenStoryboard: 1

[Editor]
Bookmarks: 96477,189175,190445
DistanceSpacing: 4
BeatDivisor: 4
GridSize: 4
TimelineZoom: 1.5

[Metadata]
Title:Dark Flight Dreamer
TitleUnicode:Dark Flight Dreamer
Artist:ALiCE'S EMOTiON
ArtistUnicode:ALiCE'S EMOTiON
Creator:Bastian
Version:Secre & wonjae's Salad
Source:東方花映塚 ~ Phantasmagoria of Flower View.
Tags:jpop j-pop video game japanese nari marisa kirisame redalice ayumi nomiya Kaeidzuka ~ touhou 東方Project View オリエンタルダークフライト Oriental reitaisai 11 release team shanghai alice jorkseljund -vale vale greaper Dako GIGACHAD JBHyperion JBH secre chickenbible wonjae paranoid grapes ZUN 霧雨魔理沙 野宮あゆみ
BeatmapID:2649085
BeatmapSetID:1270628

[Difficulty]
HPDrainRate:3
CircleSize:3
OverallDifficulty:7
ApproachRate:7
SliderMultiplier:1.68
SliderTickRate:1

[Events]
//Background and Video events
0,0,"DarkFlightDreamer.jpg",0,0
//Break Periods
2,127153,133672
//Storyboard Layer 0 (Background)
//Storyboard Layer 1 (Fail)
//Storyboard Layer 2 (Pass)
//Storyboard Layer 3 (Foreground)
//Storyboard Layer 4 (Overlay)
//Storyboard Sound Samples

[TimingPoints]
1239,317.460317460317,4,1,1,60,1,0
2508,-100,4,1,1,75,0,0
12667,-100,4,1,1,65,0,0
30286,-100,4,1,1,65,0,0
31080,-100,4,1,1,65,0,0
34254,-100,4,1,1,80,0,1
44096,-100,4,1,1,80,0,0
44413,-100,4,1,1,80,0,1
54254,-100,4,1,1,80,0,0
54572,-100,4,1,1,80,0,1
64731,-100,4,1,1,75,0,0
74889,-100,4,1,1,65,0,0
93461,-100,4,1,1,65,0,0
96477,-100,4,1,1,80,0,1
106318,-100,4,1,1,80,0,0
106635,-100,4,1,1,80,0,1
116477,-100,4,1,1,80,0,0
116794,-100,4,1,1,80,0,1
125524,-125,4,1,1,80,0,1
126953,-100,4,2,1,75,0,0
127112,-100,4,2,1,60,0,0
137112,-100,4,1,1,65,0,0
142191,-100,4,1,1,70,0,0
144731,-100,4,1,1,75,0,0
148540,-100,4,1,1,80,0,1
158381,-100,4,1,1,80,0,0
158699,-100,4,1,1,80,0,1
168540,-100,4,1,1,80,0,0
168858,-100,4,1,1,80,0,1
179016,-100,4,1,1,75,0,0
189175,-100,4,1,1,60,0,0
189810,-100,4,1,1,40,0,0
190445,-100,4,1,1,20,0,0
191080,-100,4,1,1,10,0,0

[Colours]
Combo1 : 255,128,0
Combo2 : 0,232,232
Combo3 : 255,202,17
Combo4 : 255,182,147
Combo5 : 0,128,255
Combo6 : 106,53,53

[HitObjects]
256,192,1239,12,2,2191,0:0:0:0:
365,226,2508,5,6,0:0:0:0:
448,225,2666,1,0,0:0:0:0:
365,226,2826,1,10,0:0:0:0:
213,251,3143,1,2,0:0:0:0:
208,167,3301,1,0,0:0:0:0:
203,83,3460,1,10,0:0:0:0:
295,108,3619,6,0,L|100:111,1,168,0|0,0:0|0:0,0:0:0:0:
220,128,4096,1,10,0:0:0:0:
227,211,4254,1,0,0:0:0:0:
143,218,4413,1,2,0:0:0:0:
302,207,4731,1,10,0:0:0:0:
308,123,4889,1,0,0:0:0:0:
156,103,5048,5,2,0:0:0:0:
72,103,5206,1,0,0:0:0:0:
156,103,5365,1,10,0:0:0:0:
327,125,5683,1,2,0:0:0:0:
334,208,5841,1,0,0:0:0:0:
327,125,6000,1,10,0:0:0:0:
174,138,6318,6,0,L|170:85,2,42,2|2|2,0:0|0:0|0:0,0:0:0:0:
258,138,6635,1,10,0:0:0:0:
417,183,6953,1,2,0:0:0:0:
333,183,7111,1,2,0:0:0:0:
252,152,7270,2,0,L|204:154,2,42,10|2|2,0:0|0:0|0:0,0:0:0:0:
411,121,7588,5,2,0:0:0:0:
421,204,7746,1,0,0:0:0:0:
336,142,7905,1,10,0:0:0:0:
173,197,8223,1,2,0:0:0:0:
89,197,8381,1,0,0:0:0:0:
173,197,8540,1,10,0:0:0:0:
256,198,8699,6,0,L|429:200,1,168,0|0,0:0|0:0,0:0:0:0:
343,136,9175,1,10,0:0:0:0:
187,171,9492,1,2,0:0:0:0:
179,87,9650,1,0,0:0:0:0:
260,69,9810,1,10,0:0:0:0:
266,152,9968,1,0,0:0:0:0:
111,224,10127,5,2,0:0:0:0:
33,226,10285,1,2,0:0:0:0:
111,224,10445,1,10,0:0:0:0:
272,176,10762,1,2,0:0:0:0:
355,174,10920,1,2,0:0:0:0:
272,176,11080,1,10,0:0:0:0:
107,143,11238,1,6,0:0:0:0:
262,156,11556,5,4,0:0:0:0:
345,156,11714,1,4,0:0:0:0:
262,156,11873,1,4,0:0:0:0:
106,237,12032,2,0,P|59:206|123:134,1,168,2|2,0:0|0:0,0:0:0:0:
398,208,12667,6,0,L|225:209,1,168,6|2,0:0|0:0,0:0:0:0:
320,143,13143,2,0,P|377:174|308:234,1,168,0|0,0:0|0:0,0:0:0:0:
242,246,13619,1,2,0:0:0:0:
322,277,13778,6,0,P|397:245|317:143,1,252
173,192,14572,1,2,0:0:0:0:
256,192,14730,1,0,0:0:0:0:
173,192,14889,1,2,0:0:0:0:
91,159,15048,1,0,0:0:0:0:
245,117,15207,6,0,P|287:142|213:215,1,168,2|2,0:0|0:0,0:0:0:0:
79,198,15842,2,0,P|81:123|186:85,1,168,2|2,0:0|0:0,0:0:0:0:
235,107,16318,5,0,0:0:0:0:
319,107,16476,1,2,0:0:0:0:
235,107,16635,1,0,0:0:0:0:
151,110,16793,1,2,0:0:0:0:
235,107,16953,2,0,P|296:144|222:192,1,168,0|0,0:0|0:0,0:0:0:0:
155,191,17429,1,2,0:0:0:0:
442,146,17746,6,0,P|494:178|413:234,1,168,6|2,0:0|0:0,0:0:0:0:
366,249,18223,2,0,L|180:245,1,168,0|0,0:0|0:0,0:0:0:0:
287,183,18699,1,2,0:0:0:0:
371,152,18858,6,0,P|435:175|364:211,1,168,0|0,0:0|0:0,0:0:0:0:
297,245,19334,1,2,0:0:0:0:
10,203,19651,2,0,L|191:199,1,168,2|2,0:0|0:0,0:0:0:0:
264,134,20127,1,0,0:0:0:0:
175,259,20286,6,0,P|112:226|94:114,1,168,2|2,0:0|0:0,0:0:0:0:
266,179,20921,1,2,0:0:0:0:
100,224,21238,1,2,0:0:0:0:
93,140,21396,1,0,0:0:0:0:
244,147,21556,5,6,0:0:0:0:
318,145,21714,1,0,0:0:0:0:
47,204,22032,2,0,L|222:207,2,168,2|2|2,0:0|0:0|0:0,0:0:0:0:
201,143,22826,5,6,0:0:0:0:
285,143,22984,1,0,0:0:0:0:
110,195,23302,2,0,L|100:22,1,168,2|0,0:0|0:0,0:0:0:0:
258,134,23937,6,0,L|91:137,1,168,2|0,0:0|0:0,0:0:0:0:
173,82,24413,1,0,0:0:0:0:
353,87,24731,2,0,L|366:267,1,168,2|2,0:0|0:0,0:0:0:0:
282,268,25207,1,0,0:0:0:0:
133,196,25365,5,6,0:0:0:0:
49,196,25523,1,0,0:0:0:0:
213,141,25842,2,0,L|411:144,1,168,2|0,0:0|0:0,0:0:0:0:
97,241,26477,6,0,P|45:196|128:136,1,168,2|2,0:0|0:0,0:0:0:0:
174,142,26953,1,2,0:0:0:0:
337,178,27270,1,2,0:0:0:0:
252,168,27428,1,2,0:0:0:0:
241,55,27588,1,2,0:0:0:0:
323,56,27746,1,2,0:0:0:0:
172,226,27905,6,0,P|113:194|189:153,1,168,6|2,0:0|0:0,0:0:0:0:
251,150,28381,2,0,L|435:143,1,168,0|0,0:0|0:0,0:0:0:0:
126,230,29016,6,0,L|113:53,1,168,2|2,0:0|0:0,0:0:0:0:
403,75,29651,2,0,L|421:268,1,168,2|2,0:0|0:0,0:0:0:0:
327,247,30127,1,2,0:0:0:0:
175,245,30286,6,0,P|65:206|193:106,1,336,6|0,0:0|0:0,0:0:0:0:
366,124,31397,1,0,2:0:0:0:
353,207,31555,1,0,2:0:0:0:
194,241,31715,6,0,P|145:203|218:133,1,168,2|2,0:0|0:0,0:0:0:0:
353,128,32191,1,2,0:0:0:0:
201,217,32508,1,2,0:0:0:0:
128,215,32666,1,2,0:0:0:0:
201,217,32826,1,2,0:0:0:0:
288,187,32985,5,6,0:0:0:0:
128,160,33302,1,2,2:0:0:0:
293,117,33619,1,2,0:0:0:0:
333,123,33698,1,2,0:0:0:0:
352,159,33777,1,2,0:0:0:0:
336,196,33857,1,2,0:0:0:0:
297,206,33936,1,10,0:0:0:0:
16,235,34254,6,0,L|192:238,1,168,6|10,0:0|0:0,0:0:0:0:
98,201,34731,2,0,P|52:162|119:91,1,168,0|0,0:0|0:0,0:0:0:0:
261,134,35365,5,0,0:0:0:0:
106,208,35683,1,0,0:0:0:0:
189,207,35841,1,10,0:0:0:0:
348,156,36159,2,0,P|412:190|335:227,1,168,2|10,0:0|0:0,0:0:0:0:
78,252,36794,6,0,P|30:214|96:142,1,168,2|10,0:0|0:0,0:0:0:0:
181,167,37270,2,0,L|13:165,1,168,0|0,0:0|0:0,0:0:0:0:
95,111,37746,1,10,0:0:0:0:
246,141,37905,5,0,0:0:0:0:
400,187,38223,1,0,0:0:0:0:
316,187,38381,1,10,0:0:0:0:
154,249,38699,2,0,P|92:215|165:180,1,168,2|10,0:0|0:0,0:0:0:0:
452,231,39334,6,0,L|276:234,1,168,6|10,0:0|0:0,0:0:0:0:
370,197,39811,2,0,P|416:158|349:87,1,168,0|0,0:0|0:0,0:0:0:0:
207,130,40445,5,0,0:0:0:0:
362,204,40763,1,0,0:0:0:0:
278,203,40921,1,10,0:0:0:0:
120,152,41239,2,0,P|56:186|133:223,1,168,2|10,0:0|0:0,0:0:0:0:
207,253,41715,1,0,0:0:0:0:
363,244,41874,6,0,P|411:206|345:134,1,168,6|2,0:0|0:0,0:0:0:0:
260,159,42350,2,0,L|428:157,1,168,8|2,0:0|0:0,0:0:0:0:
187,130,42985,5,6,0:0:0:0:
41,179,43303,1,6,0:0:0:0:
31,101,43461,1,2,0:0:0:0:
41,179,43619,1,2,0:0:0:0:
208,292,43778,2,0,L|412:291,1,168,6|0,0:0|2:0,0:0:0:0:
100,261,44413,6,0,P|48:191|130:167,1,168,6|10,0:0|0:0,0:0:0:0:
185,165,44889,2,0,L|368:167,1,168,0|0,0:0|0:0,0:0:0:0:
189,210,45524,5,0,0:0:0:0:
342,115,45842,1,0,0:0:0:0:
354,198,46000,1,10,0:0:0:0:
189,216,46318,2,0,L|369:217,1,168,2|10,0:0|0:0,0:0:0:0:
71,278,46953,6,0,L|281:280,1,168,2|10,0:0|0:0,0:0:0:0:
161,239,47429,2,0,P|109:176|187:141,1,168,0|0,0:0|0:0,0:0:0:0:
336,198,48064,6,0,L|110:200,1,168,0|0,0:0|0:0,0:0:0:0:
256,145,48540,1,10,0:0:0:0:
430,120,48858,2,0,L|449:321,1,168,2|10,0:0|0:0,0:0:0:0:
156,260,49492,6,0,L|338:258,1,168,6|10,0:0|0:0,0:0:0:0:
239,205,49969,2,0,P|186:138|270:103,1,168,0|0,0:0|0:0,0:0:0:0:
389,133,50604,5,0,0:0:0:0:
234,186,50921,1,0,0:0:0:0:
231,102,51079,1,10,0:0:0:0:
63,191,51397,2,0,L|53:19,1,168,2|10,0:0|0:0,0:0:0:0:
137,41,51873,1,0,0:0:0:0:
294,95,52032,6,0,P|346:167|277:179,1,168,6|2,0:0|0:0,0:0:0:0:
151,227,52508,2,0,L|145:52,1,168,8|2,0:0|0:0,0:0:0:0:
432,139,53143,5,6,0:0:0:0:
272,187,53461,1,6,0:0:0:0:
264,103,53619,1,2,0:0:0:0:
256,19,53778,1,2,0:0:0:0:
411,86,53937,1,6,0:0:0:0:
264,103,54254,2,0,L|191:103,2,42,0|0|0,2:0|2:0|2:0,0:0:0:0:
421,203,54572,6,0,P|464:170|392:93,1,168,6|10,0:0|0:0,0:0:0:0:
251,233,55207,2,0,P|194:197|251:136,1,168,2|10,0:0|0:0,0:0:0:0:
409,187,55842,6,0,L|231:186,1,168,2|10,0:0|0:0,0:0:0:0:
80,157,56477,2,0,L|256:162,1,168,2|10,0:0|0:0,0:0:0:0:
416,214,57112,6,0,L|431:30,1,168,2|10,0:0|0:0,0:0:0:0:
266,116,57746,2,0,L|448:112,1,168,2|10,0:0|0:0,0:0:0:0:
356,66,58223,6,0,P|309:88|377:152,1,168,0|0,0:0|0:0,0:0:0:0:
445,161,58699,1,10,0:0:0:0:
291,212,59016,2,0,L|93:216,1,168,2|10,0:0|0:0,0:0:0:0:
398,103,59651,5,6,0:0:0:0:
475,115,59809,1,2,0:0:0:0:
482,192,59968,1,2,0:0:0:0:
324,220,60286,1,2,0:0:0:0:
242,200,60444,1,2,0:0:0:0:
164,151,60603,1,2,0:0:0:0:
409,65,60921,6,0,P|408:136|304:152,1,168,2|2,0:0|0:0,0:0:0:0:
154,189,61556,2,0,P|97:157|168:102,1,168,2|2,0:0|0:0,0:0:0:0:
432,195,62191,6,0,L|246:202,1,168,6|2,0:0|0:0,0:0:0:0:
91,175,62826,2,0,L|286:173,1,168,2|6,0:0|0:0,0:0:0:0:
104,274,63302,6,0,P|53:241|123:178,1,168,6|0,0:0|2:0,0:0:0:0:
191,165,63778,1,0,2:0:0:0:
360,113,64096,1,2,0:0:0:0:
435,132,64254,1,2,0:0:0:0:
360,113,64413,1,2,0:0:0:0:
284,183,64572,1,2,0:0:0:0:
118,226,64731,5,6,0:0:0:0:
35,225,64889,1,0,0:0:0:0:
118,226,65049,1,10,0:0:0:0:
281,251,65366,1,2,0:0:0:0:
286,167,65524,1,0,0:0:0:0:
291,83,65683,1,10,0:0:0:0:
199,108,65842,6,0,L|394:111,1,168,0|0,0:0|0:0,0:0:0:0:
274,128,66319,1,10,0:0:0:0:
267,211,66477,1,0,0:0:0:0:
351,218,66636,1,2,0:0:0:0:
192,207,66954,1,10,0:0:0:0:
186,123,67112,1,0,0:0:0:0:
338,103,67271,5,2,0:0:0:0:
422,103,67429,1,0,0:0:0:0:
338,103,67588,1,10,0:0:0:0:
167,125,67906,1,2,0:0:0:0:
160,208,68064,1,0,0:0:0:0:
167,125,68223,1,10,0:0:0:0:
320,138,68541,6,0,L|324:85,2,42,2|0|2,0:0|0:0|0:0,0:0:0:0:
236,138,68858,1,10,0:0:0:0:
77,183,69176,1,2,0:0:0:0:
161,183,69334,1,2,0:0:0:0:
242,152,69493,2,0,L|290:154,2,42,10|2|2,0:0|0:0|0:0,0:0:0:0:
83,121,69811,5,2,0:0:0:0:
73,204,69969,1,0,0:0:0:0:
158,142,70128,1,10,0:0:0:0:
321,197,70446,1,2,0:0:0:0:
405,197,70604,1,0,0:0:0:0:
321,197,70763,1,10,0:0:0:0:
238,198,70922,6,0,L|65:200,1,168,0|0,0:0|0:0,0:0:0:0:
151,136,71398,1,10,0:0:0:0:
307,171,71715,1,2,0:0:0:0:
315,87,71873,1,0,0:0:0:0:
234,69,72033,1,10,0:0:0:0:
228,152,72191,1,0,0:0:0:0:
383,224,72350,5,2,0:0:0:0:
461,226,72508,1,2,0:0:0:0:
383,224,72668,1,10,0:0:0:0:
222,176,72985,1,2,0:0:0:0:
139,174,73143,1,2,0:0:0:0:
222,176,73303,1,10,0:0:0:0:
387,143,73461,1,6,0:0:0:0:
232,156,73779,5,4,0:0:0:0:
149,156,73937,1,4,0:0:0:0:
232,156,74096,1,4,0:0:0:0:
388,237,74255,2,0,P|435:206|371:134,1,168,2|2,0:0|0:0,0:0:0:0:
218,189,74889,5,6,0:0:0:0:
207,105,75047,1,0,0:0:0:0:
373,73,75365,2,0,L|387:276,1,168,0|0,0:0|0:0,0:0:0:0:
303,239,75842,1,0,0:0:0:0:
229,238,76000,6,0,P|176:197|231:130,1,168,0|0,0:0|0:0,0:0:0:0:
388,150,76635,1,0,0:0:0:0:
308,172,76794,2,0,L|118:173,1,168,0|0,0:0|0:0,0:0:0:0:
226,116,77270,1,0,0:0:0:0:
307,112,77429,6,0,P|372:146|299:184,1,168,2|0,0:0|0:0,0:0:0:0:
158,242,78064,2,0,L|146:69,1,168,0|0,0:0|0:0,0:0:0:0:
231,98,78540,6,0,L|38:108,1,168,0|0,0:0|0:0,0:0:0:0:
234,192,79175,2,0,L|429:188,1,168,0|0,0:0|0:0,0:0:0:0:
324,137,79651,1,2,0:0:0:0:
28,231,79969,6,0,L|27:39,1,168,6|2,0:0|0:0,0:0:0:0:
108,97,80445,2,0,L|293:98,1,168,0|0,0:0|0:0,0:0:0:0:
197,40,80921,1,2,0:0:0:0:
117,167,81080,6,0,P|76:144|135:60,1,168,0|0,0:0|0:0,0:0:0:0:
197,40,81556,1,2,0:0:0:0:
369,173,81873,2,0,L|171:180,1,168,2|2,0:0|0:0,0:0:0:0:
287,116,82350,1,0,0:0:0:0:
445,103,82508,6,0,P|502:135|439:192,1,168,2|2,0:0|0:0,0:0:0:0:
291,187,83143,1,2,0:0:0:0:
131,211,83461,1,2,0:0:0:0:
122,127,83619,1,0,0:0:0:0:
278,134,83778,5,6,0:0:0:0:
361,131,83936,1,0,0:0:0:0:
188,210,84254,2,0,L|18:204,2,168,2|2|2,0:0|0:0|0:0,0:0:0:0:
349,164,85048,5,6,0:0:0:0:
358,247,85206,1,0,0:0:0:0:
199,232,85524,2,0,L|385:226,1,168,2|0,0:0|0:0,0:0:0:0:
210,263,86159,6,0,P|153:216|230:171,1,168,2|0,0:0|0:0,0:0:0:0:
290,161,86635,1,0,0:0:0:0:
370,161,86794,1,0,0:0:0:0:
290,161,86953,1,2,0:0:0:0:
122,165,87270,1,2,0:0:0:0:
117,101,87429,1,0,0:0:0:0:
276,124,87588,5,6,0:0:0:0:
359,124,87746,1,0,0:0:0:0:
220,200,88064,2,0,L|28:193,1,168,2|0,0:0|0:0,0:0:0:0:
335,115,88699,6,0,P|396:152|324:187,1,168,2|2,0:0|0:0,0:0:0:0:
257,187,89175,2,0,L|67:187,2,168,2|2|2,0:0|0:0|0:0,0:0:0:0:
337,167,89969,1,2,0:0:0:0:
181,235,90127,6,0,P|136:206|206:130,1,168,6|2,0:0|0:0,0:0:0:0:
273,154,90604,2,0,L|96:152,1,168,0|0,0:0|0:0,0:0:0:0:
388,180,91238,6,0,L|394:6,1,168,2|2,0:0|0:0,0:0:0:0:
109,200,91873,2,0,L|102:28,1,168,2|2,0:0|0:0,0:0:0:0:
177,26,92350,1,2,0:0:0:0:
330,104,92508,6,0,P|410:119|306:261,1,336,6|0,0:0|0:0,0:0:0:0:
141,187,93619,2,0,L|154:99,1,84,0|0,2:0|2:0,0:0:0:0:
304,145,93937,6,0,P|365:177|296:221,1,168,2|2,0:0|0:0,0:0:0:0:
155,187,94413,1,2,0:0:0:0:
293,165,94731,2,0,L|472:165,1,168,2|2,0:0|0:0,0:0:0:0:
304,233,95207,5,6,0:0:0:0:
151,198,95524,1,2,2:0:0:0:
304,233,95842,1,2,0:0:0:0:
344,229,95921,1,2,0:0:0:0:
365,194,96000,1,2,0:0:0:0:
349,157,96080,1,2,0:0:0:0:
310,148,96159,1,10,0:0:0:0:
20,134,96477,5,6,0:0:0:0:
142,147,96794,1,10,0:0:0:0:
142,147,96953,1,0,0:0:0:0:
42,156,97270,1,0,0:0:0:0:
157,222,97588,6,0,L|339:229,1,168,0|0,0:0|0:0,0:0:0:0:
389,297,98064,1,10,0:0:0:0:
389,297,98223,1,0,0:0:0:0:
313,344,98381,1,2,0:0:0:0:
176,351,98699,1,10,0:0:0:0:
472,231,99016,5,2,0:0:0:0:
341,185,99334,1,10,0:0:0:0:
341,185,99492,1,0,0:0:0:0:
194,156,99810,1,0,0:0:0:0:
341,185,100127,6,0,P|380:270|321:307,1,168,0|0,0:0|0:0,0:0:0:0:
265,318,100604,1,10,0:0:0:0:
266,247,100762,1,0,0:0:0:0:
341,227,100921,1,2,0:0:0:0:
467,223,101238,1,10,0:0:0:0:
172,246,101556,5,6,0:0:0:0:
59,203,101873,2,0,L|56:94,1,84,10|0,0:0|0:0,0:0:0:0:
191,75,102350,1,0,0:0:0:0:
54,47,102667,6,0,L|227:32,1,168,0|0,0:0|0:0,0:0:0:0:
304,94,103143,1,10,0:0:0:0:
312,181,103302,1,0,0:0:0:0:
237,238,103461,1,2,0:0:0:0:
99,254,103778,1,10,0:0:0:0:
167,253,103937,1,0,0:0:0:0:
345,256,104096,6,0,P|417:229|401:135,1,168,6|8,0:0|0:0,0:0:0:0:
246,149,104572,1,8,0:0:0:0:
174,105,104889,1,2,0:0:0:0:
473,61,105207,1,6,0:0:0:0:
343,158,105524,5,6,0:0:0:0:
415,170,105683,1,2,0:0:0:0:
471,223,105842,1,2,0:0:0:0:
474,289,106000,1,6,0:0:0:0:
339,327,106318,1,0,2:0:0:0:
44,331,106635,5,6,0:0:0:0:
181,272,106953,1,10,0:0:0:0:
131,260,107112,1,0,0:0:0:0:
72,247,107270,1,2,0:0:0:0:
187,189,107588,1,10,0:0:0:0:
103,169,107746,6,0,P|53:119|135:77,1,168,0|0,0:0|0:0,0:0:0:0:
195,62,108223,1,10,0:0:0:0:
349,86,108540,1,2,0:0:0:0:
398,132,108699,1,0,0:0:0:0:
362,185,108858,1,10,0:0:0:0:
73,316,109175,5,2,0:0:0:0:
189,253,109492,1,10,0:0:0:0:
199,200,109651,1,0,0:0:0:0:
213,131,109810,1,2,0:0:0:0:
341,110,110127,1,10,0:0:0:0:
422,90,110286,6,0,P|394:174|310:207,1,168,0|0,0:0|0:0,0:0:0:0:
252,211,110762,1,10,0:0:0:0:
103,250,111080,1,2,0:0:0:0:
113,312,111238,1,0,0:0:0:0:
124,366,111397,1,10,0:0:0:0:
420,293,111715,5,6,0:0:0:0:
332,233,112032,1,10,0:0:0:0:
328,179,112191,1,0,0:0:0:0:
375,136,112350,1,2,0:0:0:0:
479,109,112667,1,10,0:0:0:0:
476,164,112826,6,0,L|286:161,1,168,0|0,0:0|0:0,0:0:0:0:
372,158,113302,1,10,0:0:0:0:
213,231,113619,1,2,0:0:0:0:
154,257,113778,1,0,0:0:0:0:
144,323,113937,1,10,0:0:0:0:
203,347,114096,1,0,0:0:0:0:
380,358,114254,5,6,0:0:0:0:
484,285,114572,1,2,0:0:0:0:
486,222,114731,2,0,L|289:222,1,168,8|2,0:0|0:0,0:0:0:0:
19,181,115365,1,6,0:0:0:0:
165,70,115683,5,6,0:0:0:0:
241,73,115842,1,2,0:0:0:0:
297,102,116000,1,2,0:0:0:0:
253,135,116159,1,6,0:0:0:0:
121,213,116477,1,0,2:0:0:0:
188,210,116635,1,0,2:0:0:0:
373,209,116794,6,0,P|442:259|390:329,1,168,6|10,0:0|0:0,0:0:0:0:
247,348,117429,2,0,L|168:189,1,168,2|10,0:0|0:0,0:0:0:0:
298,157,118064,6,0,L|504:152,1,168,2|10,0:0|0:0,0:0:0:0:
364,101,118699,2,0,P|445:128|452:227,1,168,2|10,0:0|0:0,0:0:0:0:
384,245,119175,1,0,0:0:0:0:
203,326,119334,6,0,L|13:336,2,168,2|10|2,0:0|0:0|0:0,0:0:0:0:
334,257,120286,1,10,0:0:0:0:
413,224,120445,6,0,L|209:217,1,168,0|0,0:0|0:0,0:0:0:0:
169,171,120921,1,10,0:0:0:0:
169,100,121080,1,0,0:0:0:0:
240,52,121238,1,2,0:0:0:0:
385,40,121556,1,10,0:0:0:0:
319,43,121715,1,0,0:0:0:0:
143,67,121873,5,6,0:0:0:0:
112,122,122032,1,2,0:0:0:0:
80,182,122191,1,2,0:0:0:0:
226,187,122508,1,2,0:0:0:0:
289,207,122667,1,2,0:0:0:0:
319,273,122826,1,2,0:0:0:0:
293,329,122985,1,2,0:0:0:0:
229,344,123143,5,2,0:0:0:0:
266,279,123302,1,2,0:0:0:0:
308,208,123461,1,2,0:0:0:0:
155,172,123778,1,2,0:0:0:0:
104,155,123937,1,2,0:0:0:0:
151,136,124096,1,2,0:0:0:0:
206,122,124254,1,2,0:0:0:0:
384,196,124413,6,0,P|439:153|367:101,1,168,6|2,0:0|0:0,0:0:0:0:
263,56,125048,1,2,0:0:0:0:
399,40,125365,1,6,0:0:0:0:
217,48,125524,6,0,P|31:138|224:306,1,537.6,6|2,0:0|0:0,0:0:0:0:
399,40,126953,5,6,0:0:0:0:
256,192,134572,12,6,136794,0:0:0:0:
265,81,137112,5,0,0:0:0:0:
399,80,137429,1,2,0:0:0:0:
290,142,137746,1,2,0:0:0:0:
288,208,137905,1,0,0:0:0:0:
224,241,138064,1,2,0:0:0:0:
288,208,138223,1,2,0:0:0:0:
425,209,138540,5,0,0:0:0:0:
425,209,138699,1,2,0:0:0:0:
290,297,139016,1,2,0:0:0:0:
153,352,139334,1,2,0:0:0:0:
290,297,139651,5,2,0:0:0:0:
155,246,139969,1,2,0:0:0:0:
286,182,140286,1,2,0:0:0:0:
360,177,140604,1,2,0:0:0:0:
286,182,140762,1,2,0:0:0:0:
213,184,140921,5,2,0:0:0:0:
156,183,141080,1,2,0:0:0:0:
213,184,141238,1,2,0:0:0:0:
344,179,141556,1,2,0:0:0:0:
482,179,141873,1,2,0:0:0:0:
195,284,142191,5,2,0:0:0:0:
148,235,142350,1,2,0:0:0:0:
109,191,142508,1,2,0:0:0:0:
276,163,142826,1,2,0:0:0:0:
276,163,142985,1,2,0:0:0:0:
364,153,143143,1,2,0:0:0:0:
276,163,143302,1,2,0:0:0:0:
116,144,143619,5,2,0:0:0:0:
116,144,143778,1,2,0:0:0:0:
177,125,143937,1,2,0:0:0:0:
249,108,144096,1,2,0:0:0:0:
250,74,144254,1,2,0:0:0:0:
182,67,144413,1,2,0:0:0:0:
478,102,144731,5,2,0:0:0:0:
487,141,144810,1,2,0:0:0:0:
489,191,144889,1,2,0:0:0:0:
422,240,145048,1,2,0:0:0:0:
279,267,145365,1,2,0:0:0:0:
275,319,145445,1,2,0:0:0:0:
281,358,145524,1,2,0:0:0:0:
365,351,145683,1,2,0:0:0:0:
281,358,145842,1,2,0:0:0:0:
142,351,146159,5,2,0:0:0:0:
102,320,146238,1,2,0:0:0:0:
143,275,146318,1,2,0:0:0:0:
230,241,146477,1,2,0:0:0:0:
164,190,146635,1,2,0:0:0:0:
140,114,146794,1,2,0:0:0:0:
164,41,146953,1,2,0:0:0:0:
246,21,147112,1,2,0:0:0:0:
434,55,147270,5,6,2:0:0:0:
256,192,147588,12,6,148223,0:0:0:0:
430,153,148540,5,6,0:0:0:0:
300,192,148858,1,10,0:0:0:0:
379,216,149016,2,0,P|445:270|377:328,1,168,0|0,0:0|0:0,0:0:0:0:
328,339,149492,1,10,0:0:0:0:
252,352,149651,1,0,0:0:0:0:
113,311,149969,5,0,0:0:0:0:
44,309,150127,2,0,L|218:300,1,168,10|2,0:0|0:0,0:0:0:0:
375,257,150762,1,10,0:0:0:0:
67,152,151080,5,2,0:0:0:0:
198,54,151397,1,10,0:0:0:0:
126,89,151556,2,0,P|113:174|179:205,1,168,0|0,0:0|0:0,0:0:0:0:
259,206,152032,1,10,0:0:0:0:
186,260,152191,1,0,0:0:0:0:
49,330,152508,5,0,0:0:0:0:
49,330,152667,1,10,0:0:0:0:
225,324,152985,2,0,L|42:317,1,168,2|10,0:0|0:0,0:0:0:0:
368,71,153619,5,6,0:0:0:0:
253,138,153937,1,10,0:0:0:0:
341,148,154096,2,0,L|361:326,1,168,0|0,0:0|0:0,0:0:0:0:
266,329,154572,1,10,0:0:0:0:
359,315,154731,6,0,P|394:242|350:157,1,168,0|0,0:0|0:0,0:0:0:0:
276,119,155207,1,10,0:0:0:0:
167,57,155524,2,0,L|365:64,1,168,2|10,0:0|0:0,0:0:0:0:
332,120,156000,1,0,0:0:0:0:
149,206,156159,5,6,0:0:0:0:
295,250,156477,1,2,0:0:0:0:
373,244,156635,2,0,P|432:313|388:379,1,168,8|2,0:0|0:0,0:0:0:0:
100,329,157270,1,6,0:0:0:0:
229,273,157588,5,6,0:0:0:0:
307,250,157746,1,2,0:0:0:0:
239,225,157905,1,2,0:0:0:0:
170,199,158064,1,6,0:0:0:0:
30,152,158381,1,0,2:0:0:0:
341,76,158699,5,6,0:0:0:0:
206,142,159016,1,10,0:0:0:0:
134,164,159175,1,0,0:0:0:0:
106,229,159334,1,2,0:0:0:0:
125,304,159492,1,0,0:0:0:0:
196,338,159651,1,10,0:0:0:0:
271,337,159810,1,0,0:0:0:0:
409,241,160127,5,0,0:0:0:0:
334,214,160286,2,0,L|320:114,1,84,10|0,0:0|0:0,0:0:0:0:
244,106,160604,1,2,0:0:0:0:
127,80,160921,1,10,0:0:0:0:
414,65,161238,5,2,0:0:0:0:
272,160,161556,1,10,0:0:0:0:
272,160,161715,1,0,0:0:0:0:
343,159,161873,1,2,0:0:0:0:
410,165,162032,1,0,0:0:0:0:
477,180,162191,1,10,0:0:0:0:
412,171,162350,1,0,0:0:0:0:
277,192,162667,5,0,0:0:0:0:
203,237,162826,2,0,L|194:341,1,84,10|0,0:0|0:0,0:0:0:0:
278,353,163143,1,2,0:0:0:0:
437,345,163461,1,10,0:0:0:0:
133,277,163778,5,6,0:0:0:0:
267,212,164096,1,10,0:0:0:0:
312,161,164254,1,0,0:0:0:0:
316,85,164413,1,2,0:0:0:0:
269,35,164572,1,0,0:0:0:0:
213,17,164731,1,10,0:0:0:0:
139,25,164889,1,0,0:0:0:0:
261,107,165207,5,0,0:0:0:0:
261,107,165365,1,10,0:0:0:0:
184,120,165524,1,0,0:0:0:0:
108,132,165683,1,2,0:0:0:0:
259,199,166000,1,10,0:0:0:0:
257,251,166159,1,0,0:0:0:0:
69,305,166318,5,6,0:0:0:0:
210,245,166635,1,2,0:0:0:0:
292,237,166794,2,0,L|195:245,1,84,10|2,0:0|0:0,0:0:0:0:
131,264,167112,2,0,L|134:369,1,84,2|2,0:0|0:0,0:0:0:0:
312,353,167429,1,6,0:0:0:0:
456,201,167746,5,6,0:0:0:0:
380,177,167905,1,2,0:0:0:0:
347,119,168064,1,2,0:0:0:0:
385,45,168223,1,6,0:0:0:0:
465,38,168381,1,0,0:0:0:0:
385,45,168540,1,0,2:0:0:0:
76,146,168858,6,0,L|57:336,1,168,6|10,0:0|0:0,0:0:0:0:
220,246,169492,2,0,L|127:92,1,168,2|10,0:0|0:0,0:0:0:0:
296,64,170127,6,0,L|103:77,1,168,2|10,0:0|0:0,0:0:0:0:
303,85,170762,2,0,P|219:153|229:227,1,168,2|10,0:0|0:0,0:0:0:0:
293,223,171238,1,0,0:0:0:0:
470,260,171397,6,0,P|474:181|394:134,1,168,2|10,0:0|0:0,0:0:0:0:
331,120,171873,1,0,0:0:0:0:
266,82,172032,2,0,L|438:94,1,168,2|10,0:0|0:0,0:0:0:0:
371,226,172508,1,0,0:0:0:0:
226,286,172826,6,0,L|428:300,1,168,0|0,0:0|0:0,0:0:0:0:
469,314,173302,1,2,0:0:0:0:
400,329,173461,1,0,0:0:0:0:
327,339,173619,1,10,0:0:0:0:
32,256,173937,5,6,0:0:0:0:
79,203,174096,1,2,0:0:0:0:
121,157,174254,1,2,0:0:0:0:
256,82,174572,1,2,0:0:0:0:
177,109,174731,1,2,0:0:0:0:
149,184,174889,1,2,0:0:0:0:
157,270,175048,1,2,0:0:0:0:
236,295,175207,5,2,0:0:0:0:
314,325,175365,1,2,0:0:0:0:
236,295,175524,1,2,0:0:0:0:
382,240,175842,1,2,0:0:0:0:
417,174,176000,1,2,0:0:0:0:
449,107,176159,1,2,0:0:0:0:
388,86,176318,1,2,0:0:0:0:
210,94,176477,6,0,P|194:178|271:218,1,168,6|2,0:0|0:0,0:0:0:0:
393,263,177112,2,0,L|205:286,1,168,2|6,0:0|0:0,0:0:0:0:
38,298,177588,6,0,B|21:205|24:40|258:231|399:203|428:117|423:6,1,588,6|2,0:0|0:0,0:0:0:0:
101,36,179016,5,6,0:0:0:0:
48,88,179175,1,0,0:0:0:0:
105,143,179334,1,10,0:0:0:0:
236,187,179651,1,2,0:0:0:0:
234,247,179810,1,0,0:0:0:0:
303,280,179969,1,10,0:0:0:0:
231,302,180127,1,0,0:0:0:0:
115,343,180445,5,0,0:0:0:0:
182,353,180604,1,10,0:0:0:0:
332,347,180921,1,2,0:0:0:0:
388,325,181080,1,0,0:0:0:0:
390,282,181238,1,10,0:0:0:0:
333,269,181397,1,0,0:0:0:0:
150,248,181556,5,2,0:0:0:0:
178,198,181715,1,0,0:0:0:0:
245,170,181873,1,10,0:0:0:0:
376,61,182191,1,2,0:0:0:0:
451,74,182350,1,0,0:0:0:0:
380,101,182508,1,10,0:0:0:0:
314,128,182667,1,0,0:0:0:0:
384,165,182826,5,2,0:0:0:0:
384,210,182905,1,2,0:0:0:0:
382,261,182985,1,2,0:0:0:0:
379,319,183064,1,2,0:0:0:0:
316,336,183143,1,10,0:0:0:0:
191,335,183461,1,2,0:0:0:0:
107,340,183619,1,2,0:0:0:0:
53,250,183778,1,10,0:0:0:0:
67,195,183858,1,2,0:0:0:0:
124,172,183937,1,2,0:0:0:0:
308,186,184096,5,2,0:0:0:0:
371,206,184254,1,0,0:0:0:0:
383,272,184413,1,10,0:0:0:0:
233,225,184731,1,2,0:0:0:0:
232,282,184889,1,0,0:0:0:0:
166,315,185048,1,10,0:0:0:0:
232,347,185207,1,0,0:0:0:0:
362,340,185524,5,0,0:0:0:0:
291,340,185683,1,10,0:0:0:0:
143,255,186000,1,2,0:0:0:0:
103,193,186159,1,0,0:0:0:0:
139,111,186318,1,10,0:0:0:0:
220,99,186477,1,0,0:0:0:0:
408,52,186635,5,2,0:0:0:0:
467,90,186794,1,2,0:0:0:0:
482,150,186953,1,10,0:0:0:0:
461,223,187112,1,2,0:0:0:0:
398,254,187270,5,2,0:0:0:0:
397,290,187350,1,2,0:0:0:0:
396,332,187429,1,2,0:0:0:0:
479,341,187588,1,10,0:0:0:0:
397,354,187746,1,6,0:0:0:0:
138,299,188064,6,0,L|38:297,1,84,4|4,0:0|0:0,0:0:0:0:
104,298,188381,1,4,0:0:0:0:
289,284,188540,5,6,0:0:0:0:
256,192,188858,12,0,191715,0:0:0:0:
