osu file format v14

[General]
AudioFilename: audio.mp3
AudioLeadIn: 0
PreviewTime: 34254
Countdown: 0
SampleSet: Normal
StackLeniency: 0.7
Mode: 2
LetterboxInBreaks: 0
WidescreenStoryboard: 1

[Editor]
DistanceSpacing: 1
BeatDivisor: 4
GridSize: 16
TimelineZoom: 3.099999

[Metadata]
Title:Dark Flight Dreamer
TitleUnicode:Dark Flight Dreamer
Artist:ALiCE'S EMOTiON
ArtistUnicode:ALiCE'S EMOTiON
Creator:Bastian
Version:Greaper's Starlight Typhoon
Source:東方花映塚 ~ Phantasmagoria of Flower View.
Tags:jpop j-pop video game japanese nari marisa kirisame redalice ayumi nomiya Kaeidzuka ~ touhou 東方Project View オリエンタルダークフライト Oriental reitaisai 11 release team shanghai alice jorkseljund -vale vale greaper Dako GIGACHAD JBHyperion JBH secre chickenbible wonjae paranoid grapes ZUN 霧雨魔理沙 野宮あゆみ
BeatmapID:2650493
BeatmapSetID:1270628

[Difficulty]
HPDrainRate:6
CircleSize:4.2
OverallDifficulty:9.6
ApproachRate:9.6
SliderMultiplier:2.14
SliderTickRate:2

[Events]
//Background and Video events
0,0,"DarkFlightDreamer.jpg",0,0
//Break Periods
//Storyboard Layer 0 (Background)
//Storyboard Layer 1 (Fail)
//Storyboard Layer 2 (Pass)
//Storyboard Layer 3 (Foreground)
//Storyboard Layer 4 (Overlay)
//Storyboard Sound Samples

[TimingPoints]
1239,317.460317460317,4,1,1,60,1,0
2508,-100,4,1,1,75,0,0
12667,-100,4,1,1,65,0,0
25048,-43.4782608695652,4,1,1,65,0,0
25207,-100,4,1,1,65,0,0
30286,-66.6666666666667,4,1,1,65,0,0
31238,-100,4,1,1,65,0,0
33937,-45.4545454545455,4,1,1,65,0,0
34254,-100,4,1,1,80,0,1
44096,-100,4,1,1,80,0,0
44413,-100,4,1,1,80,0,1
54254,-100,4,1,1,80,0,0
54572,-100,4,1,1,80,0,1
64731,-100,4,1,1,75,0,0
74889,-100,4,1,1,65,0,0
87270,-45.4545454545455,4,1,1,65,0,0
87429,-100,4,1,1,65,0,0
92508,-66.6666666666667,4,1,1,65,0,0
93143,-100,4,1,1,65,0,0
96159,-45.4545454545455,4,1,1,65,0,0
96477,-90.9090909090909,4,1,1,80,0,1
106318,-90.9090909090909,4,1,1,80,0,0
106635,-90.9090909090909,4,1,1,80,0,1
116477,-90.9090909090909,4,1,1,80,0,0
116794,-90.9090909090909,4,1,1,80,0,1
126953,-100,4,2,1,75,0,0
127112,-100,4,2,1,60,0,0
137112,-100,4,1,1,65,0,0
142191,-90.9090909090909,4,1,1,70,0,0
144731,-90.9090909090909,4,1,1,75,0,0
148223,-45.4545454545455,4,1,1,75,0,0
148540,-83.3333333333333,4,1,1,80,0,1
158381,-83.3333333333333,4,1,1,80,0,0
158699,-83.3333333333333,4,1,1,80,0,1
168540,-83.3333333333333,4,1,1,80,0,0
168858,-83.3333333333333,4,1,1,80,0,1
179016,-100,4,1,1,75,0,0
189175,-100,4,1,1,60,0,0
189810,-100,4,1,1,40,0,0
190445,-100,4,1,1,20,0,0
191080,-100,4,1,1,10,0,0

[Colours]
Combo1 : 255,128,0
Combo2 : 0,232,232
Combo3 : 255,202,17
Combo4 : 255,182,147
Combo5 : 0,128,255
Combo6 : 106,53,53

[HitObjects]
186,248,1239,5,2,0:0:0:0:
341,226,1397,1,2,0:0:0:0:
186,248,1556,1,2,0:0:0:0:
341,226,1715,1,2,0:0:0:0:
71,199,1873,2,0,L|6:198,1,53.5,2|2,0:0|0:0,0:0:0:0:
100,173,2032,2,0,L|164:171,1,53.5,2|2,0:0|0:0,0:0:0:0:
342,170,2191,2,0,L|400:169,1,53.5,2|2,0:0|0:0,0:0:0:0:
168,101,2350,2,0,L|229:99,1,53.5,2|2,0:0|0:0,0:0:0:0:
489,93,2508,6,0,L|494:214,1,107,6|0,0:0|0:0,0:0:0:0:
245,222,2826,2,0,L|364:224,1,107,10|0,0:0|0:0,0:0:0:0:
92,252,3143,1,2,0:0:0:0:
232,258,3302,1,0,0:0:0:0:
92,252,3461,1,10,0:0:0:0:
407,256,3619,5,0,0:0:0:0:
409,202,3698,1,0,0:0:0:0:
412,149,3777,1,2,0:0:0:0:
253,151,3937,1,0,0:0:0:0:
484,101,4096,2,0,L|343:108,1,107,10|0,0:0|0:0,0:0:0:0:
139,106,4413,1,2,0:0:0:0:
294,136,4572,2,0,L|299:196,1,53.5,0|0,0:0|0:0,0:0:0:0:
135,192,4731,2,0,L|14:199,1,107,10|0,0:0|0:0,0:0:0:0:
22,250,4969,1,0,0:0:0:0:
289,240,5048,6,0,L|399:247,1,107,2|0,0:0|0:0,0:0:0:0:
177,248,5365,2,0,L|168:122,1,107,10|0,0:0|0:0,0:0:0:0:
421,131,5683,1,2,0:0:0:0:
281,122,5842,1,0,0:0:0:0:
424,101,6000,1,10,0:0:0:0:
151,83,6159,1,0,0:0:0:0:
474,144,6318,6,0,L|478:217,1,53.5,2|2,0:0|0:0,0:0:0:0:
378,214,6477,2,0,L|376:274,1,53.5,2|2,0:0|0:0,0:0:0:0:
191,278,6635,2,0,L|70:287,2,107,10|2|2,0:0|0:0|0:0,0:0:0:0:
443,274,7112,1,2,0:0:0:0:
309,248,7270,2,0,L|304:186,1,53.5,10|2,0:0|0:0,0:0:0:0:
420,200,7429,2,0,L|415:138,1,53.5,2|2,0:0|0:0,0:0:0:0:
168,168,7588,6,0,L|36:172,1,107,2|0,0:0|0:0,0:0:0:0:
293,156,7905,2,0,L|299:45,1,107,10|0,0:0|0:0,0:0:0:0:
48,37,8223,1,2,0:0:0:0:
187,36,8381,1,0,0:0:0:0:
329,39,8540,1,10,0:0:0:0:
59,84,8699,5,0,0:0:0:0:
54,137,8778,1,0,0:0:0:0:
49,190,8857,1,2,0:0:0:0:
202,207,9016,1,0,0:0:0:0:
447,209,9175,2,0,L|323:213,1,107,10|0,0:0|0:0,0:0:0:0:
496,256,9492,1,2,0:0:0:0:
175,321,9651,2,0,L|168:262,1,53.5,0|0,0:0|0:0,0:0:0:0:
253,249,9810,2,0,L|309:240,1,53.5,10|0,0:0|0:0,0:0:0:0:
386,232,9969,2,0,L|379:173,1,53.5,0|0,0:0|0:0,0:0:0:0:
181,172,10127,6,0,L|176:116,1,53.5,2|2,0:0|0:0,0:0:0:0:
272,116,10286,2,0,L|345:108,1,53.5,2|2,0:0|0:0,0:0:0:0:
232,70,10445,2,0,L|155:78,1,53.5,10|2,0:0|0:0,0:0:0:0:
367,49,10604,2,0,L|428:42,1,53.5,2|2,0:0|0:0,0:0:0:0:
179,199,10762,2,0,L|174:275,1,53.5,2|2,0:0|0:0,0:0:0:0:
351,196,10921,2,0,L|420:199,1,53.5,2|2,0:0|0:0,0:0:0:0:
242,237,11080,2,0,L|179:239,1,53.5,10|2,0:0|0:0,0:0:0:0:
29,247,11238,1,6,0:0:0:0:
427,247,11556,5,4,0:0:0:0:
160,200,11715,1,4,0:0:0:0:
427,247,11873,1,4,0:0:0:0:
284,192,12032,2,0,L|278:129,1,53.5,2|2,0:0|0:0,0:0:0:0:
192,146,12191,2,0,L|186:83,1,53.5,2|2,0:0|0:0,0:0:0:0:
94,93,12350,2,0,L|28:85,1,53.5,2|2,0:0|0:0,0:0:0:0:
256,39,12508,2,0,L|313:33,1,53.5,2|2,0:0|0:0,0:0:0:0:
61,56,12667,6,0,P|17:132|98:224,1,214,6|2,0:0|0:0,0:0:0:0:
241,209,13143,2,0,L|363:213,2,107,0|2|0,0:0|0:0|0:0,0:0:0:0:
88,260,13619,1,2,0:0:0:0:
355,289,13778,6,0,P|408:262|336:146,1,214,0|0,0:0|0:0,0:0:0:0:
207,181,14254,2,0,L|94:175,1,107,2|0,0:0|0:0,0:0:0:0:
352,180,14572,2,0,L|363:57,1,107,2|0,0:0|0:0,0:0:0:0:
211,70,14889,1,2,0:0:0:0:
474,71,15048,6,0,L|247:57,1,214,0|0,0:0|0:0,0:0:0:0:
413,121,15524,2,0,L|418:231,1,107,2|0,0:0|0:0,0:0:0:0:
261,222,15842,2,0,L|17:232,1,214,2|2,0:0|0:0,0:0:0:0:
318,273,16318,6,0,L|326:159,1,107,0|2,0:0|0:0,0:0:0:0:
170,201,16635,2,0,L|178:87,1,107,0|2,0:0|0:0,0:0:0:0:
419,88,16953,2,0,L|189:79,1,214,0|0,0:0|0:0,0:0:0:0:
348,140,17429,1,2,0:0:0:0:
193,128,17588,1,2,0:0:0:0:
460,182,17746,6,0,P|455:250|312:313,1,214,6|2,0:0|0:0,0:0:0:0:
488,325,18223,2,0,L|258:343,1,214,0|0,0:0|0:0,0:0:0:0:
428,267,18699,1,2,0:0:0:0:
147,270,18858,6,0,P|95:243|173:141,1,214,0|0,0:0|0:0,0:0:0:0:
311,145,19334,2,0,L|318:254,1,107,2|0,0:0|0:0,0:0:0:0:
163,259,19651,2,0,L|154:373,1,107,2|0,0:0|0:0,0:0:0:0:
315,316,19969,1,2,0:0:0:0:
37,288,20127,1,0,0:0:0:0:
312,261,20286,6,0,L|433:256,1,107,2|0,0:0|0:0,0:0:0:0:
261,245,20604,2,0,L|255:131,1,107,2|0,0:0|0:0,0:0:0:0:
103,207,20921,2,0,L|97:93,1,107,2|0,0:0|0:0,0:0:0:0:
361,92,21238,2,0,L|472:90,1,107,2|0,0:0|0:0,0:0:0:0:
143,122,21556,6,0,L|137:183,1,53.5,6|0,0:0|0:0,0:0:0:0:
221,192,21715,2,0,L|281:198,1,53.5,0|0,0:0|0:0,0:0:0:0:
358,203,21873,2,0,L|361:266,1,53.5,0|0,0:0|0:0,0:0:0:0:
172,232,22032,2,0,P|121:296|173:334,1,160.5,2|0,0:0|0:0,0:0:0:0:
370,313,22350,2,0,L|371:253,1,53.5,2|0,0:0|0:0,0:0:0:0:
285,253,22508,2,0,L|285:193,1,53.5,0|0,0:0|0:0,0:0:0:0:
475,183,22667,2,0,L|421:179,1,53.5,2|2,0:0|0:0,0:0:0:0:
177,177,22826,5,6,0:0:0:0:
302,169,22985,2,0,L|307:59,1,107,0|0,0:0|0:0,0:0:0:0:
40,166,23302,2,0,L|32:57,1,107,2|0,0:0|0:0,0:0:0:0:
177,60,23619,2,0,L|62:57,1,107,0|0,0:0|0:0,0:0:0:0:
343,62,23937,6,0,L|454:68,2,107,2|0|0,0:0|0:0|0:0,0:0:0:0:
96,67,24413,2,0,L|84:180,1,107,0|0,0:0|0:0,0:0:0:0:
140,184,24651,1,0,0:0:0:0:
222,191,24731,2,0,L|225:258,1,53.5,2|0,0:0|0:0,0:0:0:0:
143,236,24889,2,0,L|141:299,1,53.5,0|0,0:0|0:0,0:0:0:0:
318,301,25048,2,0,L|67:318,1,246.100004693985,2|0,0:0|0:0,0:0:0:0:
457,284,25365,5,6,0:0:0:0:
333,276,25524,2,0,L|330:166,1,107,0|0,0:0|0:0,0:0:0:0:
487,157,25842,2,0,L|374:151,1,107,2|0,0:0|0:0,0:0:0:0:
226,146,26159,2,0,L|218:37,1,107,0|0,0:0|0:0,0:0:0:0:
454,49,26477,1,2,0:0:0:0:
139,60,26635,5,2,0:0:0:0:
269,83,26794,2,0,L|277:152,1,53.5,2|0,0:0|0:0,0:0:0:0:
191,130,26953,2,0,L|199:199,1,53.5,2|0,0:0|0:0,0:0:0:0:
111,155,27112,2,0,L|119:224,1,53.5,2|0,0:0|0:0,0:0:0:0:
304,219,27270,1,2,0:0:0:0:
382,219,27350,1,2,0:0:0:0:
304,219,27429,1,2,0:0:0:0:
227,216,27508,1,2,0:0:0:0:
413,271,27588,2,0,L|418:333,1,53.5,2|2,0:0|0:0,0:0:0:0:
332,299,27746,2,0,L|335:357,1,53.5,2|2,0:0|0:0,0:0:0:0:
81,342,27905,6,0,L|310:354,1,214,6|2,0:0|0:0,0:0:0:0:
119,278,28381,2,0,L|113:170,1,107,0|2,0:0|0:0,0:0:0:0:
361,217,28699,1,0,0:0:0:0:
362,163,28778,1,0,0:0:0:0:
364,110,28857,1,2,0:0:0:0:
97,103,29016,6,0,L|221:98,1,107,2|2,0:0|0:0,0:0:0:0:
57,141,29334,2,0,L|48:263,1,107,2|2,0:0|0:0,0:0:0:0:
318,238,29651,2,0,L|438:240,1,107,2|2,0:0|0:0,0:0:0:0:
109,206,29969,2,0,L|101:276,1,53.5,2|2,0:0|0:0,0:0:0:0:
265,289,30127,2,0,L|325:297,1,53.5,2|2,0:0|0:0,0:0:0:0:
118,273,30286,6,0,B|27:264|28:162|28:162|144:48|144:48|20:164,1,481.500018367768,6|0,0:0|0:0,0:0:0:0:
173,158,30921,1,0,0:0:0:0:
313,160,31080,1,0,0:0:0:0:
173,158,31238,1,0,0:0:0:0:
456,122,31397,2,0,L|381:129,1,53.5,0|0,2:0|2:0,0:0:0:0:
186,173,31556,2,0,L|114:177,1,53.5,0|0,2:0|2:0,0:0:0:0:
404,184,31715,6,0,L|412:308,1,107,2|2,0:0|0:0,0:0:0:0:
140,295,32032,2,0,L|59:298,1,53.5,2|2,0:0|0:0,0:0:0:0:
330,309,32191,2,0,L|233:313,1,53.5,2|2,0:0|0:0,0:0:0:0:
33,249,32350,2,0,L|91:246,1,53.5,2|2,0:0|0:0,0:0:0:0:
313,209,32508,1,2,0:0:0:0:
240,194,32588,1,2,0:0:0:0:
168,184,32667,1,2,0:0:0:0:
240,194,32746,1,2,0:0:0:0:
485,172,32826,2,0,L|422:168,1,53.5,2|2,0:0|0:0,0:0:0:0:
120,141,32985,6,0,L|117:82,1,53.5,6|0,0:0|2:0,0:0:0:0:
198,119,33143,2,0,L|195:60,1,53.5,0|0,2:0|2:0,0:0:0:0:
27,94,33302,2,0,L|93:86,1,53.5,2|0,2:0|2:0,0:0:0:0:
271,45,33461,2,0,L|324:39,1,53.5,0|0,2:0|2:0,0:0:0:0:
125,27,33619,1,2,0:0:0:0:
195,32,33699,1,2,0:0:0:0:
125,27,33778,1,2,0:0:0:0:
195,32,33858,1,2,0:0:0:0:
419,162,33937,2,0,B|179:162|179:162|83:242,1,353.100010775757,10|0,0:0|0:0,0:0:0:0:
387,207,34254,6,0,L|397:318,1,107,6|0,0:0|0:0,0:0:0:0:
232,321,34572,1,10,0:0:0:0:
496,336,34731,2,0,L|371:346,1,107,0|2,0:0|0:0,0:0:0:0:
225,332,35048,2,0,L|341:324,1,107,0|10,0:0|0:0,0:0:0:0:
58,319,35365,6,0,L|52:212,1,107,0|2,0:0|0:0,0:0:0:0:
207,198,35683,1,0,0:0:0:0:
42,184,35842,2,0,L|164:173,1,107,10|0,0:0|0:0,0:0:0:0:
405,172,36159,2,0,L|412:65,1,107,2|0,0:0|0:0,0:0:0:0:
240,154,36477,2,0,L|247:47,1,107,10|0,0:0|0:0,0:0:0:0:
496,32,36794,6,0,L|275:21,1,214,2|10,0:0|0:0,0:0:0:0:
436,85,37270,2,0,L|444:206,1,107,0|2,0:0|0:0,0:0:0:0:
181,145,37588,2,0,L|185:259,1,107,0|10,0:0|0:0,0:0:0:0:
449,245,37905,6,0,L|337:250,2,107,0|2|0,0:0|0:0|0:0,0:0:0:0:
285,209,38381,2,0,L|147:221,1,107,10|0,0:0|0:0,0:0:0:0:
441,188,38699,2,0,L|434:71,1,107,2|0,0:0|0:0,0:0:0:0:
282,69,39016,1,10,0:0:0:0:
431,60,39175,1,0,0:0:0:0:
116,145,39334,6,0,L|109:258,1,107,6|0,0:0|0:0,0:0:0:0:
271,250,39651,1,10,0:0:0:0:
16,256,39810,2,0,L|137:261,1,107,0|2,0:0|0:0,0:0:0:0:
286,288,40127,2,0,L|170:282,1,107,0|10,0:0|0:0,0:0:0:0:
460,275,40445,6,0,L|466:164,1,107,0|2,0:0|0:0,0:0:0:0:
305,153,40762,2,0,L|238:151,1,53.5,0|0,0:0|0:0,0:0:0:0:
412,104,40921,2,0,L|266:101,1,107,10|0,0:0|0:0,0:0:0:0:
47,173,41238,2,0,L|44:62,1,107,2|0,0:0|0:0,0:0:0:0:
197,65,41556,1,10,0:0:0:0:
31,30,41715,1,0,0:0:0:0:
338,78,41873,6,0,L|480:77,1,107,6|0,0:0|0:0,0:0:0:0:
191,123,42191,1,2,0:0:0:0:
481,127,42350,2,0,L|491:244,1,107,8|0,0:0|0:0,0:0:0:0:
243,170,42667,2,0,L|357:172,1,107,2|0,0:0|0:0,0:0:0:0:
32,240,42985,5,6,0:0:0:0:
421,253,43302,1,6,0:0:0:0:
280,229,43461,1,2,0:0:0:0:
426,215,43619,1,2,0:0:0:0:
155,188,43778,2,0,P|108:149|169:75,1,160.5,6|0,0:0|0:0,0:0:0:0:
366,78,44096,2,0,L|372:143,1,53.5,0|0,2:0|2:0,0:0:0:0:
210,138,44254,2,0,L|216:203,1,53.5,0|0,2:0|2:0,0:0:0:0:
462,187,44413,6,0,L|332:199,1,107,6|0,0:0|0:0,0:0:0:0:
496,224,44731,1,10,0:0:0:0:
231,237,44889,2,0,L|226:346,1,107,0|2,0:0|0:0,0:0:0:0:
379,247,45207,2,0,L|379:370,1,107,0|10,0:0|0:0,0:0:0:0:
110,324,45524,6,0,L|231:328,1,107,0|2,0:0|0:0,0:0:0:0:
55,305,45842,1,0,0:0:0:0:
326,252,46000,2,0,L|340:140,1,107,10|0,0:0|0:0,0:0:0:0:
167,124,46318,2,0,L|302:122,1,107,2|0,0:0|0:0,0:0:0:0:
125,76,46635,2,0,L|16:74,1,107,10|0,0:0|0:0,0:0:0:0:
294,67,46953,6,0,L|78:62,1,214,2|10,0:0|0:0,0:0:0:0:
243,120,47429,2,0,L|363:127,1,107,0|2,0:0|0:0,0:0:0:0:
91,209,47746,2,0,L|81:332,1,107,0|10,0:0|0:0,0:0:0:0:
355,229,48064,6,0,L|464:217,2,107,0|2|0,0:0|0:0|0:0,0:0:0:0:
203,198,48540,2,0,L|327:187,1,107,10|0,0:0|0:0,0:0:0:0:
60,190,48858,2,0,L|48:72,1,107,2|0,0:0|0:0,0:0:0:0:
204,72,49175,1,10,0:0:0:0:
41,54,49334,1,0,0:0:0:0:
339,56,49492,6,0,L|346:197,1,107,6|0,0:0|0:0,0:0:0:0:
196,167,49810,1,10,0:0:0:0:
455,92,49969,2,0,L|472:211,1,107,0|2,0:0|0:0,0:0:0:0:
320,192,50286,2,0,L|434:194,1,107,0|10,0:0|0:0,0:0:0:0:
106,206,50604,6,0,L|96:77,1,107,0|2,0:0|0:0,0:0:0:0:
236,89,50921,1,0,0:0:0:0:
485,82,51080,2,0,L|371:74,1,107,10|0,0:0|0:0,0:0:0:0:
231,44,51397,2,0,L|356:55,1,107,2|0,0:0|0:0,0:0:0:0:
183,43,51715,1,10,0:0:0:0:
441,105,51873,1,0,0:0:0:0:
117,116,52032,6,0,L|342:132,1,214,6|2,0:0|0:0,0:0:0:0:
165,173,52508,2,0,L|152:301,1,107,8|0,0:0|0:0,0:0:0:0:
402,295,52826,2,0,L|408:177,1,107,2|0,0:0|0:0,0:0:0:0:
76,297,53143,5,6,0:0:0:0:
472,204,53461,1,6,0:0:0:0:
322,190,53619,1,2,0:0:0:0:
475,172,53778,1,2,0:0:0:0:
203,152,53937,2,0,L|40:145,1,160.5,6|0,0:0|0:0,0:0:0:0:
285,115,54254,2,0,L|352:116,1,53.5,0|0,2:0|2:0,0:0:0:0:
121,65,54413,2,0,L|175:63,1,53.5,0|0,2:0|2:0,0:0:0:0:
441,42,54572,6,0,L|452:161,1,107,6|0,0:0|0:0,0:0:0:0:
284,80,54889,2,0,L|295:199,1,107,10|0,0:0|0:0,0:0:0:0:
42,190,55207,2,0,L|42:302,1,107,2|0,0:0|0:0,0:0:0:0:
207,283,55524,2,0,L|201:158,1,107,10|0,0:0|0:0,0:0:0:0:
496,208,55842,5,2,0:0:0:0:
354,199,56000,2,0,L|293:193,1,53.5,0|0,0:0|0:0,0:0:0:0:
376,200,56159,1,10,0:0:0:0:
255,188,56318,1,0,0:0:0:0:
17,230,56477,2,0,L|22:115,1,107,2|0,0:0|0:0,0:0:0:0:
176,142,56794,2,0,L|178:27,1,107,10|0,0:0|0:0,0:0:0:0:
469,68,57112,6,0,L|332:64,1,107,2|0,0:0|0:0,0:0:0:0:
198,104,57429,2,0,L|323:114,1,107,10|0,0:0|0:0,0:0:0:0:
47,113,57746,2,0,L|39:227,1,107,2|0,0:0|0:0,0:0:0:0:
308,217,58064,1,10,0:0:0:0:
16,240,58223,6,0,L|251:251,1,214,0|0,0:0|0:0,0:0:0:0:
92,291,58699,1,10,0:0:0:0:
238,288,58858,2,0,L|247:163,1,107,0|2,0:0|0:0,0:0:0:0:
85,159,59175,1,0,0:0:0:0:
230,154,59334,1,10,0:0:0:0:
79,124,59492,1,0,0:0:0:0:
408,110,59651,5,6,0:0:0:0:
269,96,59810,1,2,0:0:0:0:
128,80,59969,1,2,0:0:0:0:
269,96,60127,1,2,0:0:0:0:
16,48,60286,1,2,0:0:0:0:
168,45,60445,1,2,0:0:0:0:
16,48,60604,1,2,0:0:0:0:
283,58,60762,2,0,L|356:57,1,53.5,2|0,0:0|0:0,0:0:0:0:
118,102,60921,5,2,0:0:0:0:
366,121,61080,1,2,0:0:0:0:
225,139,61238,1,2,0:0:0:0:
374,158,61397,1,2,0:0:0:0:
52,170,61556,2,0,L|47:236,1,53.5,2|2,0:0|0:0,0:0:0:0:
206,224,61715,2,0,L|265:233,1,53.5,2|2,0:0|0:0,0:0:0:0:
67,283,61873,2,0,L|143:299,1,53.5,2|2,0:0|0:0,0:0:0:0:
362,326,62032,2,0,L|284:316,1,53.5,2|2,0:0|0:0,0:0:0:0:
27,335,62191,5,6,0:0:0:0:
302,297,62508,1,2,0:0:0:0:
24,294,62826,1,2,0:0:0:0:
422,253,63143,1,6,0:0:0:0:
50,175,63302,6,0,L|271:164,1,214,6|0,0:0|2:0,0:0:0:0:
123,120,63778,1,0,2:0:0:0:
352,86,63937,2,0,L|412:84,1,53.5,0|0,2:0|0:0,0:0:0:0:
243,72,64096,2,0,L|132:68,1,107,2|2,0:0|0:0,0:0:0:0:
190,28,64334,1,2,0:0:0:0:
462,47,64413,2,0,L|377:44,1,53.5,2|2,0:0|0:0,0:0:0:0:
136,190,64572,2,0,L|71:190,1,53.5,2|2,0:0|0:0,0:0:0:0:
343,190,64731,6,0,L|448:216,1,107,6|0,0:0|0:0,0:0:0:0:
226,293,65048,2,0,L|355:299,1,107,10|0,0:0|0:0,0:0:0:0:
64,294,65365,1,2,0:0:0:0:
204,280,65524,1,0,0:0:0:0:
58,257,65683,1,10,0:0:0:0:
330,215,65842,6,0,L|444:207,1,107,0|2,0:0|0:0,0:0:0:0:
280,187,66159,1,0,0:0:0:0:
461,168,66318,2,0,L|464:49,1,107,10|0,0:0|0:0,0:0:0:0:
197,58,66635,1,2,0:0:0:0:
338,72,66794,1,0,0:0:0:0:
188,107,66953,2,0,L|182:218,1,107,10|0,0:0|0:0,0:0:0:0:
457,237,67270,6,0,L|333:232,1,107,2|0,0:0|0:0,0:0:0:0:
193,245,67588,2,0,L|193:108,1,107,10|0,0:0|0:0,0:0:0:0:
441,177,67905,2,0,L|449:54,1,107,2|0,0:0|0:0,0:0:0:0:
188,68,68223,1,10,0:0:0:0:
333,67,68381,1,0,0:0:0:0:
73,71,68540,6,0,L|144:76,1,53.5,2|2,0:0|0:0,0:0:0:0:
286,113,68699,2,0,L|225:115,1,53.5,2|2,0:0|0:0,0:0:0:0:
16,144,68858,2,0,L|151:152,1,107,10|2,0:0|0:0,0:0:0:0:
402,148,69175,2,0,L|411:269,1,107,2|2,0:0|0:0,0:0:0:0:
142,261,69492,2,0,L|82:266,1,53.5,10|2,0:0|0:0,0:0:0:0:
251,249,69651,2,0,L|312:243,1,53.5,2|2,0:0|0:0,0:0:0:0:
38,245,69810,6,0,L|164:223,1,107,2|0,0:0|0:0,0:0:0:0:
282,178,70127,2,0,L|150:197,1,107,10|0,0:0|0:0,0:0:0:0:
448,122,70445,1,2,0:0:0:0:
307,106,70604,1,0,0:0:0:0:
451,96,70762,1,10,0:0:0:0:
181,76,70921,6,0,L|57:70,1,107,0|2,0:0|0:0,0:0:0:0:
214,150,71238,1,0,0:0:0:0:
55,152,71397,2,0,L|47:260,1,107,10|0,0:0|0:0,0:0:0:0:
316,259,71715,2,0,L|422:264,1,107,2|0,0:0|0:0,0:0:0:0:
268,295,72032,2,0,L|153:290,1,107,10|0,0:0|0:0,0:0:0:0:
440,227,72350,6,0,L|443:164,1,53.5,2|2,0:0|0:0,0:0:0:0:
358,150,72508,2,0,L|298:147,1,53.5,2|2,0:0|0:0,0:0:0:0:
468,97,72667,2,0,L|409:87,1,53.5,10|2,0:0|0:0,0:0:0:0:
246,75,72826,2,0,L|177:70,1,53.5,2|2,0:0|0:0,0:0:0:0:
412,37,72985,2,0,L|474:32,1,53.5,2|2,0:0|0:0,0:0:0:0:
277,26,73143,2,0,L|221:22,1,53.5,2|2,0:0|0:0,0:0:0:0:
16,16,73302,2,0,L|75:14,1,53.5,10|2,0:0|0:0,0:0:0:0:
394,86,73461,5,6,0:0:0:0:
16,96,73778,1,4,0:0:0:0:
292,73,73937,1,4,0:0:0:0:
140,82,74096,1,4,0:0:0:0:
406,103,74254,2,0,L|408:169,1,53.5,2|2,0:0|0:0,0:0:0:0:
316,144,74413,2,0,L|318:210,1,53.5,2|2,0:0|0:0,0:0:0:0:
218,240,74572,2,0,L|154:241,1,53.5,2|2,0:0|0:0,0:0:0:0:
381,248,74731,2,0,L|452:252,1,53.5,2|2,0:0|0:0,0:0:0:0:
174,196,74889,6,0,P|129:155|210:37,1,214,6|0,0:0|0:0,0:0:0:0:
352,43,75365,2,0,L|111:52,1,214,0|0,0:0|0:0,0:0:0:0:
290,104,75842,1,0,0:0:0:0:
148,114,76000,6,0,P|98:182|191:265,1,214,0|0,0:0|0:0,0:0:0:0:
377,250,76635,1,0,0:0:0:0:
226,327,76794,2,0,L|449:339,1,214,0|0,0:0|0:0,0:0:0:0:
274,288,77270,6,0,P|230:247|324:130,1,214,0|0,0:0|0:0,0:0:0:0:
480,160,77905,1,0,0:0:0:0:
318,150,78064,2,0,L|85:130,1,214,0|0,0:0|0:0,0:0:0:0:
271,193,78540,6,0,L|276:306,1,107,0|2,0:0|0:0,0:0:0:0:
114,227,78858,2,0,L|112:336,1,107,0|0,0:0|0:0,0:0:0:0:
272,316,79175,2,0,L|50:327,1,214,0|0,0:0|0:0,0:0:0:0:
207,257,79651,1,2,0:0:0:0:
45,268,79810,1,2,0:0:0:0:
321,244,79969,6,0,P|372:213|306:101,1,214,6|2,0:0|0:0,0:0:0:0:
153,102,80445,2,0,L|45:101,2,107,0|2|0,0:0|0:0|0:0,0:0:0:0:
310,120,80921,1,2,0:0:0:0:
45,164,81080,6,0,P|50:246|163:312,1,214,0|0,0:0|0:0,0:0:0:0:
308,306,81556,2,0,L|315:191,1,107,2|0,0:0|0:0,0:0:0:0:
152,193,81873,2,0,L|38:191,1,107,2|0,0:0|0:0,0:0:0:0:
202,139,82191,1,2,0:0:0:0:
41,126,82350,1,0,0:0:0:0:
313,177,82508,6,0,P|364:153|292:44,1,214,2|2,0:0|0:0,0:0:0:0:
148,39,82985,1,0,0:0:0:0:
310,36,83143,2,0,L|422:31,1,107,2|0,0:0|0:0,0:0:0:0:
257,93,83461,2,0,L|250:211,1,107,2|0,0:0|0:0,0:0:0:0:
307,205,83699,1,0,0:0:0:0:
496,192,83778,6,0,L|384:200,1,107,6|0,0:0|0:0,0:0:0:0:
442,233,84016,1,0,0:0:0:0:
446,284,84095,1,0,0:0:0:0:
397,314,84174,1,0,0:0:0:0:
208,328,84254,1,2,0:0:0:0:
262,323,84333,1,0,0:0:0:0:
315,318,84412,1,0,0:0:0:0:
368,313,84492,1,0,0:0:0:0:
175,268,84572,2,0,L|119:263,1,53.5,2|0,0:0|0:0,0:0:0:0:
219,223,84731,2,0,L|272:218,1,53.5,0|0,0:0|0:0,0:0:0:0:
16,128,84889,2,0,L|78:134,1,53.5,2|0,0:0|0:0,0:0:0:0:
294,105,85048,6,0,L|410:101,2,107,6|0|0,0:0|0:0|0:0,0:0:0:0:
132,111,85524,2,0,L|125:233,1,107,2|0,0:0|0:0,0:0:0:0:
289,174,85842,2,0,L|282:296,1,107,0|0,0:0|0:0,0:0:0:0:
16,272,86159,6,0,L|246:287,1,214,2|0,0:0|0:0,0:0:0:0:
70,107,86635,2,0,L|63:229,1,107,0|0,0:0|0:0,0:0:0:0:
231,172,86953,2,0,L|345:176,1,107,2|0,0:0|0:0,0:0:0:0:
345,231,87191,1,0,0:0:0:0:
117,245,87270,2,0,L|361:247,1,235.400007183838,2|0,0:0|0:0,0:0:0:0:
85,192,87588,5,6,0:0:0:0:
213,182,87746,2,0,L|216:74,1,107,0|0,0:0|0:0,0:0:0:0:
375,69,88064,2,0,L|494:61,1,107,2|0,0:0|0:0,0:0:0:0:
318,60,88381,2,0,L|304:176,1,107,0|0,0:0|0:0,0:0:0:0:
459,120,88699,1,2,0:0:0:0:
149,129,88858,6,0,L|142:243,1,107,2|2,0:0|0:0,0:0:0:0:
197,239,89096,1,0,0:0:0:0:
292,240,89175,2,0,L|299:309,1,53.5,2|0,0:0|0:0,0:0:0:0:
200,286,89334,2,0,L|207:355,1,53.5,2|0,0:0|0:0,0:0:0:0:
366,249,89492,2,0,L|373:318,1,53.5,2|2,0:0|0:0,0:0:0:0:
157,293,89651,2,0,L|164:362,1,53.5,2|2,0:0|0:0,0:0:0:0:
435,176,89810,2,0,L|377:182,1,53.5,2|2,0:0|0:0,0:0:0:0:
135,186,89969,2,0,L|189:180,1,53.5,2|2,0:0|0:0,0:0:0:0:
481,156,90127,6,0,L|485:48,1,107,6|0,0:0|0:0,0:0:0:0:
332,78,90445,1,2,0:0:0:0:
487,35,90604,2,0,L|378:29,1,107,0|2,0:0|0:0,0:0:0:0:
131,30,90921,2,0,L|125:147,1,107,0|2,0:0|0:0,0:0:0:0:
424,235,91238,6,0,L|302:241,1,107,2|2,0:0|0:0,0:0:0:0:
171,248,91556,2,0,L|297:242,1,107,2|2,0:0|0:0,0:0:0:0:
17,233,91873,2,0,L|17:106,1,107,2|2,0:0|0:0,0:0:0:0:
346,132,92191,2,0,L|405:123,1,53.5,2|2,0:0|0:0,0:0:0:0:
129,120,92350,2,0,L|189:114,1,53.5,2|2,0:0|0:0,0:0:0:0:
462,96,92508,6,0,B|368:224|368:224|480:112|480:112|360:239,1,481.500018367768,6|0,0:0|0:0,0:0:0:0:
33,184,93143,2,0,L|36:248,1,53.5,0|0,0:0|0:0,0:0:0:0:
120,250,93302,2,0,L|190:253,1,53.5,0|0,0:0|0:0,0:0:0:0:
16,288,93461,2,0,L|74:291,1,53.5,0|0,0:0|0:0,0:0:0:0:
294,203,93619,2,0,L|367:201,1,53.5,0|0,2:0|2:0,0:0:0:0:
129,175,93778,2,0,L|209:174,1,53.5,0|0,2:0|2:0,0:0:0:0:
427,186,93937,6,0,L|435:60,1,107,2|2,0:0|0:0,0:0:0:0:
171,73,94254,2,0,L|104:70,1,53.5,2|2,0:0|0:0,0:0:0:0:
304,105,94413,2,0,L|309:42,1,53.5,2|2,0:0|0:0,0:0:0:0:
146,162,94572,2,0,L|141:108,1,53.5,2|2,0:0|0:0,0:0:0:0:
406,231,94731,1,2,0:0:0:0:
337,222,94811,1,2,0:0:0:0:
265,213,94890,1,2,0:0:0:0:
337,222,94969,1,2,0:0:0:0:
83,237,95048,2,0,L|23:232,1,53.5,2|2,0:0|0:0,0:0:0:0:
300,334,95207,6,0,L|305:269,1,53.5,6|0,0:0|2:0,0:0:0:0:
224,295,95365,2,0,L|229:230,1,53.5,0|0,2:0|2:0,0:0:0:0:
400,200,95524,2,0,L|452:210,1,53.5,2|0,2:0|2:0,0:0:0:0:
288,161,95683,2,0,L|235:152,1,53.5,0|0,2:0|2:0,0:0:0:0:
33,52,95842,1,2,0:0:0:0:
103,56,95922,1,2,0:0:0:0:
33,52,96001,1,2,0:0:0:0:
103,56,96081,1,2,0:0:0:0:
331,126,96159,2,0,B|91:126|91:126|18:218,1,353.100010775757,10|0,0:0|0:0,0:0:0:0:
296,225,96477,6,0,L|429:235,1,117.700003591919,6|0,0:0|0:0,0:0:0:0:
250,221,96794,1,10,0:0:0:0:
488,198,96953,2,0,L|492:76,1,117.700003591919,0|2,0:0|0:0,0:0:0:0:
334,79,97270,2,0,L|461:73,1,117.700003591919,0|10,0:0|0:0,0:0:0:0:
169,60,97588,6,0,L|25:50,1,117.700003591919,0|2,0:0|0:0,0:0:0:0:
299,97,97905,1,0,0:0:0:0:
150,113,98064,2,0,L|138:243,1,117.700003591919,10|0,0:0|0:0,0:0:0:0:
415,198,98381,2,0,L|403:328,1,117.700003591919,2|0,0:0|0:0,0:0:0:0:
250,302,98699,1,10,0:0:0:0:
406,320,98858,1,0,0:0:0:0:
125,253,99016,6,0,P|66:218|147:105,1,235.400007183838,2|10,0:0|0:0,0:0:0:0:
293,95,99492,2,0,L|413:95,1,117.700003591919,0|2,0:0|0:0,0:0:0:0:
154,91,99810,2,0,L|142:216,1,117.700003591919,0|10,0:0|0:0,0:0:0:0:
418,208,100127,6,0,L|182:224,1,235.400007183838,0|0,0:0|0:0,0:0:0:0:
349,167,100604,2,0,L|355:50,1,117.700003591919,10|0,0:0|0:0,0:0:0:0:
92,169,100921,2,0,L|98:52,1,117.700003591919,2|0,0:0|0:0,0:0:0:0:
249,50,101238,1,10,0:0:0:0:
92,45,101397,1,0,0:0:0:0:
383,93,101556,6,0,L|250:98,1,117.700003591919,6|0,0:0|0:0,0:0:0:0:
433,115,101873,1,10,0:0:0:0:
174,142,102032,2,0,L|159:279,1,117.700003591919,0|2,0:0|0:0,0:0:0:0:
322,268,102350,2,0,L|443:278,1,117.700003591919,0|10,0:0|0:0,0:0:0:0:
137,85,102667,6,0,L|16:78,2,117.700003591919,0|2|0,0:0|0:0|0:0,0:0:0:0:
308,96,103143,2,0,L|312:215,1,117.700003591919,10|0,0:0|0:0,0:0:0:0:
50,150,103461,2,0,P|62:222|208:276,1,235.400007183838,2|10,0:0|0:0,0:0:0:0:
21,314,103937,1,0,0:0:0:0:
334,310,104096,6,0,L|86:331,1,235.400007183838,6|2,0:0|0:0,0:0:0:0:
381,246,104572,2,0,L|386:122,1,117.700003591919,8|0,0:0|0:0,0:0:0:0:
62,108,104889,2,0,L|198:114,1,117.700003591919,2|0,0:0|0:0,0:0:0:0:
435,99,105207,5,6,0:0:0:0:
26,150,105524,1,6,0:0:0:0:
158,149,105683,1,2,0:0:0:0:
24,124,105842,1,2,0:0:0:0:
311,103,106000,2,0,L|490:112,1,176.550005387879,6|0,0:0|0:0,0:0:0:0:
216,186,106318,2,0,L|149:189,1,58.8500017959595,0|0,2:0|2:0,0:0:0:0:
450,234,106477,2,0,L|381:241,1,58.8500017959595,0|0,2:0|2:0,0:0:0:0:
128,265,106635,6,0,L|3:279,1,117.700003591919,6|0,0:0|0:0,0:0:0:0:
179,280,106953,1,10,0:0:0:0:
405,245,107112,2,0,L|410:114,1,117.700003591919,0|2,0:0|0:0,0:0:0:0:
227,212,107429,2,0,L|232:81,1,117.700003591919,0|10,0:0|0:0,0:0:0:0:
496,64,107746,6,0,L|364:56,1,117.700003591919,0|2,0:0|0:0,0:0:0:0:
223,65,108064,1,0,0:0:0:0:
390,103,108223,2,0,L|397:247,1,117.700003591919,10|0,0:0|0:0,0:0:0:0:
145,136,108540,2,0,L|152:280,1,117.700003591919,2|0,0:0|0:0,0:0:0:0:
299,252,108858,1,10,0:0:0:0:
146,276,109016,1,0,0:0:0:0:
448,290,109175,6,0,L|203:305,1,235.400007183838,2|10,0:0|0:0,0:0:0:0:
371,232,109651,2,0,L|375:109,1,117.700003591919,0|2,0:0|0:0,0:0:0:0:
114,104,109969,2,0,L|254:100,1,117.700003591919,0|10,0:0|0:0,0:0:0:0:
489,80,110286,6,0,L|358:76,2,117.700003591919,0|2|0,0:0|0:0|0:0,0:0:0:0:
328,112,110762,2,0,L|177:118,1,117.700003591919,10|0,0:0|0:0,0:0:0:0:
458,198,111080,2,0,L|464:326,1,117.700003591919,2|0,0:0|0:0,0:0:0:0:
312,330,111397,1,10,0:0:0:0:
470,323,111556,1,0,0:0:0:0:
163,266,111715,6,0,L|418:251,1,235.400007183838,6|10,0:0|0:0,0:0:0:0:
233,203,112191,2,0,L|227:74,1,117.700003591919,0|2,0:0|0:0,0:0:0:0:
464,199,112508,2,0,L|458:70,1,117.700003591919,0|10,0:0|0:0,0:0:0:0:
164,77,112826,6,0,L|33:69,1,117.700003591919,0|2,0:0|0:0,0:0:0:0:
211,94,113143,1,0,0:0:0:0:
37,101,113302,2,0,L|28:241,1,117.700003591919,10|0,0:0|0:0,0:0:0:0:
286,136,113619,2,0,L|143:143,1,117.700003591919,2|0,0:0|0:0,0:0:0:0:
328,179,113937,1,10,0:0:0:0:
70,204,114096,1,0,0:0:0:0:
424,243,114254,6,0,L|183:228,1,235.400007183838,6|2,0:0|0:0,0:0:0:0:
361,181,114731,2,0,L|369:51,1,117.700003591919,8|0,0:0|0:0,0:0:0:0:
194,169,115048,2,0,L|202:39,1,117.700003591919,2|0,0:0|0:0,0:0:0:0:
484,52,115365,5,6,0:0:0:0:
107,65,115683,1,6,0:0:0:0:
252,75,115842,1,2,0:0:0:0:
96,118,116000,1,2,0:0:0:0:
381,132,116159,2,0,L|168:138,1,176.550005387879,6|0,0:0|0:0,0:0:0:0:
473,194,116477,2,0,L|404:197,1,58.8500017959595,0|0,2:0|2:0,0:0:0:0:
176,210,116635,2,0,L|246:213,1,58.8500017959595,0|0,2:0|2:0,0:0:0:0:
488,234,116794,6,0,L|491:366,1,117.700003591919,6|0,0:0|0:0,0:0:0:0:
324,349,117112,2,0,L|455:352,1,117.700003591919,10|0,0:0|0:0,0:0:0:0:
174,266,117429,2,0,L|56:261,1,117.700003591919,2|0,0:0|0:0,0:0:0:0:
207,245,117746,2,0,L|325:250,1,117.700003591919,10|0,0:0|0:0,0:0:0:0:
40,184,118064,5,2,0:0:0:0:
172,168,118223,2,0,L|237:165,1,58.8500017959595,0|0,0:0|0:0,0:0:0:0:
56,122,118381,2,0,L|50:2,1,117.700003591919,10|0,0:0|0:0,0:0:0:0:
330,51,118699,2,0,L|334:194,1,117.700003591919,2|0,0:0|0:0,0:0:0:0:
167,174,119016,2,0,L|171:317,1,117.700003591919,10|0,0:0|0:0,0:0:0:0:
475,275,119334,6,0,L|354:286,1,117.700003591919,2|0,0:0|0:0,0:0:0:0:
210,298,119651,2,0,L|91:293,1,117.700003591919,10|0,0:0|0:0,0:0:0:0:
364,272,119969,2,0,L|358:150,1,117.700003591919,2|0,0:0|0:0,0:0:0:0:
95,173,120286,1,10,0:0:0:0:
412,117,120445,6,0,L|160:107,1,235.400007183838,0|0,0:0|0:0,0:0:0:0:
344,162,120921,2,0,L|351:285,1,117.700003591919,10|0,0:0|0:0,0:0:0:0:
81,288,121238,2,0,L|204:291,1,117.700003591919,2|0,0:0|0:0,0:0:0:0:
259,293,121477,1,0,0:0:0:0:
165,244,121556,2,0,L|155:121,1,117.700003591919,10|0,0:0|0:0,0:0:0:0:
487,119,121873,5,6,0:0:0:0:
337,111,122032,1,2,0:0:0:0:
487,119,122191,1,2,0:0:0:0:
337,111,122350,1,2,0:0:0:0:
111,76,122508,1,2,0:0:0:0:
263,81,122666,1,2,0:0:0:0:
416,86,122825,1,2,0:0:0:0:
140,154,122985,2,0,L|68:156,1,58.8500017959595,2|2,0:0|0:0,0:0:0:0:
288,177,123143,6,0,L|407:189,1,117.700003591919,2|2,0:0|0:0,0:0:0:0:
241,228,123461,1,2,0:0:0:0:
414,231,123619,1,2,0:0:0:0:
91,217,123778,2,0,L|31:222,1,58.8500017959595,2|2,0:0|0:0,0:0:0:0:
134,250,123937,2,0,L|201:246,1,58.8500017959595,2|2,0:0|0:0,0:0:0:0:
431,274,124096,2,0,L|493:276,1,58.8500017959595,2|2,0:0|0:0,0:0:0:0:
197,316,124254,2,0,L|271:324,1,58.8500017959595,2|2,0:0|0:0,0:0:0:0:
496,336,124413,5,6,0:0:0:0:
201,289,124731,1,2,0:0:0:0:
480,290,125048,1,2,0:0:0:0:
50,238,125365,1,6,0:0:0:0:
296,210,125524,6,0,P|357:183|251:85,1,235.400007183838,6|0,0:0|2:0,0:0:0:0:
142,61,126000,1,0,2:0:0:0:
287,62,126159,1,0,2:0:0:0:
36,49,126318,2,0,L|168:39,1,117.700003591919,2|2,0:0|0:0,0:0:0:0:
93,98,126556,1,2,0:0:0:0:
298,112,126635,2,0,L|237:114,1,58.8500017959595,2|2,0:0|0:0,0:0:0:0:
28,155,126794,2,0,L|94:157,1,58.8500017959595,2|2,0:0|0:0,0:0:0:0:
384,181,126953,6,0,L|495:186,2,107,6|0|0,0:0|0:0|0:0,0:0:0:0:
116,245,127588,2,0,L|235:252,2,107,0|0|0,0:0|0:0|0:0,0:0:0:0:
268,196,128064,6,0,L|276:82,1,107,0|0,0:0|0:0,0:0:0:0:
124,81,128381,2,0,L|16:77,2,107,0|0|0,0:0|0:0|0:0,0:0:0:0:
277,65,128858,2,0,L|401:59,1,107,0|0,0:0|0:0,0:0:0:0:
229,124,129175,2,0,L|358:118,1,107,0|0,0:0|0:0,0:0:0:0:
171,181,129492,6,0,L|56:187,2,107,0|0|0,0:0|0:0|0:0,0:0:0:0:
432,192,130127,2,0,L|448:309,1,107,0|0,0:0|0:0,0:0:0:0:
297,301,130445,1,0,0:0:0:0:
455,330,130604,1,0,0:0:0:0:
136,202,130762,6,0,L|133:266,1,53.5,0|0,0:0|0:0,0:0:0:0:
213,253,130921,2,0,L|214:310,1,53.5,0|0,0:0|0:0,0:0:0:0:
127,310,131080,2,0,L|17:318,2,107,0|0|0,0:0|0:0|0:0,0:0:0:0:
282,308,131556,1,0,0:0:0:0:
121,259,131715,1,0,0:0:0:0:
77,234,131794,1,0,0:0:0:0:
78,183,131873,1,0,0:0:0:0:
124,160,131953,1,0,0:0:0:0:
310,166,132032,6,0,L|439:165,2,107,0|0|0,0:0|0:0|0:0,0:0:0:0:
46,114,132667,2,0,L|38:224,1,107,0|0,0:0|0:0,0:0:0:0:
170,242,132985,1,0,0:0:0:0:
26,268,133143,6,0,L|22:146,1,107,0|0,0:0|0:0,0:0:0:0:
173,151,133461,2,0,L|291:143,2,107,0|0|0,0:0|0:0|0:0,0:0:0:0:
327,94,133937,2,0,L|336:211,1,107,0|0,0:0|0:0,0:0:0:0:
181,201,134254,2,0,L|189:311,1,107,0|0,0:0|0:0,0:0:0:0:
338,48,134572,6,0,L|449:39,2,107,0|0|0,0:0|0:0|0:0,0:0:0:0:
88,72,135207,2,0,L|77:198,1,107,0|0,0:0|0:0,0:0:0:0:
224,184,135524,1,0,0:0:0:0:
67,212,135683,6,0,L|321:222,1,214,0|0,0:0|0:0,0:0:0:0:
133,265,136159,1,0,0:0:0:0:
381,253,136318,2,0,L|440:248,1,53.5,0|0,0:0|0:0,0:0:0:0:
347,222,136477,2,0,L|283:226,1,53.5,0|0,0:0|0:0,0:0:0:0:
380,162,136635,2,0,L|317:164,1,53.5,0|0,0:0|0:0,0:0:0:0:
136,161,136794,2,0,L|197:158,1,53.5,0|0,0:0|0:0,0:0:0:0:
408,114,136953,2,0,L|496:106,1,53.5,0|0,0:0|0:0,0:0:0:0:
188,111,137112,6,0,L|186:233,1,107,6|0,0:0|0:0,0:0:0:0:
350,226,137429,1,2,0:0:0:0:
46,227,137746,1,2,0:0:0:0:
202,245,137905,1,0,0:0:0:0:
46,227,138064,1,2,0:0:0:0:
314,183,138223,6,0,L|319:70,1,107,2|2,0:0|0:0,0:0:0:0:
168,77,138540,1,0,0:0:0:0:
325,54,138699,1,2,0:0:0:0:
165,42,138858,1,0,0:0:0:0:
431,34,139016,1,2,0:0:0:0:
120,36,139175,2,0,L|60:36,1,53.5,2|2,0:0|0:0,0:0:0:0:
230,105,139334,2,0,L|339:107,1,107,2|2,0:0|0:0,0:0:0:0:
282,149,139572,1,0,0:0:0:0:
66,148,139651,6,0,L|60:263,1,107,2|0,0:0|0:0,0:0:0:0:
216,259,139969,2,0,L|322:264,1,107,2|0,0:0|0:0,0:0:0:0:
51,280,140286,1,2,0:0:0:0:
204,273,140445,1,0,0:0:0:0:
51,280,140604,1,2,0:0:0:0:
318,224,140762,1,2,0:0:0:0:
49,202,140921,6,0,L|46:130,1,53.5,2|2,0:0|0:0,0:0:0:0:
137,147,141080,2,0,L|140:87,1,53.5,2|2,0:0|0:0,0:0:0:0:
302,83,141238,2,0,L|427:77,1,107,2|0,0:0|0:0,0:0:0:0:
246,79,141556,1,2,0:0:0:0:
482,119,141715,2,0,L|488:182,1,53.5,2|2,0:0|0:0,0:0:0:0:
326,188,141873,2,0,L|260:195,1,53.5,2|0,0:0|0:0,0:0:0:0:
358,220,142032,2,0,L|424:212,1,53.5,2|0,0:0|0:0,0:0:0:0:
115,249,142191,5,2,0:0:0:0:
258,245,142349,1,2,0:0:0:0:
403,241,142508,1,2,0:0:0:0:
258,245,142667,1,2,0:0:0:0:
17,203,142826,1,2,0:0:0:0:
164,198,142985,1,2,0:0:0:0:
17,203,143143,1,2,0:0:0:0:
362,151,143302,6,0,L|485:142,1,117.700003591919,2|2,0:0|0:0,0:0:0:0:
325,111,143619,1,2,0:0:0:0:
482,102,143778,1,2,0:0:0:0:
325,111,143937,1,2,0:0:0:0:
26,145,144096,2,0,L|21:265,1,117.700003591919,2|2,0:0|0:0,0:0:0:0:
291,258,144413,2,0,L|156:265,1,117.700003591919,2|2,0:0|0:0,0:0:0:0:
465,227,144731,6,0,L|469:159,1,58.8500017959595,2|2,0:0|0:0,0:0:0:0:
376,161,144889,2,0,L|316:157,1,58.8500017959595,2|2,0:0|0:0,0:0:0:0:
496,96,145048,2,0,L|413:92,1,58.8500017959595,2|2,0:0|0:0,0:0:0:0:
226,90,145207,2,0,L|161:88,1,58.8500017959595,2|2,0:0|0:0,0:0:0:0:
403,52,145365,2,0,L|465:47,1,58.8500017959595,2|2,0:0|0:0,0:0:0:0:
165,39,145524,2,0,L|227:35,1,58.8500017959595,2|2,0:0|0:0,0:0:0:0:
488,24,145683,2,0,L|415:20,1,58.8500017959595,2|2,0:0|0:0,0:0:0:0:
131,21,145842,5,2,0:0:0:0:
82,49,145921,1,2,0:0:0:0:
74,105,146000,1,2,0:0:0:0:
114,145,146080,1,2,0:0:0:0:
351,168,146159,2,0,L|426:175,1,58.8500017959595,2|2,0:0|0:0,0:0:0:0:
113,221,146318,2,0,L|190:239,1,58.8500017959595,2|2,0:0|0:0,0:0:0:0:
496,240,146477,2,0,L|437:244,1,58.8500017959595,2|2,0:0|0:0,0:0:0:0:
136,281,146635,1,2,0:0:0:0:
61,279,146714,1,2,0:0:0:0:
136,281,146793,1,2,0:0:0:0:
212,282,146873,1,2,0:0:0:0:
440,346,146953,1,2,0:0:0:0:
369,349,147033,1,2,0:0:0:0:
137,337,147112,1,2,0:0:0:0:
65,341,147192,1,2,0:0:0:0:
377,321,147270,6,0,L|383:193,1,117.700003591919,6|0,2:0|0:0,0:0:0:0:
320,193,147508,1,0,0:0:0:0:
112,242,147588,2,0,L|104:110,1,117.700003591919,0|0,2:0|2:0,0:0:0:0:
165,121,147826,1,0,0:0:0:0:
370,117,147905,1,2,0:0:0:0:
292,114,147985,1,2,0:0:0:0:
370,117,148064,1,2,0:0:0:0:
292,114,148144,1,2,0:0:0:0:
29,62,148223,2,0,B|269:62|269:62|340:153,1,353.100010775757,6|0,0:0|0:0,0:0:0:0:
28,115,148540,6,0,L|19:249,1,128.399996081543,6|0,0:0|0:0,0:0:0:0:
196,303,148858,1,10,0:0:0:0:
490,299,149016,2,0,L|321:306,1,128.399996081543,0|2,0:0|0:0,0:0:0:0:
194,295,149334,2,0,L|185:164,1,128.399996081543,0|10,0:0|0:0,0:0:0:0:
455,205,149651,6,0,L|320:196,1,128.399996081543,0|2,0:0|0:0,0:0:0:0:
496,160,149969,1,0,0:0:0:0:
214,180,150127,2,0,L|225:46,1,128.399996081543,10|0,0:0|0:0,0:0:0:0:
405,46,150445,2,0,L|277:51,1,128.399996081543,2|0,0:0|0:0,0:0:0:0:
213,53,150683,1,0,0:0:0:0:
406,92,150762,2,0,L|421:227,1,128.399996081543,10|0,0:0|0:0,0:0:0:0:
120,231,151080,6,0,L|264:237,1,128.399996081543,2|0,0:0|0:0,0:0:0:0:
75,222,151397,1,10,0:0:0:0:
253,200,151556,2,0,L|261:68,1,128.399996081543,0|2,0:0|0:0,0:0:0:0:
18,199,151873,2,0,L|26:67,1,128.399996081543,0|10,0:0|0:0,0:0:0:0:
325,68,152191,6,0,L|479:61,1,128.399996081543,0|2,0:0|0:0,0:0:0:0:
276,75,152508,1,0,0:0:0:0:
470,99,152667,2,0,L|480:237,1,128.399996081543,10|0,0:0|0:0,0:0:0:0:
220,234,152985,2,0,L|85:243,1,128.399996081543,2|0,0:0|0:0,0:0:0:0:
261,271,153302,1,10,0:0:0:0:
21,271,153461,1,0,0:0:0:0:
347,247,153619,6,0,L|481:238,1,128.399996081543,6|0,0:0|0:0,0:0:0:0:
290,236,153937,1,10,0:0:0:0:
484,203,154096,2,0,L|489:49,1,128.399996081543,0|2,0:0|0:0,0:0:0:0:
313,63,154413,2,0,L|447:65,1,128.399996081543,0|10,0:0|0:0,0:0:0:0:
145,64,154731,6,0,L|11:71,2,128.399996081543,0|2|0,0:0|0:0|0:0,0:0:0:0:
327,154,155207,2,0,L|336:286,1,128.399996081543,10|0,0:0|0:0,0:0:0:0:
86,171,155524,1,2,0:0:0:0:
235,174,155683,1,0,0:0:0:0:
86,171,155842,1,10,0:0:0:0:
380,192,156000,1,0,0:0:0:0:
39,245,156159,6,0,L|326:252,1,256.799992163086,6|2,0:0|0:0,0:0:0:0:
36,196,156635,2,0,L|29:63,1,128.399996081543,8|0,0:0|0:0,0:0:0:0:
286,194,156953,2,0,L|154:185,1,128.399996081543,2|0,0:0|0:0,0:0:0:0:
459,191,157270,5,6,0:0:0:0:
73,160,157588,1,6,0:0:0:0:
216,146,157746,1,2,0:0:0:0:
73,160,157905,1,2,0:0:0:0:
363,143,158064,2,0,P|418:113|348:44,1,192.599994122315,6|0,0:0|0:0,0:0:0:0:
90,57,158381,2,0,L|154:64,1,64.1999980407715,0|0,2:0|2:0,0:0:0:0:
462,196,158540,2,0,L|381:191,1,64.1999980407715,0|0,2:0|2:0,0:0:0:0:
128,195,158699,6,0,L|260:209,1,128.399996081543,6|0,0:0|0:0,0:0:0:0:
78,207,159016,1,10,0:0:0:0:
341,241,159175,2,0,L|349:109,1,128.399996081543,0|2,0:0|0:0,0:0:0:0:
168,197,159492,2,0,L|176:65,1,128.399996081543,0|10,0:0|0:0,0:0:0:0:
453,69,159810,6,0,L|311:63,1,128.399996081543,0|2,0:0|0:0,0:0:0:0:
496,32,160127,1,0,0:0:0:0:
314,59,160286,2,0,L|181:73,1,128.399996081543,10|0,0:0|0:0,0:0:0:0:
451,116,160604,2,0,L|467:251,1,128.399996081543,2|0,0:0|0:0,0:0:0:0:
313,236,160921,1,10,0:0:0:0:
469,264,161080,1,0,0:0:0:0:
174,228,161238,6,0,L|35:238,1,128.399996081543,2|0,0:0|0:0,0:0:0:0:
225,186,161556,1,10,0:0:0:0:
33,191,161715,2,0,L|23:37,1,128.399996081543,0|2,0:0|0:0,0:0:0:0:
299,68,162032,2,0,L|449:57,1,128.399996081543,0|10,0:0|0:0,0:0:0:0:
119,60,162350,6,0,L|112:196,1,128.399996081543,0|2,0:0|0:0,0:0:0:0:
284,192,162667,1,0,0:0:0:0:
16,192,162826,2,0,L|164:203,1,128.399996081543,10|0,0:0|0:0,0:0:0:0:
413,184,163143,2,0,L|417:329,1,128.399996081543,2|0,0:0|0:0,0:0:0:0:
260,309,163461,1,10,0:0:0:0:
420,341,163619,1,0,0:0:0:0:
102,277,163778,6,0,L|359:279,1,256.799992163086,6|10,0:0|0:0,0:0:0:0:
188,232,164254,2,0,L|182:91,1,128.399996081543,0|2,0:0|0:0,0:0:0:0:
446,253,164572,2,0,L|457:95,1,128.399996081543,0|10,0:0|0:0,0:0:0:0:
156,89,164889,6,0,L|24:84,1,128.399996081543,0|2,0:0|0:0,0:0:0:0:
349,77,165207,2,0,L|448:76,1,64.1999980407715,0|0,0:0|0:0,0:0:0:0:
224,140,165365,2,0,L|82:138,1,128.399996081543,10|0,0:0|0:0,0:0:0:0:
275,167,165683,2,0,L|420:170,1,128.399996081543,2|0,0:0|0:0,0:0:0:0:
121,230,166000,1,10,0:0:0:0:
275,242,166159,2,0,L|347:251,1,64.1999980407715,0|0,0:0|0:0,0:0:0:0:
97,287,166318,6,0,L|247:304,1,128.399996081543,6|2,0:0|0:0,0:0:0:0:
53,263,166635,1,2,0:0:0:0:
353,232,166794,2,0,L|360:162,1,64.1999980407715,10|2,0:0|0:0,0:0:0:0:
262,196,166953,2,0,L|269:126,1,64.1999980407715,2|2,0:0|0:0,0:0:0:0:
455,169,167112,2,0,L|462:99,1,64.1999980407715,2|2,0:0|0:0,0:0:0:0:
203,66,167270,2,0,L|277:62,1,64.1999980407715,2|2,0:0|0:0,0:0:0:0:
496,48,167429,5,6,0:0:0:0:
102,47,167746,1,6,0:0:0:0:
271,79,167905,1,2,0:0:0:0:
102,47,168064,1,2,0:0:0:0:
404,49,168223,2,0,P|411:140|384:237,1,192.599994122315,6|0,0:0|0:0,0:0:0:0:
104,248,168540,2,0,L|168:248,1,64.1999980407715,0|0,2:0|2:0,0:0:0:0:
397,289,168699,2,0,L|334:298,1,64.1999980407715,0|0,2:0|2:0,0:0:0:0:
70,298,168858,6,0,L|61:157,1,128.399996081543,6|0,0:0|0:0,0:0:0:0:
222,166,169175,2,0,L|89:159,1,128.399996081543,10|0,0:0|0:0,0:0:0:0:
356,115,169492,2,0,L|491:117,1,128.399996081543,2|0,0:0|0:0,0:0:0:0:
313,89,169810,2,0,L|176:86,1,128.399996081543,10|0,0:0|0:0,0:0:0:0:
472,146,170127,5,2,0:0:0:0:
324,152,170286,2,0,L|195:157,2,128.399996081543,0|10|0,0:0|0:0|0:0,0:0:0:0:
52,157,170762,2,0,L|45:293,1,128.399996081543,2|0,0:0|0:0,0:0:0:0:
207,286,171080,2,0,L|71:293,1,128.399996081543,10|0,0:0|0:0,0:0:0:0:
423,283,171397,6,0,L|431:150,1,128.399996081543,2|0,0:0|0:0,0:0:0:0:
253,231,171715,2,0,L|102:225,1,128.399996081543,10|0,0:0|0:0,0:0:0:0:
411,236,172032,2,0,L|420:101,1,128.399996081543,2|0,0:0|0:0,0:0:0:0:
258,97,172350,1,10,0:0:0:0:
496,80,172508,6,0,L|211:71,1,256.799992163086,0|0,0:0|0:0,0:0:0:0:
409,129,172985,1,10,0:0:0:0:
232,123,173143,2,0,L|222:270,1,128.399996081543,0|2,0:0|0:0,0:0:0:0:
392,260,173461,1,0,0:0:0:0:
224,289,173619,1,10,0:0:0:0:
479,308,173778,1,0,0:0:0:0:
118,195,173937,5,6,0:0:0:0:
256,181,174095,1,2,0:0:0:0:
395,173,174254,1,2,0:0:0:0:
241,180,174413,1,2,0:0:0:0:
476,118,174572,1,2,0:0:0:0:
322,111,174731,1,2,0:0:0:0:
479,96,174889,1,2,0:0:0:0:
174,74,175048,2,0,L|100:71,1,64.1999980407715,2|2,0:0|0:0,0:0:0:0:
426,56,175207,6,0,L|432:205,1,128.399996081543,2|2,0:0|0:0,0:0:0:0:
283,229,175524,1,2,0:0:0:0:
435,225,175683,1,2,0:0:0:0:
97,258,175842,1,2,0:0:0:0:
243,267,176000,1,2,0:0:0:0:
89,200,176159,2,0,L|23:200,1,64.1999980407715,2|0,0:0|0:0,0:0:0:0:
253,193,176318,2,0,L|354:187,1,64.1999980407715,2|2,0:0|0:0,0:0:0:0:
24,184,176477,5,6,0:0:0:0:
303,135,176794,1,2,0:0:0:0:
24,140,177112,1,2,0:0:0:0:
441,105,177429,1,6,0:0:0:0:
124,113,177588,6,0,L|391:103,1,256.799992163086,6|0,0:0|2:0,0:0:0:0:
237,161,178064,1,0,2:0:0:0:
387,151,178223,1,0,2:0:0:0:
66,174,178381,2,0,L|135:179,1,64.1999980407715,2|2,0:0|0:0,0:0:0:0:
329,212,178540,2,0,L|401:221,1,64.1999980407715,2|2,0:0|0:0,0:0:0:0:
161,258,178699,2,0,L|231:270,1,64.1999980407715,2|2,0:0|0:0,0:0:0:0:
489,299,178858,2,0,L|423:303,1,64.1999980407715,2|2,0:0|0:0,0:0:0:0:
131,324,179016,6,0,L|123:196,1,107,6|0,0:0|0:0,0:0:0:0:
382,208,179334,2,0,L|494:204,1,107,10|0,0:0|0:0,0:0:0:0:
215,196,179651,1,2,0:0:0:0:
363,177,179810,1,0,0:0:0:0:
210,172,179969,1,10,0:0:0:0:
483,181,180127,6,0,L|491:60,1,107,0|2,0:0|0:0,0:0:0:0:
217,61,180445,1,0,0:0:0:0:
357,68,180604,1,10,0:0:0:0:
216,94,180762,1,0,0:0:0:0:
484,82,180921,2,0,L|369:86,1,107,2|0,0:0|0:0,0:0:0:0:
236,127,181238,2,0,L|357:124,1,107,10|0,0:0|0:0,0:0:0:0:
42,182,181556,6,0,L|35:312,1,107,2|0,0:0|0:0,0:0:0:0:
301,291,181873,2,0,L|422:298,1,107,10|0,0:0|0:0,0:0:0:0:
132,275,182191,1,2,0:0:0:0:
272,262,182350,1,0,0:0:0:0:
128,238,182508,1,10,0:0:0:0:
403,221,182667,1,0,0:0:0:0:
74,204,182826,6,0,L|16:207,1,53.5,2|2,0:0|0:0,0:0:0:0:
214,169,182985,2,0,L|280:164,1,53.5,2|2,0:0|0:0,0:0:0:0:
29,165,183143,2,0,L|21:46,1,107,10|0,0:0|0:0,0:0:0:0:
295,87,183461,2,0,L|152:76,1,107,2|2,0:0|0:0,0:0:0:0:
457,104,183778,2,0,L|396:109,1,53.5,10|2,0:0|0:0,0:0:0:0:
214,158,183937,2,0,L|284:153,1,53.5,2|2,0:0|0:0,0:0:0:0:
492,158,184096,6,0,L|367:172,1,107,2|0,0:0|0:0,0:0:0:0:
126,182,184413,2,0,L|116:302,1,107,10|0,0:0|0:0,0:0:0:0:
396,294,184731,1,2,0:0:0:0:
248,288,184889,1,0,0:0:0:0:
396,294,185048,1,10,0:0:0:0:
96,286,185207,6,0,L|90:155,1,107,0|2,0:0|0:0,0:0:0:0:
329,90,185524,2,0,L|334:153,1,53.5,0|0,0:0|0:0,0:0:0:0:
247,154,185683,2,0,L|133:155,1,107,10|0,0:0|0:0,0:0:0:0:
135,218,185921,1,0,0:0:0:0:
325,205,186000,2,0,L|385:210,1,53.5,2|0,0:0|0:0,0:0:0:0:
191,271,186159,2,0,L|131:279,1,53.5,0|0,0:0|0:0,0:0:0:0:
327,291,186318,1,10,0:0:0:0:
193,279,186477,2,0,L|188:337,1,53.5,0|0,0:0|0:0,0:0:0:0:
484,192,186635,6,0,L|486:119,1,53.5,2|2,0:0|0:0,0:0:0:0:
320,121,186794,2,0,L|266:115,1,53.5,2|2,0:0|0:0,0:0:0:0:
482,70,186953,2,0,L|428:64,1,53.5,10|2,0:0|0:0,0:0:0:0:
344,50,187112,2,0,L|414:59,1,53.5,2|2,0:0|0:0,0:0:0:0:
161,50,187270,2,0,L|97:43,1,53.5,2|2,0:0|0:0,0:0:0:0:
298,77,187429,2,0,L|367:83,1,53.5,2|2,0:0|0:0,0:0:0:0:
85,136,187588,2,0,L|160:149,1,53.5,10|2,0:0|0:0,0:0:0:0:
409,192,187746,5,6,0:0:0:0:
34,214,188064,1,4,0:0:0:0:
274,218,188223,1,4,0:0:0:0:
28,160,188381,1,4,0:0:0:0:
454,162,188540,5,6,0:0:0:0:
256,192,188699,12,0,191715,0:0:0:0:
