osu file format v14

[General]
AudioFilename: audio.mp3
AudioLeadIn: 0
PreviewTime: 34254
Countdown: 0
SampleSet: Normal
StackLeniency: 0.7
Mode: 2
LetterboxInBreaks: 0
WidescreenStoryboard: 1

[Editor]
Bookmarks: 96477,189175,190445
DistanceSpacing: 1.6
BeatDivisor: 4
GridSize: 16
TimelineZoom: 1.5

[Metadata]
Title:Dark Flight Dreamer
TitleUnicode:Dark Flight Dreamer
Artist:ALiCE'S EMOTiON
ArtistUnicode:ALiCE'S EMOTiON
Creator:Bastian
Version:Bastian & Greaper's Cup
Source:東方花映塚 ~ Phantasmagoria of Flower View.
Tags:jpop j-pop video game japanese nari marisa kirisame redalice ayumi nomiya Kaeidzuka ~ touhou 東方Project View オリエンタルダークフライト Oriental reitaisai 11 release team shanghai alice jorkseljund -vale vale greaper Dako GIGACHAD JBHyperion JBH secre chickenbible wonjae paranoid grapes ZUN 霧雨魔理沙 野宮あゆみ
BeatmapID:2651689
BeatmapSetID:1270628

[Difficulty]
HPDrainRate:2
CircleSize:2.5
OverallDifficulty:6
ApproachRate:6
SliderMultiplier:1.44
SliderTickRate:1

[Events]
//Background and Video events
0,0,"DarkFlightDreamer.jpg",0,0
//Break Periods
2,127153,133522
//Storyboard Layer 0 (Background)
//Storyboard Layer 1 (Fail)
//Storyboard Layer 2 (Pass)
//Storyboard Layer 3 (Foreground)
//Storyboard Layer 4 (Overlay)
//Storyboard Sound Samples

[TimingPoints]
1239,317.460317460317,4,1,1,60,1,0
2508,-100,4,1,1,75,0,0
12667,-100,4,1,1,65,0,0
30286,-100,4,1,1,65,0,0
31080,-100,4,1,1,65,0,0
34254,-100,4,1,1,80,0,1
44096,-100,4,1,1,80,0,0
44413,-100,4,1,1,80,0,1
54254,-100,4,1,1,80,0,0
54572,-100,4,1,1,80,0,1
64731,-100,4,1,1,75,0,0
74889,-100,4,1,1,65,0,0
93461,-100,4,1,1,65,0,0
96477,-100,4,1,1,80,0,1
106318,-100,4,1,1,80,0,0
106635,-100,4,1,1,80,0,1
116477,-100,4,1,1,80,0,0
116794,-100,4,1,1,80,0,1
126953,-100,4,2,1,75,0,0
127112,-100,4,2,1,60,0,0
137112,-100,4,1,1,65,0,0
142191,-100,4,1,1,70,0,0
144731,-100,4,1,1,75,0,0
148540,-100,4,1,1,80,0,1
158381,-100,4,1,1,80,0,0
158699,-100,4,1,1,80,0,1
168540,-100,4,1,1,80,0,0
168858,-100,4,1,1,80,0,1
179016,-100,4,1,1,75,0,0
189175,-100,4,1,1,60,0,0
189810,-100,4,1,1,40,0,0
190445,-100,4,1,1,20,0,0
191080,-100,4,1,1,10,0,0

[Colours]
Combo1 : 255,128,0
Combo2 : 0,232,232
Combo3 : 255,202,17
Combo4 : 255,182,147
Combo5 : 0,128,255
Combo6 : 106,53,53

[HitObjects]
256,192,1239,12,2,2191,0:0:0:0:
387,255,2508,6,0,L|394:98,1,144,6|10,0:0|0:0,0:0:0:0:
253,99,3143,2,0,L|414:92,1,144,2|10,0:0|0:0,0:0:0:0:
315,132,3619,6,0,P|270:152|344:274,1,216,0|10,0:0|0:0,0:0:0:0:
453,263,4413,2,0,L|455:108,1,144,2|10,0:0|0:0,0:0:0:0:
266,95,5048,6,0,L|95:93,1,144,2|10,0:0|0:0,0:0:0:0:
261,127,5683,2,0,P|284:164|234:242,1,144,2|10,0:0|0:0,0:0:0:0:
69,127,6318,6,0,L|208:35,2,144,2|10|2,0:0|0:0|0:0,0:0:0:0:
208,88,7270,1,10,0:0:0:0:
382,78,7588,6,0,P|419:106|377:192,1,144,2|10,0:0|0:0,0:0:0:0:
249,181,8223,2,0,L|425:189,1,144,2|10,0:0|0:0,0:0:0:0:
307,241,8699,6,0,L|77:260,1,216,0|10,0:0|0:0,0:0:0:0:
225,232,9492,2,0,P|261:207|219:129,1,144,2|10,0:0|0:0,0:0:0:0:
59,205,10127,6,0,L|53:40,1,144,2|10,0:0|0:0,0:0:0:0:
210,202,10762,2,0,L|204:37,1,144,2|10,0:0|0:0,0:0:0:0:
122,49,11238,1,6,0:0:0:0:
286,48,11556,5,4,0:0:0:0:
362,51,11714,1,4,0:0:0:0:
439,55,11873,1,4,0:0:0:0:
362,114,12032,2,0,L|361:262,1,144,2|2,0:0|0:0,0:0:0:0:
496,272,12667,6,0,L|237:297,2,216,6|0|2,0:0|0:0|0:0,0:0:0:0:
420,217,13778,6,0,P|351:183|432:91,1,216,0|2,0:0|0:0,0:0:0:0:
260,90,14572,2,0,L|89:78,1,144,2|2,0:0|0:0,0:0:0:0:
200,146,15048,6,0,P|270:215|192:293,1,216,0|2,0:0|0:0,0:0:0:0:
66,310,15842,1,2,0:0:0:0:
206,313,16159,1,2,0:0:0:0:
114,276,16318,6,0,L|104:105,1,144,0|0,0:0|0:0,0:0:0:0:
236,153,16953,2,0,L|32:61,1,216,0|2,0:0|0:0,0:0:0:0:
211,30,17746,6,0,L|366:31,1,144,6|2,0:0|0:0,0:0:0:0:
339,148,18381,1,2,0:0:0:0:
193,156,18699,1,2,0:0:0:0:
289,158,18858,6,0,L|503:237,1,216,0|2,0:0|0:0,0:0:0:0:
324,177,19651,2,0,L|313:30,1,144,2|2,0:0|0:0,0:0:0:0:
398,36,20127,6,0,L|149:36,1,216,0|2,0:0|0:0,0:0:0:0:
311,101,20921,2,0,L|321:259,1,144,2|2,0:0|0:0,0:0:0:0:
134,213,21556,6,0,L|127:307,1,72,6|0,0:0|0:0,0:0:0:0:
264,286,22032,2,0,L|393:222,2,144,2|2|2,0:0|0:0|0:0,0:0:0:0:
173,242,22826,6,0,L|166:163,1,72,6|0,0:0|0:0,0:0:0:0:
285,159,23302,1,2,0:0:0:0:
405,150,23619,1,0,0:0:0:0:
232,122,23937,6,0,P|167:82|245:-9,1,216,2|0,0:0|0:0,0:0:0:0:
379,36,24731,2,0,L|228:32,1,144,2|2,0:0|0:0,0:0:0:0:
410,89,25365,6,0,L|417:177,1,72,6|0,0:0|0:0,0:0:0:0:
293,171,25842,1,2,0:0:0:0:
426,183,26159,1,0,0:0:0:0:
254,217,26477,6,0,L|93:232,1,144,2|2,0:0|0:0,0:0:0:0:
105,296,26953,1,2,0:0:0:0:
252,299,27270,2,0,P|308:240|244:142,1,216,2|2,0:0|0:0,0:0:0:0:
154,136,27905,5,6,0:0:0:0:
328,160,28381,2,0,L|336:12,1,144,0|0,0:0|0:0,0:0:0:0:
161,34,29016,6,0,L|1:24,1,144,2|2,0:0|0:0,0:0:0:0:
171,89,29651,2,0,L|179:244,1,144,2|2,0:0|0:0,0:0:0:0:
13,222,30286,6,0,L|330:47,1,360,6|0,0:0|0:0,0:0:0:0:
192,200,31397,1,0,2:0:0:0:
365,211,31715,6,0,P|423:159|335:68,1,216,2|2,0:0|0:0,0:0:0:0:
209,80,32508,1,2,0:0:0:0:
256,192,32985,12,10,33937,0:0:0:0:
149,113,34254,6,0,L|144:275,1,144,6|10,0:0|0:0,0:0:0:0:
215,273,34731,1,0,0:0:0:0:
359,276,35048,1,0,0:0:0:0:
193,272,35365,6,0,P|116:258|62:195,1,144,0|0,0:0|0:0,0:0:0:0:
144,118,35842,2,0,L|282:33,2,144,10|2|10,0:0|0:0|0:0,0:0:0:0:
320,88,36794,6,0,L|329:252,1,144,2|10,0:0|0:0,0:0:0:0:
253,233,37270,1,0,0:0:0:0:
387,232,37588,1,0,0:0:0:0:
219,264,37905,6,0,L|64:268,1,144,0|0,0:0|0:0,0:0:0:0:
69,197,38381,1,10,0:0:0:0:
215,221,38699,2,0,L|349:145,1,144,2|10,0:0|0:0,0:0:0:0:
181,157,39334,6,0,L|172:5,1,144,6|10,0:0|0:0,0:0:0:0:
241,55,39810,1,0,0:0:0:0:
372,52,40127,1,0,0:0:0:0:
213,119,40445,6,0,L|31:122,1,144,0|0,0:0|0:0,0:0:0:0:
143,181,40921,1,10,0:0:0:0:
283,186,41238,2,0,L|293:331,1,144,2|10,0:0|0:0,0:0:0:0:
224,333,41715,1,0,0:0:0:0:
137,292,41873,6,0,L|306:285,1,144,6|2,0:0|0:0,0:0:0:0:
353,240,42350,2,0,L|358:88,1,144,8|2,0:0|0:0,0:0:0:0:
189,125,42985,6,0,L|347:122,1,144,6|6,0:0|0:0,0:0:0:0:
403,169,43461,1,2,0:0:0:0:
409,242,43619,1,2,0:0:0:0:
347,286,43778,1,6,0:0:0:0:
110,286,44413,6,0,L|299:288,1,144,6|10,0:0|0:0,0:0:0:0:
321,290,44889,1,0,0:0:0:0:
175,230,45207,1,0,0:0:0:0:
347,215,45524,6,0,L|356:46,1,144,0|0,0:0|0:0,0:0:0:0:
285,73,46000,1,10,0:0:0:0:
155,74,46318,2,0,L|309:67,1,144,2|10,0:0|0:0,0:0:0:0:
118,111,46953,6,0,L|104:270,1,144,2|10,0:0|0:0,0:0:0:0:
178,268,47429,1,0,0:0:0:0:
321,288,47746,1,0,0:0:0:0:
144,289,48064,6,0,L|138:118,1,144,0|0,0:0|0:0,0:0:0:0:
215,137,48540,2,0,L|66:51,2,144,10|2|10,0:0|0:0|0:0,0:0:0:0:
386,126,49492,6,0,L|398:271,1,144,6|10,0:0|0:0,0:0:0:0:
325,272,49969,1,0,0:0:0:0:
184,268,50286,1,0,0:0:0:0:
343,230,50604,6,0,L|494:225,1,144,0|0,0:0|0:0,0:0:0:0:
486,162,51080,1,10,0:0:0:0:
345,158,51397,2,0,L|195:154,1,144,2|10,0:0|0:0,0:0:0:0:
206,90,51873,1,0,0:0:0:0:
295,204,52032,6,0,L|309:354,1,144,6|2,0:0|0:0,0:0:0:0:
234,343,52508,1,8,0:0:0:0:
104,338,52826,1,2,0:0:0:0:
277,276,53143,6,0,L|446:271,1,144,6|6,0:0|0:0,0:0:0:0:
349,219,53619,1,2,0:0:0:0:
333,164,53777,1,2,0:0:0:0:
345,99,53936,1,6,0:0:0:0:
91,104,54572,6,0,L|84:260,1,144,6|10,0:0|0:0,0:0:0:0:
216,129,55207,2,0,L|209:285,1,144,2|10,0:0|0:0,0:0:0:0:
48,291,55842,6,0,L|192:290,1,144,2|10,0:0|0:0,0:0:0:0:
315,284,56477,2,0,L|164:289,1,144,2|10,0:0|0:0,0:0:0:0:
348,220,57112,6,0,L|498:208,2,144,2|10|2,0:0|0:0|0:0,0:0:0:0:
208,228,58064,1,10,0:0:0:0:
293,205,58223,6,0,P|355:161|268:63,1,216,0|10,0:0|0:0,0:0:0:0:
153,62,59016,2,0,L|143:220,1,144,2|10,0:0|0:0,0:0:0:0:
215,218,59492,1,0,0:0:0:0:
302,246,59651,6,0,L|16:336,1,288,6|2,0:0|0:0,0:0:0:0:
276,232,60921,6,0,P|343:189|228:42,1,288,2|2,0:0|0:0,0:0:0:0:
120,50,61873,1,2,0:0:0:0:
295,76,62191,6,0,L|474:71,1,144,6|2,0:0|0:0,0:0:0:0:
268,123,62826,2,0,L|96:132,1,144,2|6,0:0|0:0,0:0:0:0:
213,128,63302,6,0,L|358:155,1,144,6|0,0:0|2:0,0:0:0:0:
348,222,63778,1,0,2:0:0:0:
197,247,64096,2,0,L|189:98,1,144,2|2,0:0|0:0,0:0:0:0:
367,211,64731,6,0,L|426:75,1,144,6|10,0:0|0:0,0:0:0:0:
281,175,65365,2,0,L|273:21,1,144,2|10,0:0|0:0,0:0:0:0:
361,39,65842,6,0,L|122:37,1,216,0|10,0:0|0:0,0:0:0:0:
286,113,66635,2,0,L|305:263,1,144,2|10,0:0|0:0,0:0:0:0:
135,254,67270,6,0,P|92:195|149:139,1,144,2|10,0:0|0:0,0:0:0:0:
260,146,67905,2,0,L|117:80,1,144,2|10,0:0|0:0,0:0:0:0:
303,193,68540,5,2,0:0:0:0:
365,222,68698,1,2,0:0:0:0:
362,290,68857,1,10,0:0:0:0:
298,314,69016,1,2,0:0:0:0:
223,321,69175,1,2,0:0:0:0:
372,352,69492,1,10,0:0:0:0:
187,343,69810,6,0,L|181:182,1,144,2|10,0:0|0:0,0:0:0:0:
324,239,70445,2,0,L|316:91,1,144,2|10,0:0|0:0,0:0:0:0:
229,92,70921,6,0,L|11:84,1,216,0|10,0:0|0:0,0:0:0:0:
159,152,71715,2,0,L|182:303,1,144,2|10,0:0|0:0,0:0:0:0:
16,304,72350,6,0,L|163:313,1,144,2|10,0:0|0:0,0:0:0:0:
310,313,72985,2,0,L|318:164,1,144,2|10,0:0|0:0,0:0:0:0:
226,167,73461,6,0,P|175:117|232:58,1,144,6|4,0:0|0:0,0:0:0:0:
280,54,73937,1,4,0:0:0:0:
137,41,74254,1,2,0:0:0:0:
399,92,74889,6,0,L|195:200,1,216,6|0,0:0|0:0,0:0:0:0:
381,184,75842,2,0,L|390:279,1,72,0|0,0:0|0:0,0:0:0:0:
86,228,76794,2,0,L|247:235,1,144,0|0,0:0|0:0,0:0:0:0:
139,177,77270,6,0,P|76:132|166:44,1,216,0|0,0:0|0:0,0:0:0:0:
286,57,78064,2,0,L|115:48,1,144,0|0,0:0|0:0,0:0:0:0:
231,122,78540,6,0,L|381:130,2,144,0|0|0,0:0|0:0|0:0,0:0:0:0:
84,152,79492,2,0,L|78:235,1,72,0|2,0:0|0:0,0:0:0:0:
257,226,79969,6,0,L|435:105,2,216,6|0|2,0:0|0:0|0:0,0:0:0:0:
180,212,81080,6,0,P|124:167|208:68,1,216,0|2,0:0|0:0,0:0:0:0:
332,71,81873,2,0,L|340:227,1,144,2|2,0:0|0:0,0:0:0:0:
251,224,82350,6,0,L|35:243,1,216,0|2,0:0|0:0,0:0:0:0:
170,283,83143,2,0,L|315:289,1,144,2|2,0:0|0:0,0:0:0:0:
142,221,83778,6,0,P|91:189|173:79,1,216,6|2,0:0|0:0,0:0:0:0:
286,73,84572,1,2,0:0:0:0:
151,58,84889,1,2,0:0:0:0:
245,45,85048,6,0,L|470:36,1,216,6|2,0:0|0:0,0:0:0:0:
322,103,85842,1,0,0:0:0:0:
483,107,86159,6,0,L|486:268,1,144,2|0,0:0|0:0,0:0:0:0:
411,264,86635,1,0,0:0:0:0:
278,280,86953,2,0,L|462:291,1,144,2|2,0:0|0:0,0:0:0:0:
243,249,87588,6,0,P|176:217|262:127,1,216,6|2,0:0|0:0,0:0:0:0:
381,121,88381,1,0,0:0:0:0:
207,70,88699,6,0,L|41:59,1,144,2|2,0:0|0:0,0:0:0:0:
54,131,89175,1,2,0:0:0:0:
201,159,89492,2,0,L|374:170,1,144,2|2,0:0|0:0,0:0:0:0:
169,192,90127,6,0,P|101:255|186:352,1,216,6|0,0:0|0:0,0:0:0:0:
297,348,90921,1,0,0:0:0:0:
469,345,91238,6,0,L|466:193,1,144,2|2,0:0|0:0,0:0:0:0:
320,204,91873,2,0,L|479:205,1,144,2|2,0:0|0:0,0:0:0:0:
293,89,92508,6,0,P|174:207|313:291,1,360,6|0,0:0|0:0,0:0:0:0:
430,311,93619,1,0,2:0:0:0:
253,309,93937,6,0,L|80:310,1,144,2|2,0:0|0:0,0:0:0:0:
185,268,94413,2,0,L|196:101,1,144,2|2,0:0|0:0,0:0:0:0:
256,192,95207,12,10,96159,0:0:0:0:
201,332,96477,6,0,P|161:278|231:224,1,144,6|10,0:0|0:0,0:0:0:0:
273,224,96953,1,0,0:0:0:0:
416,224,97270,1,0,0:0:0:0:
242,224,97588,6,0,L|115:148,1,144,0|0,0:0|0:0,0:0:0:0:
190,150,98064,1,10,0:0:0:0:
333,150,98381,1,2,0:0:0:0:
188,150,98699,1,10,0:0:0:0:
360,150,99016,6,0,P|396:78|352:39,1,144,2|10,0:0|0:0,0:0:0:0:
286,40,99492,1,0,0:0:0:0:
430,40,99810,1,0,0:0:0:0:
257,40,100127,6,0,L|118:163,1,144,0|0,0:0|0:0,0:0:0:0:
221,135,100604,1,10,0:0:0:0:
364,135,100921,2,0,L|393:287,1,144,2|10,0:0|0:0,0:0:0:0:
217,276,101556,6,0,L|368:190,1,144,6|10,0:0|0:0,0:0:0:0:
270,204,102032,2,0,P|229:144|277:98,1,144,0|0,0:0|0:0,0:0:0:0:
442,99,102667,6,0,P|440:182|372:205,1,144,0|0,0:0|0:0,0:0:0:0:
320,206,103143,1,10,0:0:0:0:
175,206,103461,1,2,0:0:0:0:
318,206,103778,2,0,L|328:284,1,72,10|0,0:0|0:0,0:0:0:0:
232,277,104096,6,0,P|156:264|145:203,1,144,6|2,0:0|0:0,0:0:0:0:
215,207,104572,1,8,0:0:0:0:
71,207,104889,1,2,0:0:0:0:
258,207,105207,6,0,P|297:127|249:88,1,144,6|6,0:0|0:0,0:0:0:0:
174,94,105683,2,0,L|89:94,2,72,2|2|6,0:0|0:0|0:0,0:0:0:0:
318,94,106318,2,0,L|355:174,1,72,0|0,2:0|2:0,0:0:0:0:
254,159,106635,6,0,P|189:201|190:279,1,144,6|10,0:0|0:0,0:0:0:0:
255,262,107112,2,0,L|395:335,1,144,0|0,0:0|0:0,0:0:0:0:
210,328,107746,6,0,P|166:260|217:224,1,144,0|0,0:0|0:0,0:0:0:0:
274,225,108223,1,10,0:0:0:0:
417,225,108540,1,2,0:0:0:0:
272,225,108858,1,10,0:0:0:0:
444,225,109175,6,0,P|449:147|388:114,1,144,2|10,0:0|0:0,0:0:0:0:
327,114,109651,1,0,0:0:0:0:
471,114,109969,1,0,0:0:0:0:
298,114,110286,6,0,L|162:193,1,144,0|0,0:0|0:0,0:0:0:0:
245,186,110762,2,0,P|281:244|225:306,1,144,10|2,0:0|0:0,0:0:0:0:
99,300,111397,1,10,0:0:0:0:
286,300,111715,6,0,L|390:194,1,144,6|10,0:0|0:0,0:0:0:0:
314,197,112191,1,0,0:0:0:0:
170,197,112508,1,0,0:0:0:0:
343,197,112826,6,0,L|365:50,1,144,0|0,0:0|0:0,0:0:0:0:
292,54,113302,1,10,0:0:0:0:
148,54,113619,2,0,L|273:137,1,144,2|10,0:0|0:0,0:0:0:0:
80,133,114254,6,0,P|75:218|129:244,1,144,6|2,0:0|0:0,0:0:0:0:
190,243,114731,1,8,0:0:0:0:
46,243,115048,1,2,0:0:0:0:
232,243,115365,6,0,P|296:274|314:353,1,144,6|6,0:0|0:0,0:0:0:0:
243,339,115842,2,0,L|152:339,2,72,2|2|6,0:0|0:0|0:0,0:0:0:0:
387,339,116477,2,0,L|405:244,1,72,0|0,2:0|2:0,0:0:0:0:
313,268,116794,6,0,L|166:211,1,144,6|10,0:0|0:0,0:0:0:0:
322,215,117429,2,0,L|356:62,1,144,2|10,0:0|0:0,0:0:0:0:
180,74,118064,6,0,L|143:218,1,144,2|10,0:0|0:0,0:0:0:0:
288,213,118699,2,0,L|413:293,1,144,2|10,0:0|0:0,0:0:0:0:
236,290,119334,1,2,0:0:0:0:
379,290,119651,1,10,0:0:0:0:
234,290,119969,6,0,L|106:211,1,144,2|10,0:0|0:0,0:0:0:0:
183,214,120445,1,0,0:0:0:0:
326,214,120762,1,0,0:0:0:0:
181,214,121080,2,0,P|110:146|210:88,1,216,0|10,0:0|0:0,0:0:0:0:
250,79,121715,1,0,0:0:0:0:
343,79,121873,6,0,P|434:100|417:280,1,288,6|2,0:0|0:0,0:0:0:0:
147,267,123143,2,0,L|373:64,1,288,2|2,0:0|0:0,0:0:0:0:
216,74,124096,1,2,0:0:0:0:
402,74,124413,6,0,P|417:151|371:207,1,144,6|2,0:0|0:0,0:0:0:0:
236,200,125048,2,0,L|350:89,1,144,2|6,0:0|0:0,0:0:0:0:
245,99,125524,6,0,P|163:106|146:233,1,216,6|0,0:0|2:0,0:0:0:0:
281,221,126318,1,2,0:0:0:0:
353,221,126477,2,0,L|353:302,1,72,2|2,0:0|0:0,0:0:0:0:
165,293,126953,5,6,0:0:0:0:
256,192,134572,12,0,136794,0:0:0:0:
419,335,137112,6,0,L|419:257,1,72,6|0,0:0|0:0,0:0:0:0:
346,263,137429,1,2,0:0:0:0:
202,263,137746,2,0,P|194:188|247:137,1,144,2|2,0:0|0:0,0:0:0:0:
324,140,138223,6,0,P|359:228|261:298,1,216,2|2,0:0|0:0,0:0:0:0:
133,297,139016,2,0,L|52:297,2,72,2|2|2,0:0|0:0|0:0,0:0:0:0:
306,297,139651,5,2,0:0:0:0:
378,297,139810,2,0,L|378:211,1,72,0|2,0:0|0:0,0:0:0:0:
233,225,140286,2,0,P|192:157|247:121,1,144,2|2,0:0|0:0,0:0:0:0:
302,122,140762,1,2,0:0:0:0:
388,122,140921,6,0,L|388:238,2,72,2|2|2,0:0|0:0|0:0,0:0:0:0:
243,122,141556,1,2,0:0:0:0:
386,122,141873,1,2,0:0:0:0:
212,122,142191,5,2,0:0:0:0:
139,122,142350,2,0,L|139:208,1,72,2|2,0:0|0:0,0:0:0:0:
283,194,142826,2,0,P|351:233|365:306,1,144,2|2,0:0|0:0,0:0:0:0:
294,292,143302,6,0,L|168:204,1,144,2|2,0:0|0:0,0:0:0:0:
248,209,143778,1,2,0:0:0:0:
392,209,144096,2,0,L|481:209,2,72,2|2|2,0:0|0:0|0:0,0:0:0:0:
256,192,144731,12,2,146635,0:0:0:0:
350,324,147270,5,6,2:0:0:0:
176,324,147588,1,0,2:0:0:0:
348,324,147905,2,0,L|437:324,2,72,2|2|6,0:0|0:0|0:0,0:0:0:0:
174,324,148540,6,0,L|291:218,1,144,6|10,0:0|0:0,0:0:0:0:
208,227,149016,2,0,P|165:153|217:121,1,144,0|0,0:0|0:0,0:0:0:0:
370,123,149651,5,0,0:0:0:0:
225,123,149969,2,0,L|225:203,1,72,0|10,0:0|0:0,0:0:0:0:
369,195,150445,1,2,0:0:0:0:
225,195,150762,1,10,0:0:0:0:
398,195,151080,6,0,P|403:278|345:306,1,144,2|10,0:0|0:0,0:0:0:0:
285,305,151556,1,0,0:0:0:0:
141,305,151873,1,0,0:0:0:0:
314,305,152191,6,0,L|335:157,1,144,0|0,0:0|0:0,0:0:0:0:
262,162,152667,1,10,0:0:0:0:
117,162,152985,1,2,0:0:0:0:
260,162,153302,1,10,0:0:0:0:
73,162,153619,6,0,P|66:84|126:55,1,144,6|10,0:0|0:0,0:0:0:0:
188,54,154096,1,0,0:0:0:0:
44,54,154413,1,0,0:0:0:0:
217,54,154731,6,0,L|367:129,1,144,0|0,0:0|0:0,0:0:0:0:
273,118,155207,1,10,0:0:0:0:
416,118,155524,2,0,P|425:202|366:239,1,144,2|10,0:0|0:0,0:0:0:0:
211,235,156159,6,0,L|323:135,1,144,6|2,0:0|0:0,0:0:0:0:
246,139,156635,2,0,L|193:2,1,144,8|2,0:0|0:0,0:0:0:0:
381,4,157270,6,0,P|414:80|365:121,1,144,6|6,0:0|0:0,0:0:0:0:
284,117,157746,1,2,0:0:0:0:
356,117,157905,1,2,0:0:0:0:
428,117,158064,1,6,0:0:0:0:
284,117,158381,2,0,L|253:200,1,72,0|0,2:0|2:0,0:0:0:0:
353,184,158699,6,0,P|390:259|342:304,1,144,6|10,0:0|0:0,0:0:0:0:
285,298,159175,1,0,0:0:0:0:
428,298,159492,1,0,0:0:0:0:
254,298,159810,6,0,P|177:295|153:228,1,144,0|0,0:0|0:0,0:0:0:0:
223,241,160286,2,0,L|337:143,1,144,10|2,0:0|0:0,0:0:0:0:
187,147,160921,1,10,0:0:0:0:
359,147,161238,6,0,L|386:289,1,144,2|10,0:0|0:0,0:0:0:0:
313,288,161715,1,0,0:0:0:0:
169,288,162032,1,0,0:0:0:0:
342,288,162350,6,0,P|341:211|271:178,1,144,0|0,0:0|0:0,0:0:0:0:
217,178,162826,1,10,0:0:0:0:
73,178,163143,2,0,L|35:34,1,144,2|10,0:0|0:0,0:0:0:0:
209,38,163778,6,0,L|90:141,1,144,6|10,0:0|0:0,0:0:0:0:
172,132,164254,1,0,0:0:0:0:
316,132,164572,1,0,0:0:0:0:
143,132,164889,6,0,P|101:207|148:244,1,144,0|0,0:0|0:0,0:0:0:0:
204,239,165365,1,10,0:0:0:0:
348,239,165683,1,2,0:0:0:0:
204,239,166000,2,0,L|185:163,1,72,10|0,0:0|0:0,0:0:0:0:
280,169,166318,6,0,P|285:93|222:48,1,144,6|2,0:0|0:0,0:0:0:0:
165,51,166794,1,10,0:0:0:0:
309,51,167112,1,2,0:0:0:0:
122,51,167429,6,0,P|86:124|139:170,1,144,6|6,0:0|0:0,0:0:0:0:
214,164,167905,1,2,0:0:0:0:
142,164,168064,1,2,0:0:0:0:
70,164,168223,1,6,0:0:0:0:
213,164,168540,2,0,L|257:246,1,72,0|0,2:0|2:0,0:0:0:0:
152,227,168858,6,0,P|117:302|161:350,1,144,6|10,0:0|0:0,0:0:0:0:
292,344,169492,2,0,L|410:222,1,144,2|10,0:0|0:0,0:0:0:0:
247,240,170127,6,0,L|146:125,1,144,2|10,0:0|0:0,0:0:0:0:
294,67,170762,2,0,L|174:173,1,144,2|10,0:0|0:0,0:0:0:0:
359,162,171397,5,2,0:0:0:0:
214,162,171715,1,10,0:0:0:0:
357,162,172032,2,0,L|390:308,1,144,2|10,0:0|0:0,0:0:0:0:
316,302,172508,5,0,0:0:0:0:
171,302,172826,1,0,0:0:0:0:
314,302,173143,2,0,P|382:251|301:173,1,216,0|10,0:0|0:0,0:0:0:0:
239,171,173778,1,0,0:0:0:0:
146,171,173937,6,0,P|55:192|101:375,1,288,6|2,0:0|0:0,0:0:0:0:
342,359,175207,2,0,L|116:156,1,288,2|2,0:0|0:0,0:0:0:0:
272,166,176159,1,2,0:0:0:0:
84,166,176477,6,0,P|56:95|103:55,1,144,6|2,0:0|0:0,0:0:0:0:
243,55,177112,2,0,L|363:141,1,144,2|6,0:0|0:0,0:0:0:0:
266,138,177588,6,0,P|188:156|185:284,1,216,6|0,0:0|2:0,0:0:0:0:
321,275,178381,1,2,0:0:0:0:
393,275,178540,2,0,L|393:363,1,72,2|2,0:0|0:0,0:0:0:0:
205,347,179016,6,0,L|115:347,2,72,6|0|10,0:0|0:0|0:0,0:0:0:0:
349,347,179651,2,0,P|369:262|333:220,1,144,2|10,0:0|0:0,0:0:0:0:
250,222,180127,6,0,P|178:204|168:76,1,216,0|10,0:0|0:0,0:0:0:0:
309,79,180921,1,2,0:0:0:0:
165,79,181238,1,10,0:0:0:0:
338,79,181556,6,0,L|418:79,2,72,2|0|10,0:0|0:0|0:0,0:0:0:0:
193,79,182191,2,0,P|161:155|205:202,1,144,2|10,0:0|0:0,0:0:0:0:
266,197,182667,1,0,0:0:0:0:
352,197,182826,6,0,L|352:280,2,72,2|2|10,0:0|0:0|0:0,0:0:0:0:
207,197,183461,1,2,0:0:0:0:
350,197,183778,2,0,L|371:273,1,72,10|2,0:0|0:0,0:0:0:0:
282,266,184096,6,0,L|188:266,2,72,2|0|10,0:0|0:0|0:0,0:0:0:0:
426,266,184731,2,0,P|467:206|411:158,1,144,2|10,0:0|0:0,0:0:0:0:
354,159,185207,6,0,P|430:160|485:39,1,216,0|10,0:0|0:0,0:0:0:0:
343,47,186000,2,0,L|204:142,1,144,2|10,0:0|0:0,0:0:0:0:
397,128,186635,6,0,P|485:249|283:322,1,432,2|10,0:0|0:0,0:0:0:0:
190,323,187746,5,6,0:0:0:0:
377,323,188064,2,0,L|392:221,1,72,4|4,0:0|0:0,0:0:0:0:
302,251,188381,1,4,0:0:0:0:
386,251,188540,5,6,0:0:0:0:
256,192,189175,12,0,191715,0:0:0:0:
