osu file format v14

[General]
AudioFilename: audio.mp3
AudioLeadIn: 0
PreviewTime: 208427
Countdown: 0
SampleSet: None
StackLeniency: 0.7
Mode: 3
LetterboxInBreaks: 0
SpecialStyle: 0
WidescreenStoryboard: 1

[Editor]
DistanceSpacing: 0.5
BeatDivisor: 4
GridSize: 8
TimelineZoom: 2

[Metadata]
Title:Boom Boom Taoismic
TitleUnicode:Boom Boom Taoismic
Artist:ALiCE'S EMOTiON
ArtistUnicode:ALiCE'S EMOTiON
Creator:KH_Supernova
Version:Expert - Lv.24
Source:東方Project
Tags:Ghost Region Remix t+pazolite Seiga Kaku Rizna リズナ 古きユアンシェン 東方神霊廟 RHYTHM_SPOON MINAMOTRANCE C.H.S Old Distant Hermit Gu Yuan Xian Miruyuana Danmaku C81 Comiket 81 東方Project Touhou
BeatmapID:1391372
BeatmapSetID:656785

[Difficulty]
HPDrainRate:8.5
CircleSize:4
OverallDifficulty:8.5
ApproachRate:5
SliderMultiplier:1.4
SliderTickRate:1

[Events]
//Background and Video events
0,0,"alice's emotion.png",0,0
//Break Periods
//Storyboard Layer 0 (Background)
//Storyboard Layer 1 (Fail)
//Storyboard Layer 2 (Pass)
//Storyboard Layer 3 (Foreground)
//Storyboard Sound Samples

[TimingPoints]
227,342.857142857143,4,1,0,5,1,0
77027,-100,4,1,0,5,0,1
86455,-100,4,1,0,5,0,0
87998,-100,4,1,0,5,0,1
98284,-100,4,1,0,5,0,0
98969,-100,4,1,0,5,0,1
109941,-100,4,1,0,5,0,0
142855,-100,4,1,0,5,0,1
152284,-100,4,1,0,5,0,0
153827,-100,4,1,0,5,0,1
164112,-100,4,1,0,5,0,0
219655,-100,4,1,0,5,0,1
229084,-100,4,1,0,5,0,0
230627,-100,4,1,0,5,0,1
240912,-100,4,1,0,5,0,0
241598,-100,4,1,0,5,0,1
251198,-100,4,1,0,5,0,0
252569,-100,4,1,0,5,0,1
263541,-100,4,1,0,5,0,0

[HitObjects]
64,192,227,5,0,0:0:0:0:
448,192,227,1,0,0:0:0:0:
320,192,227,1,0,0:0:0:0:
192,192,398,1,0,0:0:0:0:
64,192,569,1,0,0:0:0:0:
320,192,569,1,0,0:0:0:0:
448,192,741,1,0,0:0:0:0:
192,192,912,1,0,0:0:0:0:
64,192,912,1,0,0:0:0:0:
448,192,1084,1,0,0:0:0:0:
192,192,1169,1,0,0:0:0:0:
64,192,1169,1,0,0:0:0:0:
320,192,1255,1,0,0:0:0:0:
448,192,1255,1,0,0:0:0:0:
192,192,1427,128,0,1598:0:0:0:0:
64,192,1427,128,0,1598:0:0:0:0:
320,192,1598,1,0,0:0:0:0:
448,192,1598,1,0,0:0:0:0:
192,192,1684,1,0,0:0:0:0:
64,192,1769,1,0,0:0:0:0:
448,192,1769,1,0,0:0:0:0:
320,192,1941,1,0,0:0:0:0:
192,192,1941,1,0,0:0:0:0:
64,192,2112,1,0,0:0:0:0:
320,192,2284,1,0,0:0:0:0:
448,192,2284,1,0,0:0:0:0:
192,192,2369,1,0,0:0:0:0:
64,192,2455,1,0,0:0:0:0:
448,192,2455,1,0,0:0:0:0:
192,192,2627,1,0,0:0:0:0:
320,192,2627,1,0,0:0:0:0:
64,192,2798,1,0,0:0:0:0:
320,192,2969,1,0,0:0:0:0:
448,192,2969,1,0,0:0:0:0:
192,192,3055,1,0,0:0:0:0:
64,192,3141,1,0,0:0:0:0:
448,192,3141,1,0,0:0:0:0:
320,192,3312,1,0,0:0:0:0:
192,192,3312,1,0,0:0:0:0:
64,192,3484,1,0,0:0:0:0:
320,192,3655,1,0,0:0:0:0:
448,192,3655,1,0,0:0:0:0:
192,192,3741,1,0,0:0:0:0:
64,192,3827,1,0,0:0:0:0:
448,192,3827,1,0,0:0:0:0:
320,192,3998,1,0,0:0:0:0:
192,192,3998,1,0,0:0:0:0:
64,192,4169,128,0,4341:0:0:0:0:
448,192,4169,128,0,4341:0:0:0:0:
320,192,4341,1,0,0:0:0:0:
192,192,4341,1,0,0:0:0:0:
64,192,4427,1,0,0:0:0:0:
320,192,4512,1,0,0:0:0:0:
448,192,4512,1,0,0:0:0:0:
192,192,4684,1,0,0:0:0:0:
64,192,4684,1,0,0:0:0:0:
448,192,4855,1,0,0:0:0:0:
320,192,5027,1,0,0:0:0:0:
192,192,5027,1,0,0:0:0:0:
64,192,5112,1,0,0:0:0:0:
320,192,5198,1,0,0:0:0:0:
448,192,5198,1,0,0:0:0:0:
192,192,5369,1,0,0:0:0:0:
64,192,5369,1,0,0:0:0:0:
448,192,5455,1,0,0:0:0:0:
320,192,5541,1,0,0:0:0:0:
320,192,5627,1,0,0:0:0:0:
448,192,5712,1,0,0:0:0:0:
64,192,5712,1,0,0:0:0:0:
320,192,5884,1,0,0:0:0:0:
448,192,6055,1,0,0:0:0:0:
192,192,6055,1,0,0:0:0:0:
64,192,6227,1,0,0:0:0:0:
320,192,6398,1,0,0:0:0:0:
448,192,6398,1,0,0:0:0:0:
64,192,6569,1,0,0:0:0:0:
320,192,6655,1,0,0:0:0:0:
448,192,6655,1,0,0:0:0:0:
192,192,6741,1,0,0:0:0:0:
64,192,6741,1,0,0:0:0:0:
320,192,6912,128,0,7084:0:0:0:0:
448,192,6912,128,0,7084:0:0:0:0:
192,192,7084,1,0,0:0:0:0:
64,192,7084,1,0,0:0:0:0:
320,192,7169,1,0,0:0:0:0:
448,192,7255,1,0,0:0:0:0:
64,192,7255,1,0,0:0:0:0:
192,192,7427,1,0,0:0:0:0:
320,192,7427,1,0,0:0:0:0:
448,192,7598,1,0,0:0:0:0:
192,192,7769,1,0,0:0:0:0:
64,192,7769,1,0,0:0:0:0:
320,192,7855,1,0,0:0:0:0:
448,192,7941,1,0,0:0:0:0:
64,192,7941,1,0,0:0:0:0:
320,192,8112,1,0,0:0:0:0:
192,192,8112,1,0,0:0:0:0:
448,192,8284,1,0,0:0:0:0:
320,192,8455,1,0,0:0:0:0:
64,192,8455,1,0,0:0:0:0:
192,192,8627,1,0,0:0:0:0:
448,192,8798,1,0,0:0:0:0:
64,192,8798,1,0,0:0:0:0:
320,192,8969,1,0,0:0:0:0:
192,192,9141,1,0,0:0:0:0:
64,192,9141,1,0,0:0:0:0:
448,192,9312,1,0,0:0:0:0:
192,192,9398,1,0,0:0:0:0:
64,192,9398,1,0,0:0:0:0:
320,192,9484,1,0,0:0:0:0:
448,192,9484,1,0,0:0:0:0:
192,192,9655,128,0,9827:0:0:0:0:
64,192,9655,128,0,9827:0:0:0:0:
448,192,9827,1,0,0:0:0:0:
320,192,9827,1,0,0:0:0:0:
64,192,9998,1,0,0:0:0:0:
192,192,10169,1,0,0:0:0:0:
448,192,10169,1,0,0:0:0:0:
320,192,10341,1,0,0:0:0:0:
448,192,10512,1,0,0:0:0:0:
64,192,10512,1,0,0:0:0:0:
320,192,10684,1,0,0:0:0:0:
192,192,10684,1,0,0:0:0:0:
64,192,10769,1,0,0:0:0:0:
448,192,10769,1,0,0:0:0:0:
320,192,10855,1,0,0:0:0:0:
192,192,10855,1,0,0:0:0:0:
64,192,11027,1,0,0:0:0:0:
448,192,11027,1,0,0:0:0:0:
320,192,11112,1,0,0:0:0:0:
192,192,11112,1,0,0:0:0:0:
448,192,11198,1,0,0:0:0:0:
192,192,11198,1,0,0:0:0:0:
64,192,11198,1,0,0:0:0:0:
320,192,11284,1,0,0:0:0:0:
448,192,11284,1,0,0:0:0:0:
192,192,11369,1,0,0:0:0:0:
64,192,11369,1,0,0:0:0:0:
320,192,11455,1,0,0:0:0:0:
448,192,11455,1,0,0:0:0:0:
192,192,11541,1,0,0:0:0:0:
64,192,11541,1,0,0:0:0:0:
320,192,11712,1,0,0:0:0:0:
448,192,11712,1,0,0:0:0:0:
192,192,11798,1,0,0:0:0:0:
64,192,11798,1,0,0:0:0:0:
320,192,11969,1,0,0:0:0:0:
448,192,11969,1,0,0:0:0:0:
192,192,12055,1,0,0:0:0:0:
64,192,12055,1,0,0:0:0:0:
64,192,12227,1,0,0:0:0:0:
448,192,12227,1,0,0:0:0:0:
320,192,12398,1,0,0:0:0:0:
192,192,12398,1,0,0:0:0:0:
64,192,12569,1,0,0:0:0:0:
448,192,12569,1,0,0:0:0:0:
192,192,12741,1,0,0:0:0:0:
320,192,12741,1,0,0:0:0:0:
448,192,12827,1,0,0:0:0:0:
64,192,12827,1,0,0:0:0:0:
192,192,12998,1,0,0:0:0:0:
320,192,12998,1,0,0:0:0:0:
448,192,13084,1,0,0:0:0:0:
64,192,13084,1,0,0:0:0:0:
192,192,13255,1,0,0:0:0:0:
320,192,13341,1,0,0:0:0:0:
192,192,13427,1,0,0:0:0:0:
320,192,13512,1,0,0:0:0:0:
448,192,13598,1,0,0:0:0:0:
64,192,13598,1,0,0:0:0:0:
320,192,13769,1,0,0:0:0:0:
320,192,13855,1,0,0:0:0:0:
64,192,13941,1,0,0:0:0:0:
448,192,13941,1,0,0:0:0:0:
192,192,14027,1,0,0:0:0:0:
320,192,14112,1,0,0:0:0:0:
192,192,14198,1,0,0:0:0:0:
448,192,14284,1,0,0:0:0:0:
64,192,14284,1,0,0:0:0:0:
320,192,14455,1,0,0:0:0:0:
192,192,14627,1,0,0:0:0:0:
64,192,14798,1,0,0:0:0:0:
448,192,14798,1,0,0:0:0:0:
320,192,14969,1,0,0:0:0:0:
448,192,14969,1,0,0:0:0:0:
192,192,15055,1,0,0:0:0:0:
64,192,15055,1,0,0:0:0:0:
320,192,15141,1,0,0:0:0:0:
448,192,15141,1,0,0:0:0:0:
192,192,15227,1,0,0:0:0:0:
64,192,15227,1,0,0:0:0:0:
320,192,15312,1,0,0:0:0:0:
448,192,15312,1,0,0:0:0:0:
192,192,15484,1,0,0:0:0:0:
64,192,15484,1,0,0:0:0:0:
320,192,15569,1,0,0:0:0:0:
448,192,15569,1,0,0:0:0:0:
192,192,15741,1,0,0:0:0:0:
64,192,15741,1,0,0:0:0:0:
320,192,15827,1,0,0:0:0:0:
448,192,15827,1,0,0:0:0:0:
192,192,15912,1,0,0:0:0:0:
64,192,15912,1,0,0:0:0:0:
320,192,15998,1,0,0:0:0:0:
448,192,15998,1,0,0:0:0:0:
192,192,16084,1,0,0:0:0:0:
64,192,16169,1,0,0:0:0:0:
192,192,16255,1,0,0:0:0:0:
64,192,16341,1,0,0:0:0:0:
448,192,16341,1,0,0:0:0:0:
320,192,16512,1,0,0:0:0:0:
192,192,16512,1,0,0:0:0:0:
320,192,16684,1,0,0:0:0:0:
448,192,16684,1,0,0:0:0:0:
192,192,16769,1,0,0:0:0:0:
64,192,16769,1,0,0:0:0:0:
320,192,16855,1,0,0:0:0:0:
448,192,16855,1,0,0:0:0:0:
192,192,16941,1,0,0:0:0:0:
64,192,16941,1,0,0:0:0:0:
320,192,17027,1,0,0:0:0:0:
448,192,17027,1,0,0:0:0:0:
192,192,17198,1,0,0:0:0:0:
64,192,17198,1,0,0:0:0:0:
320,192,17284,1,0,0:0:0:0:
448,192,17284,1,0,0:0:0:0:
192,192,17455,1,0,0:0:0:0:
64,192,17455,1,0,0:0:0:0:
320,192,17541,1,0,0:0:0:0:
448,192,17541,1,0,0:0:0:0:
448,192,17712,1,0,0:0:0:0:
64,192,17712,1,0,0:0:0:0:
192,192,17884,1,0,0:0:0:0:
320,192,17884,1,0,0:0:0:0:
448,192,18055,1,0,0:0:0:0:
64,192,18055,1,0,0:0:0:0:
320,192,18227,1,0,0:0:0:0:
192,192,18227,1,0,0:0:0:0:
64,192,18312,1,0,0:0:0:0:
448,192,18312,1,0,0:0:0:0:
320,192,18484,1,0,0:0:0:0:
192,192,18484,1,0,0:0:0:0:
64,192,18569,1,0,0:0:0:0:
448,192,18569,1,0,0:0:0:0:
320,192,18741,1,0,0:0:0:0:
192,192,18827,1,0,0:0:0:0:
320,192,18912,1,0,0:0:0:0:
192,192,18998,1,0,0:0:0:0:
64,192,19084,1,0,0:0:0:0:
448,192,19084,1,0,0:0:0:0:
192,192,19255,1,0,0:0:0:0:
192,192,19341,1,0,0:0:0:0:
448,192,19427,1,0,0:0:0:0:
64,192,19427,1,0,0:0:0:0:
320,192,19512,1,0,0:0:0:0:
192,192,19598,1,0,0:0:0:0:
320,192,19684,1,0,0:0:0:0:
64,192,19769,1,0,0:0:0:0:
448,192,19769,1,0,0:0:0:0:
192,192,19941,1,0,0:0:0:0:
320,192,20112,1,0,0:0:0:0:
448,192,20284,1,0,0:0:0:0:
64,192,20284,1,0,0:0:0:0:
192,192,20455,1,0,0:0:0:0:
64,192,20455,1,0,0:0:0:0:
320,192,20541,1,0,0:0:0:0:
448,192,20541,1,0,0:0:0:0:
192,192,20627,1,0,0:0:0:0:
64,192,20627,1,0,0:0:0:0:
320,192,20712,1,0,0:0:0:0:
448,192,20712,1,0,0:0:0:0:
192,192,20798,1,0,0:0:0:0:
64,192,20798,1,0,0:0:0:0:
320,192,20969,1,0,0:0:0:0:
448,192,20969,1,0,0:0:0:0:
192,192,21055,1,0,0:0:0:0:
64,192,21055,1,0,0:0:0:0:
320,192,21227,1,0,0:0:0:0:
448,192,21227,1,0,0:0:0:0:
192,192,21312,1,0,0:0:0:0:
64,192,21312,1,0,0:0:0:0:
320,192,21398,1,0,0:0:0:0:
448,192,21398,1,0,0:0:0:0:
64,192,21484,1,0,0:0:0:0:
192,192,21527,1,0,0:0:0:0:
448,192,21569,1,0,0:0:0:0:
320,192,21612,1,0,0:0:0:0:
64,192,21655,1,0,0:0:0:0:
192,192,21698,1,0,0:0:0:0:
448,192,21741,1,0,0:0:0:0:
320,192,21784,1,0,0:0:0:0:
192,192,21827,1,0,0:0:0:0:
64,192,21827,1,0,0:0:0:0:
448,192,21869,1,0,0:0:0:0:
320,192,21912,1,0,0:0:0:0:
192,192,21955,1,0,0:0:0:0:
64,192,21998,1,0,0:0:0:0:
448,192,22041,1,0,0:0:0:0:
320,192,22084,1,0,0:0:0:0:
192,192,22127,1,0,0:0:0:0:
448,192,22169,1,0,0:0:0:0:
64,192,22169,1,0,0:0:0:0:
192,192,22341,1,0,0:0:0:0:
448,192,22341,1,0,0:0:0:0:
320,192,22427,1,0,0:0:0:0:
64,192,22427,1,0,0:0:0:0:
192,192,22512,1,0,0:0:0:0:
64,192,22512,1,0,0:0:0:0:
448,192,22512,1,0,0:0:0:0:
320,192,22684,1,0,0:0:0:0:
64,192,22684,1,0,0:0:0:0:
448,192,22769,1,0,0:0:0:0:
192,192,22769,1,0,0:0:0:0:
320,192,22855,1,0,0:0:0:0:
448,192,22855,1,0,0:0:0:0:
64,192,22855,1,0,0:0:0:0:
448,192,23027,1,0,0:0:0:0:
192,192,23027,1,0,0:0:0:0:
320,192,23112,1,0,0:0:0:0:
64,192,23112,1,0,0:0:0:0:
192,192,23198,1,0,0:0:0:0:
64,192,23198,1,0,0:0:0:0:
448,192,23198,1,0,0:0:0:0:
320,192,23369,1,0,0:0:0:0:
448,192,23369,1,0,0:0:0:0:
192,192,23455,1,0,0:0:0:0:
64,192,23455,1,0,0:0:0:0:
320,192,23541,1,0,0:0:0:0:
448,192,23541,1,0,0:0:0:0:
64,192,23541,1,0,0:0:0:0:
192,192,23712,1,0,0:0:0:0:
64,192,23712,1,0,0:0:0:0:
320,192,23798,1,0,0:0:0:0:
448,192,23798,1,0,0:0:0:0:
448,192,23884,1,0,0:0:0:0:
192,192,23884,1,0,0:0:0:0:
64,192,23884,1,0,0:0:0:0:
320,192,24055,1,0,0:0:0:0:
448,192,24055,1,0,0:0:0:0:
192,192,24141,1,0,0:0:0:0:
64,192,24141,1,0,0:0:0:0:
64,192,24227,1,0,0:0:0:0:
320,192,24227,1,0,0:0:0:0:
448,192,24227,1,0,0:0:0:0:
192,192,24398,1,0,0:0:0:0:
64,192,24398,1,0,0:0:0:0:
320,192,24484,1,0,0:0:0:0:
448,192,24484,1,0,0:0:0:0:
448,192,24569,1,0,0:0:0:0:
192,192,24569,1,0,0:0:0:0:
64,192,24569,1,0,0:0:0:0:
192,192,24741,1,0,0:0:0:0:
320,192,24741,1,0,0:0:0:0:
448,192,24827,1,0,0:0:0:0:
64,192,24827,1,0,0:0:0:0:
192,192,24912,1,0,0:0:0:0:
320,192,24912,1,0,0:0:0:0:
448,192,24912,1,0,0:0:0:0:
64,192,25084,1,0,0:0:0:0:
448,192,25084,1,0,0:0:0:0:
192,192,25169,1,0,0:0:0:0:
320,192,25169,1,0,0:0:0:0:
192,192,25255,1,0,0:0:0:0:
64,192,25255,1,0,0:0:0:0:
448,192,25255,1,0,0:0:0:0:
192,192,25427,1,0,0:0:0:0:
320,192,25427,1,0,0:0:0:0:
448,192,25512,1,0,0:0:0:0:
64,192,25512,1,0,0:0:0:0:
320,192,25598,1,0,0:0:0:0:
192,192,25598,1,0,0:0:0:0:
64,192,25598,1,0,0:0:0:0:
448,192,25769,1,0,0:0:0:0:
64,192,25769,1,0,0:0:0:0:
320,192,25855,1,0,0:0:0:0:
192,192,25855,1,0,0:0:0:0:
320,192,25941,1,0,0:0:0:0:
448,192,25941,1,0,0:0:0:0:
64,192,25941,1,0,0:0:0:0:
192,192,26112,1,0,0:0:0:0:
448,192,26112,1,0,0:0:0:0:
320,192,26198,1,0,0:0:0:0:
64,192,26198,1,0,0:0:0:0:
192,192,26284,1,0,0:0:0:0:
64,192,26284,1,0,0:0:0:0:
448,192,26284,1,0,0:0:0:0:
320,192,26369,1,0,0:0:0:0:
448,192,26369,1,0,0:0:0:0:
192,192,26455,1,0,0:0:0:0:
64,192,26455,1,0,0:0:0:0:
320,192,26541,1,0,0:0:0:0:
448,192,26541,1,0,0:0:0:0:
192,192,26627,1,0,0:0:0:0:
64,192,26627,1,0,0:0:0:0:
320,192,26798,1,0,0:0:0:0:
448,192,26798,1,0,0:0:0:0:
192,192,26884,1,0,0:0:0:0:
64,192,26884,1,0,0:0:0:0:
320,192,27055,1,0,0:0:0:0:
448,192,27055,1,0,0:0:0:0:
192,192,27141,1,0,0:0:0:0:
64,192,27141,1,0,0:0:0:0:
320,192,27312,1,0,0:0:0:0:
448,192,27312,1,0,0:0:0:0:
64,192,27312,1,0,0:0:0:0:
192,192,27484,1,0,0:0:0:0:
320,192,27484,1,0,0:0:0:0:
192,192,27655,1,0,0:0:0:0:
64,192,27655,1,0,0:0:0:0:
448,192,27655,1,0,0:0:0:0:
320,192,27827,1,0,0:0:0:0:
448,192,27827,1,0,0:0:0:0:
192,192,27912,1,0,0:0:0:0:
64,192,27912,1,0,0:0:0:0:
320,192,27998,1,0,0:0:0:0:
448,192,27998,1,0,0:0:0:0:
64,192,27998,1,0,0:0:0:0:
192,192,28169,1,0,0:0:0:0:
64,192,28169,1,0,0:0:0:0:
320,192,28255,1,0,0:0:0:0:
448,192,28255,1,0,0:0:0:0:
64,192,28341,1,0,0:0:0:0:
192,192,28341,1,0,0:0:0:0:
448,192,28341,1,0,0:0:0:0:
320,192,28512,1,0,0:0:0:0:
448,192,28512,1,0,0:0:0:0:
192,192,28598,1,0,0:0:0:0:
64,192,28598,1,0,0:0:0:0:
320,192,28684,1,0,0:0:0:0:
448,192,28684,1,0,0:0:0:0:
64,192,28684,1,0,0:0:0:0:
192,192,28855,1,0,0:0:0:0:
448,192,28855,1,0,0:0:0:0:
320,192,28941,1,0,0:0:0:0:
64,192,28941,1,0,0:0:0:0:
192,192,29027,1,0,0:0:0:0:
320,192,29027,1,0,0:0:0:0:
448,192,29027,1,0,0:0:0:0:
64,192,29198,1,0,0:0:0:0:
320,192,29198,1,0,0:0:0:0:
192,192,29284,1,0,0:0:0:0:
448,192,29284,1,0,0:0:0:0:
320,192,29369,1,0,0:0:0:0:
192,192,29369,1,0,0:0:0:0:
64,192,29369,1,0,0:0:0:0:
448,192,29541,1,0,0:0:0:0:
192,192,29541,1,0,0:0:0:0:
64,192,29627,1,0,0:0:0:0:
320,192,29627,1,0,0:0:0:0:
192,192,29712,1,0,0:0:0:0:
320,192,29712,1,0,0:0:0:0:
448,192,29712,1,0,0:0:0:0:
64,192,29884,1,0,0:0:0:0:
320,192,29884,1,0,0:0:0:0:
192,192,29969,1,0,0:0:0:0:
448,192,29969,1,0,0:0:0:0:
320,192,30055,1,0,0:0:0:0:
192,192,30055,1,0,0:0:0:0:
64,192,30055,1,0,0:0:0:0:
448,192,30227,1,0,0:0:0:0:
64,192,30227,1,0,0:0:0:0:
192,192,30312,1,0,0:0:0:0:
320,192,30312,1,0,0:0:0:0:
320,192,30398,1,0,0:0:0:0:
448,192,30398,1,0,0:0:0:0:
64,192,30398,1,0,0:0:0:0:
192,192,30569,1,0,0:0:0:0:
320,192,30569,1,0,0:0:0:0:
64,192,30655,1,0,0:0:0:0:
448,192,30655,1,0,0:0:0:0:
192,192,30741,1,0,0:0:0:0:
320,192,30741,1,0,0:0:0:0:
64,192,30741,1,0,0:0:0:0:
64,192,30912,1,0,0:0:0:0:
448,192,30912,1,0,0:0:0:0:
192,192,30998,1,0,0:0:0:0:
320,192,30998,1,0,0:0:0:0:
192,192,31084,1,0,0:0:0:0:
448,192,31084,1,0,0:0:0:0:
64,192,31084,1,0,0:0:0:0:
192,192,31255,1,0,0:0:0:0:
320,192,31255,1,0,0:0:0:0:
448,192,31341,1,0,0:0:0:0:
64,192,31341,1,0,0:0:0:0:
192,192,31427,1,0,0:0:0:0:
320,192,31427,1,0,0:0:0:0:
448,192,31427,1,0,0:0:0:0:
320,192,31598,1,0,0:0:0:0:
448,192,31598,1,0,0:0:0:0:
192,192,31684,1,0,0:0:0:0:
64,192,31684,1,0,0:0:0:0:
64,192,31769,1,0,0:0:0:0:
320,192,31769,1,0,0:0:0:0:
448,192,31769,1,0,0:0:0:0:
192,192,31941,1,0,0:0:0:0:
320,192,31941,1,0,0:0:0:0:
448,192,32027,1,0,0:0:0:0:
64,192,32027,1,0,0:0:0:0:
192,192,32198,1,0,0:0:0:0:
320,192,32198,1,0,0:0:0:0:
448,192,32284,1,0,0:0:0:0:
64,192,32284,1,0,0:0:0:0:
320,192,32455,1,0,0:0:0:0:
192,192,32455,1,0,0:0:0:0:
64,192,32541,1,0,0:0:0:0:
320,192,32627,1,0,0:0:0:0:
192,192,32627,1,0,0:0:0:0:
448,192,32712,1,0,0:0:0:0:
320,192,32798,1,0,0:0:0:0:
192,192,32798,1,0,0:0:0:0:
64,192,32798,1,0,0:0:0:0:
448,192,32884,1,0,0:0:0:0:
192,192,32969,1,0,0:0:0:0:
192,192,33055,1,0,0:0:0:0:
320,192,33141,1,0,0:0:0:0:
448,192,33141,1,0,0:0:0:0:
64,192,33141,1,0,0:0:0:0:
192,192,33312,1,0,0:0:0:0:
64,192,33312,1,0,0:0:0:0:
320,192,33398,1,0,0:0:0:0:
448,192,33398,1,0,0:0:0:0:
192,192,33484,1,0,0:0:0:0:
64,192,33484,1,0,0:0:0:0:
448,192,33484,1,0,0:0:0:0:
320,192,33655,1,0,0:0:0:0:
448,192,33655,1,0,0:0:0:0:
192,192,33741,1,0,0:0:0:0:
64,192,33741,1,0,0:0:0:0:
320,192,33827,1,0,0:0:0:0:
448,192,33827,1,0,0:0:0:0:
64,192,33827,1,0,0:0:0:0:
192,192,33912,1,0,0:0:0:0:
448,192,33998,1,0,0:0:0:0:
64,192,33998,1,0,0:0:0:0:
192,192,34084,1,0,0:0:0:0:
320,192,34084,1,0,0:0:0:0:
192,192,34169,1,0,0:0:0:0:
448,192,34169,1,0,0:0:0:0:
64,192,34169,1,0,0:0:0:0:
320,192,34341,1,0,0:0:0:0:
64,192,34341,1,0,0:0:0:0:
192,192,34427,1,0,0:0:0:0:
448,192,34427,1,0,0:0:0:0:
320,192,34512,1,0,0:0:0:0:
448,192,34512,1,0,0:0:0:0:
64,192,34512,1,0,0:0:0:0:
448,192,34684,1,0,0:0:0:0:
192,192,34684,1,0,0:0:0:0:
320,192,34769,1,0,0:0:0:0:
64,192,34769,1,0,0:0:0:0:
192,192,34855,1,0,0:0:0:0:
64,192,34855,1,0,0:0:0:0:
448,192,34855,1,0,0:0:0:0:
64,192,35027,1,0,0:0:0:0:
320,192,35027,1,0,0:0:0:0:
192,192,35112,1,0,0:0:0:0:
448,192,35112,1,0,0:0:0:0:
320,192,35198,1,0,0:0:0:0:
448,192,35198,1,0,0:0:0:0:
64,192,35198,1,0,0:0:0:0:
192,192,35284,1,0,0:0:0:0:
448,192,35369,1,0,0:0:0:0:
64,192,35369,1,0,0:0:0:0:
192,192,35455,1,0,0:0:0:0:
320,192,35455,1,0,0:0:0:0:
192,192,35541,1,0,0:0:0:0:
64,192,35541,1,0,0:0:0:0:
448,192,35541,1,0,0:0:0:0:
320,192,35712,1,0,0:0:0:0:
448,192,35712,1,0,0:0:0:0:
192,192,35798,1,0,0:0:0:0:
64,192,35798,1,0,0:0:0:0:
192,192,35884,1,0,0:0:0:0:
320,192,35884,1,0,0:0:0:0:
448,192,35884,1,0,0:0:0:0:
64,192,36055,1,0,0:0:0:0:
192,192,36055,1,0,0:0:0:0:
320,192,36141,1,0,0:0:0:0:
448,192,36141,1,0,0:0:0:0:
320,192,36227,1,0,0:0:0:0:
64,192,36227,1,0,0:0:0:0:
192,192,36227,1,0,0:0:0:0:
448,192,36398,1,0,0:0:0:0:
320,192,36398,1,0,0:0:0:0:
192,192,36484,1,0,0:0:0:0:
64,192,36484,1,0,0:0:0:0:
192,192,36569,1,0,0:0:0:0:
320,192,36569,1,0,0:0:0:0:
448,192,36569,1,0,0:0:0:0:
64,192,36655,1,0,0:0:0:0:
192,192,36741,1,0,0:0:0:0:
448,192,36741,1,0,0:0:0:0:
320,192,36827,1,0,0:0:0:0:
64,192,36827,1,0,0:0:0:0:
192,192,36912,1,0,0:0:0:0:
64,192,36912,1,0,0:0:0:0:
448,192,36912,1,0,0:0:0:0:
64,192,37084,1,0,0:0:0:0:
320,192,37084,1,0,0:0:0:0:
192,192,37169,1,0,0:0:0:0:
448,192,37169,1,0,0:0:0:0:
320,192,37255,1,0,0:0:0:0:
448,192,37255,1,0,0:0:0:0:
64,192,37255,1,0,0:0:0:0:
192,192,37341,1,0,0:0:0:0:
64,192,37341,1,0,0:0:0:0:
320,192,37427,1,0,0:0:0:0:
448,192,37427,1,0,0:0:0:0:
192,192,37512,1,0,0:0:0:0:
64,192,37512,1,0,0:0:0:0:
320,192,37598,1,0,0:0:0:0:
448,192,37598,1,0,0:0:0:0:
192,192,37769,1,0,0:0:0:0:
64,192,37769,1,0,0:0:0:0:
320,192,37855,1,0,0:0:0:0:
448,192,37855,1,0,0:0:0:0:
192,192,38027,1,0,0:0:0:0:
64,192,38027,1,0,0:0:0:0:
320,192,38112,1,0,0:0:0:0:
448,192,38112,1,0,0:0:0:0:
64,192,38284,1,0,0:0:0:0:
448,192,38284,1,0,0:0:0:0:
192,192,38284,1,0,0:0:0:0:
320,192,38455,1,0,0:0:0:0:
192,192,38455,1,0,0:0:0:0:
64,192,38627,1,0,0:0:0:0:
320,192,38627,1,0,0:0:0:0:
448,192,38627,1,0,0:0:0:0:
192,192,38712,1,0,0:0:0:0:
320,192,38798,1,0,0:0:0:0:
448,192,38798,1,0,0:0:0:0:
192,192,38884,1,0,0:0:0:0:
64,192,38884,1,0,0:0:0:0:
320,192,38969,1,0,0:0:0:0:
448,192,38969,1,0,0:0:0:0:
64,192,38969,1,0,0:0:0:0:
192,192,39055,1,0,0:0:0:0:
320,192,39141,1,0,0:0:0:0:
64,192,39141,1,0,0:0:0:0:
192,192,39227,1,0,0:0:0:0:
448,192,39227,1,0,0:0:0:0:
320,192,39312,1,0,0:0:0:0:
64,192,39312,1,0,0:0:0:0:
448,192,39312,1,0,0:0:0:0:
192,192,39398,1,0,0:0:0:0:
448,192,39484,1,0,0:0:0:0:
64,192,39484,1,0,0:0:0:0:
192,192,39569,1,0,0:0:0:0:
320,192,39569,1,0,0:0:0:0:
192,192,39655,1,0,0:0:0:0:
64,192,39655,1,0,0:0:0:0:
448,192,39655,1,0,0:0:0:0:
320,192,39741,1,0,0:0:0:0:
448,192,39827,1,0,0:0:0:0:
192,192,39827,1,0,0:0:0:0:
64,192,39912,1,0,0:0:0:0:
320,192,39912,1,0,0:0:0:0:
192,192,39998,1,0,0:0:0:0:
320,192,39998,1,0,0:0:0:0:
448,192,39998,1,0,0:0:0:0:
64,192,40084,1,0,0:0:0:0:
320,192,40169,1,0,0:0:0:0:
192,192,40169,1,0,0:0:0:0:
448,192,40255,1,0,0:0:0:0:
64,192,40255,1,0,0:0:0:0:
320,192,40341,1,0,0:0:0:0:
192,192,40341,1,0,0:0:0:0:
64,192,40341,1,0,0:0:0:0:
448,192,40427,1,0,0:0:0:0:
192,192,40512,1,0,0:0:0:0:
64,192,40512,1,0,0:0:0:0:
320,192,40598,1,0,0:0:0:0:
448,192,40598,1,0,0:0:0:0:
192,192,40684,1,0,0:0:0:0:
64,192,40684,1,0,0:0:0:0:
448,192,40684,1,0,0:0:0:0:
320,192,40769,1,0,0:0:0:0:
448,192,40855,1,0,0:0:0:0:
64,192,40855,1,0,0:0:0:0:
192,192,40941,1,0,0:0:0:0:
320,192,40941,1,0,0:0:0:0:
320,192,41027,1,0,0:0:0:0:
448,192,41027,1,0,0:0:0:0:
64,192,41027,1,0,0:0:0:0:
192,192,41112,1,0,0:0:0:0:
320,192,41198,1,0,0:0:0:0:
448,192,41198,1,0,0:0:0:0:
192,192,41284,1,0,0:0:0:0:
64,192,41284,1,0,0:0:0:0:
448,192,41369,1,0,0:0:0:0:
64,192,41369,1,0,0:0:0:0:
320,192,41369,1,0,0:0:0:0:
192,192,41455,1,0,0:0:0:0:
320,192,41455,1,0,0:0:0:0:
64,192,41541,1,0,0:0:0:0:
448,192,41541,1,0,0:0:0:0:
320,192,41627,1,0,0:0:0:0:
192,192,41627,1,0,0:0:0:0:
64,192,41712,1,0,0:0:0:0:
448,192,41712,1,0,0:0:0:0:
320,192,41798,1,0,0:0:0:0:
192,192,41798,1,0,0:0:0:0:
64,192,41884,1,0,0:0:0:0:
448,192,41884,1,0,0:0:0:0:
320,192,41969,1,0,0:0:0:0:
192,192,42055,1,0,0:0:0:0:
64,192,42055,1,0,0:0:0:0:
448,192,42141,1,0,0:0:0:0:
320,192,42141,1,0,0:0:0:0:
192,192,42227,1,0,0:0:0:0:
64,192,42227,1,0,0:0:0:0:
320,192,42312,1,0,0:0:0:0:
448,192,42312,1,0,0:0:0:0:
192,192,42398,1,0,0:0:0:0:
64,192,42398,1,0,0:0:0:0:
320,192,42484,1,0,0:0:0:0:
448,192,42484,1,0,0:0:0:0:
192,192,42569,1,0,0:0:0:0:
64,192,42569,1,0,0:0:0:0:
320,192,42655,1,0,0:0:0:0:
448,192,42655,1,0,0:0:0:0:
448,192,42741,1,0,0:0:0:0:
192,192,42741,1,0,0:0:0:0:
64,192,42741,1,0,0:0:0:0:
320,192,42827,1,0,0:0:0:0:
448,192,42912,1,0,0:0:0:0:
64,192,42912,1,0,0:0:0:0:
192,192,42998,5,0,0:0:0:0:
64,192,43084,1,0,0:0:0:0:
320,192,43084,1,0,0:0:0:0:
448,192,43084,1,0,0:0:0:0:
192,192,43169,1,0,0:0:0:0:
64,192,43255,1,0,0:0:0:0:
448,192,43255,1,0,0:0:0:0:
320,192,43341,1,0,0:0:0:0:
448,192,43427,1,0,0:0:0:0:
192,192,43427,1,0,0:0:0:0:
64,192,43427,1,0,0:0:0:0:
320,192,43512,1,0,0:0:0:0:
448,192,43598,1,0,0:0:0:0:
64,192,43598,1,0,0:0:0:0:
192,192,43684,1,0,0:0:0:0:
64,192,43769,1,0,0:0:0:0:
320,192,43769,1,0,0:0:0:0:
448,192,43769,1,0,0:0:0:0:
192,192,43855,1,0,0:0:0:0:
64,192,43941,1,0,0:0:0:0:
448,192,43941,1,0,0:0:0:0:
320,192,44027,1,0,0:0:0:0:
64,192,44112,5,0,0:0:0:0:
192,192,44112,1,0,0:0:0:0:
448,192,44112,1,0,0:0:0:0:
448,192,44284,1,0,0:0:0:0:
448,192,44455,1,0,0:0:0:0:
448,192,44627,1,0,0:0:0:0:
320,192,44798,1,0,0:0:0:0:
320,192,44969,1,0,0:0:0:0:
320,192,45141,1,0,0:0:0:0:
320,192,45312,1,0,0:0:0:0:
64,192,45484,1,0,0:0:0:0:
64,192,45655,1,0,0:0:0:0:
64,192,45827,1,0,0:0:0:0:
64,192,45998,1,0,0:0:0:0:
192,192,46169,1,0,0:0:0:0:
192,192,46341,1,0,0:0:0:0:
192,192,46512,1,0,0:0:0:0:
192,192,46684,1,0,0:0:0:0:
448,192,46855,1,0,0:0:0:0:
448,192,47027,1,0,0:0:0:0:
448,192,47198,1,0,0:0:0:0:
448,192,47369,1,0,0:0:0:0:
320,192,47541,1,0,0:0:0:0:
320,192,47712,1,0,0:0:0:0:
320,192,47884,1,0,0:0:0:0:
320,192,48055,1,0,0:0:0:0:
64,192,48227,1,0,0:0:0:0:
64,192,48398,1,0,0:0:0:0:
64,192,48569,1,0,0:0:0:0:
64,192,48741,1,0,0:0:0:0:
192,192,48912,1,0,0:0:0:0:
192,192,49084,1,0,0:0:0:0:
192,192,49255,1,0,0:0:0:0:
192,192,49427,1,0,0:0:0:0:
448,192,49598,1,0,0:0:0:0:
448,192,49769,1,0,0:0:0:0:
448,192,49941,1,0,0:0:0:0:
448,192,50112,1,0,0:0:0:0:
64,192,50284,1,0,0:0:0:0:
64,192,50455,1,0,0:0:0:0:
64,192,50627,1,0,0:0:0:0:
64,192,50798,1,0,0:0:0:0:
320,192,50969,1,0,0:0:0:0:
320,192,51141,1,0,0:0:0:0:
320,192,51312,1,0,0:0:0:0:
320,192,51484,1,0,0:0:0:0:
192,192,51655,1,0,0:0:0:0:
192,192,51827,1,0,0:0:0:0:
192,192,51998,1,0,0:0:0:0:
192,192,52169,1,0,0:0:0:0:
320,192,52341,1,0,0:0:0:0:
448,192,52341,1,0,0:0:0:0:
448,192,52512,1,0,0:0:0:0:
320,192,52512,1,0,0:0:0:0:
320,192,52684,1,0,0:0:0:0:
448,192,52684,1,0,0:0:0:0:
320,192,52855,1,0,0:0:0:0:
448,192,52855,1,0,0:0:0:0:
192,192,53027,1,0,0:0:0:0:
64,192,53027,1,0,0:0:0:0:
192,192,53198,1,0,0:0:0:0:
64,192,53198,1,0,0:0:0:0:
64,192,53369,1,0,0:0:0:0:
192,192,53369,1,0,0:0:0:0:
192,192,53541,1,0,0:0:0:0:
64,192,53541,1,0,0:0:0:0:
192,192,53712,1,0,0:0:0:0:
320,192,53712,1,0,0:0:0:0:
320,192,53884,1,0,0:0:0:0:
192,192,53884,1,0,0:0:0:0:
192,192,54055,1,0,0:0:0:0:
320,192,54055,1,0,0:0:0:0:
320,192,54227,1,0,0:0:0:0:
192,192,54227,1,0,0:0:0:0:
192,192,54398,1,0,0:0:0:0:
320,192,54398,1,0,0:0:0:0:
320,192,54569,1,0,0:0:0:0:
192,192,54569,1,0,0:0:0:0:
192,192,54741,1,0,0:0:0:0:
320,192,54741,1,0,0:0:0:0:
320,192,54912,1,0,0:0:0:0:
192,192,54912,1,0,0:0:0:0:
320,192,55084,1,0,0:0:0:0:
448,192,55084,1,0,0:0:0:0:
64,192,55084,1,0,0:0:0:0:
192,192,55255,128,0,55341:0:0:0:0:
320,192,55427,128,0,55512:0:0:0:0:
448,192,55598,128,0,55684:0:0:0:0:
192,192,55769,1,0,0:0:0:0:
64,192,55941,128,0,56027:0:0:0:0:
192,192,56112,128,0,56198:0:0:0:0:
320,192,56284,128,0,56369:0:0:0:0:
64,192,56455,1,0,0:0:0:0:
448,192,56627,128,0,56712:0:0:0:0:
320,192,56798,128,0,56884:0:0:0:0:
192,192,56969,128,0,57055:0:0:0:0:
448,192,57141,1,0,0:0:0:0:
320,192,57312,128,0,57398:0:0:0:0:
192,192,57484,128,0,57569:0:0:0:0:
64,192,57655,128,0,57741:0:0:0:0:
320,192,57827,1,0,0:0:0:0:
192,192,57998,128,0,58084:0:0:0:0:
448,192,58169,128,0,58255:0:0:0:0:
64,192,58341,128,0,58427:0:0:0:0:
192,192,58512,1,0,0:0:0:0:
320,192,58684,128,0,58769:0:0:0:0:
64,192,58855,128,0,58941:0:0:0:0:
448,192,59027,128,0,59112:0:0:0:0:
320,192,59198,1,0,0:0:0:0:
192,192,59369,128,0,59455:0:0:0:0:
64,192,59541,128,0,59627:0:0:0:0:
448,192,59712,128,0,59798:0:0:0:0:
192,192,59884,1,0,0:0:0:0:
320,192,60055,1,0,0:0:0:0:
192,192,60227,128,0,60484:0:0:0:0:
64,192,60227,128,0,60484:0:0:0:0:
448,192,60227,128,0,60484:0:0:0:0:
64,192,60569,1,0,0:0:0:0:
448,192,60569,1,0,0:0:0:0:
192,192,60569,1,0,0:0:0:0:
64,192,60741,1,0,0:0:0:0:
448,192,60741,1,0,0:0:0:0:
320,192,60827,1,0,0:0:0:0:
192,192,60827,1,0,0:0:0:0:
448,192,60912,1,0,0:0:0:0:
64,192,60912,1,0,0:0:0:0:
192,192,61084,1,0,0:0:0:0:
320,192,61084,1,0,0:0:0:0:
64,192,61255,1,0,0:0:0:0:
192,192,61298,1,0,0:0:0:0:
320,192,61341,1,0,0:0:0:0:
448,192,61384,1,0,0:0:0:0:
64,192,61427,1,0,0:0:0:0:
192,192,61469,1,0,0:0:0:0:
320,192,61512,1,0,0:0:0:0:
448,192,61555,1,0,0:0:0:0:
64,192,61598,1,0,0:0:0:0:
192,192,61641,1,0,0:0:0:0:
320,192,61684,1,0,0:0:0:0:
448,192,61727,1,0,0:0:0:0:
192,192,61769,1,0,0:0:0:0:
64,192,61769,1,0,0:0:0:0:
320,192,61855,1,0,0:0:0:0:
448,192,61855,1,0,0:0:0:0:
64,192,61941,128,0,62027:0:0:0:0:
192,192,61941,128,0,62027:0:0:0:0:
192,192,62112,128,0,62198:0:0:0:0:
320,192,62112,128,0,62198:0:0:0:0:
448,192,62284,128,0,62627:0:0:0:0:
320,192,62284,128,0,62627:0:0:0:0:
64,192,62627,1,0,0:0:0:0:
192,192,62669,1,0,0:0:0:0:
448,192,62712,1,0,0:0:0:0:
320,192,62755,1,0,0:0:0:0:
64,192,62798,1,0,0:0:0:0:
192,192,62841,1,0,0:0:0:0:
448,192,62884,1,0,0:0:0:0:
320,192,62927,1,0,0:0:0:0:
64,192,62969,1,0,0:0:0:0:
192,192,63012,1,0,0:0:0:0:
448,192,63055,1,0,0:0:0:0:
320,192,63098,1,0,0:0:0:0:
64,192,63141,1,0,0:0:0:0:
192,192,63184,1,0,0:0:0:0:
448,192,63227,1,0,0:0:0:0:
320,192,63269,1,0,0:0:0:0:
192,192,63312,1,0,0:0:0:0:
64,192,63312,1,0,0:0:0:0:
320,192,63655,1,0,0:0:0:0:
192,192,63655,1,0,0:0:0:0:
192,192,63827,1,0,0:0:0:0:
320,192,63827,1,0,0:0:0:0:
448,192,63998,1,0,0:0:0:0:
320,192,64041,1,0,0:0:0:0:
192,192,64084,1,0,0:0:0:0:
64,192,64127,1,0,0:0:0:0:
448,192,64169,1,0,0:0:0:0:
320,192,64212,1,0,0:0:0:0:
192,192,64255,1,0,0:0:0:0:
64,192,64298,1,0,0:0:0:0:
448,192,64341,1,0,0:0:0:0:
320,192,64384,1,0,0:0:0:0:
192,192,64427,1,0,0:0:0:0:
64,192,64469,1,0,0:0:0:0:
448,192,64512,1,0,0:0:0:0:
320,192,64512,1,0,0:0:0:0:
64,192,64598,1,0,0:0:0:0:
192,192,64598,1,0,0:0:0:0:
320,192,64684,1,0,0:0:0:0:
448,192,64684,1,0,0:0:0:0:
192,192,64855,128,0,64941:0:0:0:0:
64,192,65027,1,0,0:0:0:0:
320,192,65027,128,0,65112:0:0:0:0:
448,192,65198,128,0,65284:0:0:0:0:
192,192,65369,1,0,0:0:0:0:
64,192,65369,1,0,0:0:0:0:
320,192,65369,1,0,0:0:0:0:
320,192,65541,128,0,65627:0:0:0:0:
192,192,65712,128,0,65798:0:0:0:0:
64,192,65884,128,0,65969:0:0:0:0:
320,192,66055,1,0,0:0:0:0:
448,192,66055,1,0,0:0:0:0:
192,192,66055,1,0,0:0:0:0:
64,192,66227,1,0,0:0:0:0:
320,192,66398,1,0,0:0:0:0:
448,192,66569,1,0,0:0:0:0:
320,192,66655,1,0,0:0:0:0:
192,192,66655,1,0,0:0:0:0:
64,192,66741,1,0,0:0:0:0:
448,192,66741,1,0,0:0:0:0:
320,192,66912,1,0,0:0:0:0:
192,192,67084,1,0,0:0:0:0:
320,192,67255,1,0,0:0:0:0:
448,192,67255,1,0,0:0:0:0:
192,192,67341,1,0,0:0:0:0:
64,192,67341,1,0,0:0:0:0:
320,192,67427,1,0,0:0:0:0:
448,192,67427,1,0,0:0:0:0:
192,192,67598,1,0,0:0:0:0:
320,192,67769,1,0,0:0:0:0:
448,192,67769,1,0,0:0:0:0:
64,192,67941,1,0,0:0:0:0:
192,192,67941,1,0,0:0:0:0:
320,192,68027,1,0,0:0:0:0:
448,192,68112,1,0,0:0:0:0:
64,192,68112,1,0,0:0:0:0:
192,192,68284,1,0,0:0:0:0:
64,192,68455,1,0,0:0:0:0:
320,192,68455,1,0,0:0:0:0:
192,192,68541,1,0,0:0:0:0:
448,192,68541,1,0,0:0:0:0:
320,192,68627,1,0,0:0:0:0:
64,192,68712,1,0,0:0:0:0:
448,192,68712,1,0,0:0:0:0:
320,192,68798,1,0,0:0:0:0:
192,192,68798,1,0,0:0:0:0:
64,192,68969,1,0,0:0:0:0:
320,192,69141,1,0,0:0:0:0:
192,192,69312,1,0,0:0:0:0:
320,192,69398,1,0,0:0:0:0:
64,192,69398,1,0,0:0:0:0:
192,192,69484,1,0,0:0:0:0:
448,192,69484,1,0,0:0:0:0:
320,192,69655,1,0,0:0:0:0:
64,192,69827,1,0,0:0:0:0:
320,192,69998,1,0,0:0:0:0:
192,192,69998,1,0,0:0:0:0:
64,192,70084,1,0,0:0:0:0:
448,192,70084,1,0,0:0:0:0:
320,192,70169,1,0,0:0:0:0:
192,192,70169,1,0,0:0:0:0:
448,192,70341,1,0,0:0:0:0:
64,192,70341,1,0,0:0:0:0:
192,192,70427,1,0,0:0:0:0:
320,192,70512,1,0,0:0:0:0:
448,192,70512,1,0,0:0:0:0:
192,192,70598,1,0,0:0:0:0:
64,192,70598,1,0,0:0:0:0:
320,192,70684,1,0,0:0:0:0:
192,192,70769,1,0,0:0:0:0:
448,192,70855,1,0,0:0:0:0:
320,192,70898,1,0,0:0:0:0:
192,192,70941,1,0,0:0:0:0:
64,192,70984,1,0,0:0:0:0:
320,192,71027,1,0,0:0:0:0:
448,192,71027,1,0,0:0:0:0:
192,192,71112,1,0,0:0:0:0:
64,192,71198,128,0,71455:0:0:0:0:
320,192,71198,128,0,71455:0:0:0:0:
448,192,71198,128,0,71455:0:0:0:0:
448,192,71541,1,0,0:0:0:0:
320,192,71541,1,0,0:0:0:0:
64,192,71541,1,0,0:0:0:0:
448,192,71712,1,0,0:0:0:0:
64,192,71712,1,0,0:0:0:0:
192,192,71798,1,0,0:0:0:0:
320,192,71798,1,0,0:0:0:0:
64,192,71884,1,0,0:0:0:0:
448,192,71884,1,0,0:0:0:0:
192,192,71884,1,0,0:0:0:0:
320,192,72055,1,0,0:0:0:0:
64,192,72055,1,0,0:0:0:0:
448,192,72227,1,0,0:0:0:0:
320,192,72269,1,0,0:0:0:0:
192,192,72312,1,0,0:0:0:0:
64,192,72355,1,0,0:0:0:0:
448,192,72398,1,0,0:0:0:0:
320,192,72441,1,0,0:0:0:0:
192,192,72484,1,0,0:0:0:0:
64,192,72527,1,0,0:0:0:0:
448,192,72569,1,0,0:0:0:0:
320,192,72612,1,0,0:0:0:0:
192,192,72655,1,0,0:0:0:0:
64,192,72698,1,0,0:0:0:0:
320,192,72741,1,0,0:0:0:0:
448,192,72741,1,0,0:0:0:0:
192,192,72827,1,0,0:0:0:0:
64,192,72827,1,0,0:0:0:0:
448,192,72912,128,0,72998:0:0:0:0:
320,192,72912,128,0,72998:0:0:0:0:
320,192,73084,128,0,73169:0:0:0:0:
192,192,73084,128,0,73169:0:0:0:0:
64,192,73255,128,0,73598:0:0:0:0:
192,192,73255,128,0,73598:0:0:0:0:
448,192,73255,1,0,0:0:0:0:
448,192,73598,1,0,0:0:0:0:
320,192,73641,1,0,0:0:0:0:
64,192,73684,1,0,0:0:0:0:
192,192,73727,1,0,0:0:0:0:
448,192,73769,1,0,0:0:0:0:
320,192,73812,1,0,0:0:0:0:
64,192,73855,1,0,0:0:0:0:
192,192,73898,1,0,0:0:0:0:
448,192,73941,1,0,0:0:0:0:
320,192,73984,1,0,0:0:0:0:
64,192,74027,1,0,0:0:0:0:
192,192,74069,1,0,0:0:0:0:
448,192,74112,1,0,0:0:0:0:
320,192,74155,1,0,0:0:0:0:
64,192,74198,1,0,0:0:0:0:
192,192,74241,1,0,0:0:0:0:
320,192,74284,1,0,0:0:0:0:
448,192,74284,1,0,0:0:0:0:
192,192,74455,128,0,74627:0:0:0:0:
64,192,74455,128,0,74627:0:0:0:0:
320,192,74627,1,0,0:0:0:0:
448,192,74627,1,0,0:0:0:0:
320,192,74798,128,0,74969:0:0:0:0:
448,192,74798,128,0,74969:0:0:0:0:
192,192,74969,1,0,0:0:0:0:
64,192,74969,1,0,0:0:0:0:
64,192,75141,128,0,75312:0:0:0:0:
320,192,75141,128,0,75312:0:0:0:0:
448,192,75312,1,0,0:0:0:0:
192,192,75312,1,0,0:0:0:0:
192,192,75484,128,0,75655:0:0:0:0:
448,192,75484,128,0,75655:0:0:0:0:
320,192,75655,1,0,0:0:0:0:
64,192,75655,1,0,0:0:0:0:
192,192,75741,1,0,0:0:0:0:
448,192,75741,1,0,0:0:0:0:
320,192,75827,1,0,0:0:0:0:
64,192,75827,1,0,0:0:0:0:
192,192,75912,5,0,0:0:0:0:
448,192,75912,1,0,0:0:0:0:
320,192,75998,1,0,0:0:0:0:
64,192,75998,1,0,0:0:0:0:
192,192,76084,1,0,0:0:0:0:
448,192,76084,1,0,0:0:0:0:
320,192,76169,1,0,0:0:0:0:
64,192,76169,1,0,0:0:0:0:
192,192,76255,1,0,0:0:0:0:
448,192,76255,1,0,0:0:0:0:
320,192,76341,1,0,0:0:0:0:
448,192,76341,1,0,0:0:0:0:
64,192,76341,1,0,0:0:0:0:
64,192,77027,5,0,0:0:0:0:
448,192,77027,1,0,0:0:0:0:
192,192,77027,1,0,0:0:0:0:
320,192,77112,1,0,0:0:0:0:
192,192,77198,1,0,0:0:0:0:
448,192,77198,1,0,0:0:0:0:
64,192,77284,1,0,0:0:0:0:
192,192,77369,1,0,0:0:0:0:
320,192,77369,1,0,0:0:0:0:
448,192,77369,1,0,0:0:0:0:
64,192,77455,1,0,0:0:0:0:
320,192,77541,1,0,0:0:0:0:
448,192,77541,1,0,0:0:0:0:
192,192,77627,1,0,0:0:0:0:
320,192,77712,1,0,0:0:0:0:
448,192,77712,1,0,0:0:0:0:
64,192,77712,1,0,0:0:0:0:
192,192,77798,1,0,0:0:0:0:
64,192,77884,1,0,0:0:0:0:
448,192,77884,1,0,0:0:0:0:
320,192,77969,1,0,0:0:0:0:
192,192,78055,1,0,0:0:0:0:
64,192,78055,1,0,0:0:0:0:
448,192,78055,1,0,0:0:0:0:
320,192,78141,1,0,0:0:0:0:
192,192,78227,1,0,0:0:0:0:
64,192,78227,1,0,0:0:0:0:
448,192,78312,1,0,0:0:0:0:
320,192,78398,1,0,0:0:0:0:
192,192,78398,1,0,0:0:0:0:
64,192,78398,1,0,0:0:0:0:
448,192,78484,1,0,0:0:0:0:
320,192,78569,1,0,0:0:0:0:
64,192,78569,1,0,0:0:0:0:
192,192,78655,1,0,0:0:0:0:
320,192,78741,1,0,0:0:0:0:
448,192,78741,1,0,0:0:0:0:
64,192,78741,1,0,0:0:0:0:
192,192,78827,1,0,0:0:0:0:
64,192,78912,1,0,0:0:0:0:
448,192,78912,1,0,0:0:0:0:
320,192,78998,1,0,0:0:0:0:
192,192,79084,1,0,0:0:0:0:
64,192,79084,1,0,0:0:0:0:
448,192,79084,1,0,0:0:0:0:
320,192,79169,1,0,0:0:0:0:
192,192,79255,1,0,0:0:0:0:
448,192,79255,1,0,0:0:0:0:
64,192,79341,1,0,0:0:0:0:
192,192,79427,1,0,0:0:0:0:
320,192,79427,1,0,0:0:0:0:
448,192,79427,1,0,0:0:0:0:
64,192,79512,1,0,0:0:0:0:
192,192,79598,1,0,0:0:0:0:
320,192,79598,1,0,0:0:0:0:
448,192,79684,1,0,0:0:0:0:
320,192,79769,1,0,0:0:0:0:
192,192,79769,1,0,0:0:0:0:
64,192,79769,1,0,0:0:0:0:
448,192,79855,1,0,0:0:0:0:
320,192,79941,1,0,0:0:0:0:
64,192,79941,1,0,0:0:0:0:
192,192,80027,1,0,0:0:0:0:
320,192,80112,1,0,0:0:0:0:
448,192,80112,1,0,0:0:0:0:
64,192,80112,1,0,0:0:0:0:
192,192,80198,1,0,0:0:0:0:
64,192,80284,1,0,0:0:0:0:
448,192,80284,1,0,0:0:0:0:
320,192,80369,1,0,0:0:0:0:
192,192,80455,1,0,0:0:0:0:
64,192,80455,1,0,0:0:0:0:
448,192,80455,1,0,0:0:0:0:
320,192,80541,1,0,0:0:0:0:
192,192,80627,1,0,0:0:0:0:
64,192,80627,1,0,0:0:0:0:
448,192,80712,1,0,0:0:0:0:
320,192,80798,1,0,0:0:0:0:
192,192,80798,1,0,0:0:0:0:
64,192,80798,1,0,0:0:0:0:
448,192,80969,1,0,0:0:0:0:
64,192,80969,1,0,0:0:0:0:
192,192,81141,1,0,0:0:0:0:
320,192,81141,1,0,0:0:0:0:
448,192,81141,1,0,0:0:0:0:
64,192,81312,1,0,0:0:0:0:
320,192,81312,1,0,0:0:0:0:
192,192,81484,1,0,0:0:0:0:
64,192,81484,1,0,0:0:0:0:
448,192,81484,1,0,0:0:0:0:
320,192,81655,1,0,0:0:0:0:
192,192,81655,1,0,0:0:0:0:
64,192,81827,1,0,0:0:0:0:
320,192,81827,1,0,0:0:0:0:
448,192,81827,1,0,0:0:0:0:
192,192,81998,1,0,0:0:0:0:
448,192,81998,1,0,0:0:0:0:
320,192,82169,1,0,0:0:0:0:
192,192,82341,1,0,0:0:0:0:
320,192,82427,1,0,0:0:0:0:
192,192,82512,1,0,0:0:0:0:
64,192,82512,1,0,0:0:0:0:
448,192,82512,1,0,0:0:0:0:
320,192,82598,1,0,0:0:0:0:
192,192,82684,1,0,0:0:0:0:
64,192,82684,1,0,0:0:0:0:
448,192,82769,1,0,0:0:0:0:
320,192,82855,1,0,0:0:0:0:
192,192,82855,1,0,0:0:0:0:
64,192,82855,1,0,0:0:0:0:
448,192,82941,1,0,0:0:0:0:
320,192,83027,1,0,0:0:0:0:
64,192,83027,1,0,0:0:0:0:
192,192,83112,1,0,0:0:0:0:
64,192,83198,1,0,0:0:0:0:
320,192,83198,1,0,0:0:0:0:
448,192,83198,1,0,0:0:0:0:
192,192,83284,1,0,0:0:0:0:
64,192,83369,1,0,0:0:0:0:
448,192,83369,1,0,0:0:0:0:
320,192,83455,1,0,0:0:0:0:
192,192,83541,1,0,0:0:0:0:
64,192,83541,1,0,0:0:0:0:
448,192,83541,1,0,0:0:0:0:
320,192,83627,1,0,0:0:0:0:
192,192,83712,1,0,0:0:0:0:
448,192,83712,1,0,0:0:0:0:
64,192,83798,1,0,0:0:0:0:
192,192,83884,1,0,0:0:0:0:
320,192,83884,1,0,0:0:0:0:
448,192,83884,1,0,0:0:0:0:
64,192,83969,1,0,0:0:0:0:
192,192,84055,1,0,0:0:0:0:
320,192,84055,1,0,0:0:0:0:
448,192,84141,1,0,0:0:0:0:
320,192,84227,1,0,0:0:0:0:
64,192,84227,1,0,0:0:0:0:
192,192,84227,1,0,0:0:0:0:
448,192,84312,1,0,0:0:0:0:
320,192,84398,1,0,0:0:0:0:
64,192,84398,1,0,0:0:0:0:
192,192,84484,1,0,0:0:0:0:
320,192,84569,1,0,0:0:0:0:
448,192,84569,1,0,0:0:0:0:
64,192,84569,1,0,0:0:0:0:
192,192,84655,1,0,0:0:0:0:
64,192,84741,1,0,0:0:0:0:
448,192,84741,1,0,0:0:0:0:
320,192,84827,1,0,0:0:0:0:
448,192,84912,1,0,0:0:0:0:
192,192,84912,1,0,0:0:0:0:
64,192,84912,1,0,0:0:0:0:
320,192,84998,1,0,0:0:0:0:
192,192,85084,1,0,0:0:0:0:
64,192,85084,1,0,0:0:0:0:
448,192,85169,1,0,0:0:0:0:
320,192,85255,1,0,0:0:0:0:
192,192,85255,1,0,0:0:0:0:
64,192,85255,1,0,0:0:0:0:
448,192,85341,1,0,0:0:0:0:
320,192,85427,1,0,0:0:0:0:
192,192,85427,1,0,0:0:0:0:
64,192,85512,1,0,0:0:0:0:
192,192,85598,1,0,0:0:0:0:
320,192,85598,1,0,0:0:0:0:
448,192,85598,1,0,0:0:0:0:
64,192,85684,1,0,0:0:0:0:
320,192,85769,1,0,0:0:0:0:
448,192,85769,1,0,0:0:0:0:
192,192,85855,1,0,0:0:0:0:
448,192,85941,1,0,0:0:0:0:
64,192,85941,1,0,0:0:0:0:
320,192,85941,1,0,0:0:0:0:
192,192,86027,1,0,0:0:0:0:
64,192,86112,1,0,0:0:0:0:
448,192,86112,1,0,0:0:0:0:
320,192,86198,1,0,0:0:0:0:
192,192,86284,1,0,0:0:0:0:
64,192,86284,1,0,0:0:0:0:
320,192,86369,1,0,0:0:0:0:
448,192,86455,1,0,0:0:0:0:
192,192,86455,1,0,0:0:0:0:
64,192,86455,1,0,0:0:0:0:
320,192,86798,1,0,0:0:0:0:
448,192,86798,1,0,0:0:0:0:
192,192,86798,1,0,0:0:0:0:
64,192,86969,1,0,0:0:0:0:
320,192,86969,1,0,0:0:0:0:
448,192,86969,1,0,0:0:0:0:
192,192,87141,1,0,0:0:0:0:
320,192,87312,1,0,0:0:0:0:
64,192,87312,1,0,0:0:0:0:
448,192,87312,1,0,0:0:0:0:
192,192,87484,1,0,0:0:0:0:
320,192,87569,1,0,0:0:0:0:
192,192,87655,1,0,0:0:0:0:
64,192,87655,1,0,0:0:0:0:
448,192,87655,1,0,0:0:0:0:
448,192,87827,1,0,0:0:0:0:
320,192,87912,1,0,0:0:0:0:
448,192,87998,1,0,0:0:0:0:
192,192,87998,1,0,0:0:0:0:
64,192,87998,1,0,0:0:0:0:
320,192,88084,1,0,0:0:0:0:
448,192,88169,1,0,0:0:0:0:
192,192,88169,1,0,0:0:0:0:
64,192,88255,1,0,0:0:0:0:
192,192,88341,1,0,0:0:0:0:
320,192,88341,1,0,0:0:0:0:
448,192,88341,1,0,0:0:0:0:
64,192,88427,1,0,0:0:0:0:
192,192,88512,1,0,0:0:0:0:
320,192,88512,1,0,0:0:0:0:
448,192,88598,1,0,0:0:0:0:
320,192,88684,1,0,0:0:0:0:
192,192,88684,1,0,0:0:0:0:
64,192,88684,1,0,0:0:0:0:
448,192,88769,1,0,0:0:0:0:
320,192,88855,1,0,0:0:0:0:
64,192,88855,1,0,0:0:0:0:
192,192,88941,1,0,0:0:0:0:
64,192,89027,1,0,0:0:0:0:
320,192,89027,1,0,0:0:0:0:
448,192,89027,1,0,0:0:0:0:
192,192,89112,1,0,0:0:0:0:
64,192,89198,1,0,0:0:0:0:
448,192,89198,1,0,0:0:0:0:
320,192,89284,1,0,0:0:0:0:
192,192,89369,1,0,0:0:0:0:
64,192,89369,1,0,0:0:0:0:
448,192,89369,1,0,0:0:0:0:
320,192,89455,1,0,0:0:0:0:
448,192,89541,1,0,0:0:0:0:
192,192,89541,1,0,0:0:0:0:
64,192,89627,1,0,0:0:0:0:
192,192,89712,1,0,0:0:0:0:
320,192,89712,1,0,0:0:0:0:
448,192,89712,1,0,0:0:0:0:
64,192,89798,1,0,0:0:0:0:
192,192,89884,1,0,0:0:0:0:
320,192,89884,1,0,0:0:0:0:
448,192,89969,1,0,0:0:0:0:
320,192,90055,1,0,0:0:0:0:
192,192,90055,1,0,0:0:0:0:
64,192,90055,1,0,0:0:0:0:
448,192,90141,1,0,0:0:0:0:
192,192,90227,1,0,0:0:0:0:
64,192,90227,1,0,0:0:0:0:
320,192,90312,1,0,0:0:0:0:
448,192,90398,1,0,0:0:0:0:
192,192,90398,1,0,0:0:0:0:
64,192,90398,1,0,0:0:0:0:
320,192,90484,1,0,0:0:0:0:
64,192,90569,1,0,0:0:0:0:
448,192,90569,1,0,0:0:0:0:
192,192,90655,1,0,0:0:0:0:
64,192,90741,1,0,0:0:0:0:
320,192,90741,1,0,0:0:0:0:
448,192,90741,1,0,0:0:0:0:
192,192,90827,1,0,0:0:0:0:
320,192,90912,1,0,0:0:0:0:
64,192,90912,1,0,0:0:0:0:
448,192,90998,1,0,0:0:0:0:
320,192,91084,1,0,0:0:0:0:
192,192,91084,1,0,0:0:0:0:
64,192,91084,1,0,0:0:0:0:
448,192,91169,1,0,0:0:0:0:
64,192,91255,1,0,0:0:0:0:
192,192,91255,1,0,0:0:0:0:
320,192,91341,1,0,0:0:0:0:
448,192,91427,1,0,0:0:0:0:
192,192,91427,1,0,0:0:0:0:
64,192,91427,1,0,0:0:0:0:
320,192,91512,1,0,0:0:0:0:
448,192,91598,1,0,0:0:0:0:
64,192,91598,1,0,0:0:0:0:
192,192,91684,1,0,0:0:0:0:
320,192,91769,1,0,0:0:0:0:
448,192,91769,1,0,0:0:0:0:
64,192,91769,1,0,0:0:0:0:
192,192,91855,1,0,0:0:0:0:
64,192,91941,1,0,0:0:0:0:
448,192,91941,1,0,0:0:0:0:
320,192,92027,1,0,0:0:0:0:
192,192,92112,1,0,0:0:0:0:
64,192,92112,1,0,0:0:0:0:
448,192,92112,1,0,0:0:0:0:
320,192,92198,1,0,0:0:0:0:
64,192,92284,1,0,0:0:0:0:
192,192,92369,1,0,0:0:0:0:
64,192,92455,1,0,0:0:0:0:
320,192,92455,1,0,0:0:0:0:
448,192,92455,1,0,0:0:0:0:
192,192,92541,1,0,0:0:0:0:
448,192,92627,1,0,0:0:0:0:
320,192,92712,1,0,0:0:0:0:
192,192,92798,1,0,0:0:0:0:
64,192,92798,1,0,0:0:0:0:
448,192,92798,1,0,0:0:0:0:
320,192,92884,1,0,0:0:0:0:
64,192,92969,1,0,0:0:0:0:
192,192,93055,1,0,0:0:0:0:
320,192,93141,1,0,0:0:0:0:
448,192,93141,1,0,0:0:0:0:
64,192,93141,1,0,0:0:0:0:
192,192,93227,1,0,0:0:0:0:
448,192,93312,1,0,0:0:0:0:
320,192,93312,1,0,0:0:0:0:
64,192,93312,1,0,0:0:0:0:
192,192,93398,1,0,0:0:0:0:
64,192,93484,1,0,0:0:0:0:
320,192,93484,1,0,0:0:0:0:
448,192,93484,1,0,0:0:0:0:
192,192,93569,1,0,0:0:0:0:
320,192,93655,1,0,0:0:0:0:
64,192,93655,1,0,0:0:0:0:
448,192,93741,1,0,0:0:0:0:
320,192,93827,1,0,0:0:0:0:
192,192,93827,1,0,0:0:0:0:
64,192,93827,1,0,0:0:0:0:
448,192,93912,1,0,0:0:0:0:
320,192,93998,1,0,0:0:0:0:
192,192,93998,1,0,0:0:0:0:
64,192,94084,1,0,0:0:0:0:
320,192,94169,1,0,0:0:0:0:
192,192,94169,1,0,0:0:0:0:
448,192,94169,1,0,0:0:0:0:
64,192,94255,1,0,0:0:0:0:
192,192,94341,1,0,0:0:0:0:
448,192,94341,1,0,0:0:0:0:
320,192,94427,1,0,0:0:0:0:
192,192,94512,1,0,0:0:0:0:
64,192,94512,1,0,0:0:0:0:
448,192,94512,1,0,0:0:0:0:
320,192,94598,1,0,0:0:0:0:
192,192,94684,1,0,0:0:0:0:
64,192,94684,1,0,0:0:0:0:
448,192,94769,1,0,0:0:0:0:
320,192,94855,1,0,0:0:0:0:
192,192,94855,1,0,0:0:0:0:
64,192,94855,1,0,0:0:0:0:
448,192,94941,1,0,0:0:0:0:
320,192,95027,1,0,0:0:0:0:
64,192,95027,1,0,0:0:0:0:
192,192,95112,5,0,0:0:0:0:
320,192,95198,1,0,0:0:0:0:
448,192,95198,1,0,0:0:0:0:
64,192,95198,1,0,0:0:0:0:
192,192,95284,1,0,0:0:0:0:
448,192,95369,1,0,0:0:0:0:
320,192,95369,1,0,0:0:0:0:
64,192,95455,1,0,0:0:0:0:
192,192,95541,1,0,0:0:0:0:
448,192,95541,1,0,0:0:0:0:
320,192,95541,1,0,0:0:0:0:
64,192,95627,1,0,0:0:0:0:
192,192,95712,1,0,0:0:0:0:
320,192,95712,1,0,0:0:0:0:
448,192,95798,1,0,0:0:0:0:
192,192,95884,1,0,0:0:0:0:
320,192,95884,1,0,0:0:0:0:
64,192,95884,1,0,0:0:0:0:
448,192,95969,1,0,0:0:0:0:
320,192,96055,1,0,0:0:0:0:
64,192,96055,1,0,0:0:0:0:
192,192,96141,1,0,0:0:0:0:
320,192,96227,5,0,0:0:0:0:
64,192,96227,1,0,0:0:0:0:
448,192,96227,1,0,0:0:0:0:
192,192,96398,1,0,0:0:0:0:
64,192,96398,1,0,0:0:0:0:
448,192,96398,1,0,0:0:0:0:
320,192,96569,1,0,0:0:0:0:
192,192,96569,1,0,0:0:0:0:
448,192,96569,1,0,0:0:0:0:
320,192,96741,1,0,0:0:0:0:
192,192,96741,1,0,0:0:0:0:
64,192,96741,1,0,0:0:0:0:
320,192,96912,1,0,0:0:0:0:
448,192,96912,1,0,0:0:0:0:
64,192,96912,1,0,0:0:0:0:
192,192,97084,1,0,0:0:0:0:
64,192,97084,1,0,0:0:0:0:
448,192,97084,1,0,0:0:0:0:
192,192,97255,1,0,0:0:0:0:
320,192,97255,1,0,0:0:0:0:
448,192,97255,1,0,0:0:0:0:
320,192,97427,1,0,0:0:0:0:
192,192,97427,1,0,0:0:0:0:
64,192,97427,1,0,0:0:0:0:
64,192,97769,1,0,0:0:0:0:
192,192,97769,1,0,0:0:0:0:
448,192,97769,1,0,0:0:0:0:
320,192,97855,1,0,0:0:0:0:
192,192,97941,1,0,0:0:0:0:
320,192,98027,1,0,0:0:0:0:
448,192,98027,1,0,0:0:0:0:
64,192,98027,1,0,0:0:0:0:
192,192,98112,1,0,0:0:0:0:
320,192,98198,1,0,0:0:0:0:
64,192,98284,1,0,0:0:0:0:
448,192,98284,1,0,0:0:0:0:
320,192,98327,1,0,0:0:0:0:
192,192,98369,1,0,0:0:0:0:
64,192,98412,1,0,0:0:0:0:
448,192,98455,1,0,0:0:0:0:
320,192,98498,1,0,0:0:0:0:
192,192,98541,1,0,0:0:0:0:
64,192,98584,1,0,0:0:0:0:
320,192,98627,1,0,0:0:0:0:
448,192,98627,128,0,98969:0:0:0:0:
192,192,98712,1,0,0:0:0:0:
64,192,98798,1,0,0:0:0:0:
320,192,98884,1,0,0:0:0:0:
192,192,98969,1,0,0:0:0:0:
64,192,98969,1,0,0:0:0:0:
320,192,99055,1,0,0:0:0:0:
448,192,99141,1,0,0:0:0:0:
192,192,99141,1,0,0:0:0:0:
64,192,99227,1,0,0:0:0:0:
320,192,99312,1,0,0:0:0:0:
448,192,99312,1,0,0:0:0:0:
192,192,99398,1,0,0:0:0:0:
64,192,99398,1,0,0:0:0:0:
320,192,99484,1,0,0:0:0:0:
448,192,99484,1,0,0:0:0:0:
192,192,99569,1,0,0:0:0:0:
64,192,99569,1,0,0:0:0:0:
64,192,99655,1,0,0:0:0:0:
320,192,99655,1,0,0:0:0:0:
448,192,99655,1,0,0:0:0:0:
192,192,99741,1,0,0:0:0:0:
320,192,99827,1,0,0:0:0:0:
192,192,99912,1,0,0:0:0:0:
64,192,99912,1,0,0:0:0:0:
448,192,99912,1,0,0:0:0:0:
320,192,99998,1,0,0:0:0:0:
192,192,100084,1,0,0:0:0:0:
448,192,100169,1,0,0:0:0:0:
64,192,100169,1,0,0:0:0:0:
320,192,100255,1,0,0:0:0:0:
192,192,100255,1,0,0:0:0:0:
64,192,100341,1,0,0:0:0:0:
448,192,100341,1,0,0:0:0:0:
320,192,100427,1,0,0:0:0:0:
192,192,100512,1,0,0:0:0:0:
64,192,100512,1,0,0:0:0:0:
320,192,100598,1,0,0:0:0:0:
448,192,100598,1,0,0:0:0:0:
192,192,100684,1,0,0:0:0:0:
64,192,100684,1,0,0:0:0:0:
320,192,100769,1,0,0:0:0:0:
448,192,100855,1,0,0:0:0:0:
192,192,100855,1,0,0:0:0:0:
64,192,100941,1,0,0:0:0:0:
320,192,100941,1,0,0:0:0:0:
192,192,101027,1,0,0:0:0:0:
320,192,101027,1,0,0:0:0:0:
448,192,101027,1,0,0:0:0:0:
64,192,101112,1,0,0:0:0:0:
192,192,101198,1,0,0:0:0:0:
320,192,101284,1,0,0:0:0:0:
448,192,101369,1,0,0:0:0:0:
192,192,101369,1,0,0:0:0:0:
64,192,101369,1,0,0:0:0:0:
320,192,101455,1,0,0:0:0:0:
64,192,101541,1,0,0:0:0:0:
192,192,101627,1,0,0:0:0:0:
320,192,101712,1,0,0:0:0:0:
448,192,101712,1,0,0:0:0:0:
64,192,101712,1,0,0:0:0:0:
192,192,101798,1,0,0:0:0:0:
64,192,101884,1,0,0:0:0:0:
320,192,101884,1,0,0:0:0:0:
448,192,101969,1,0,0:0:0:0:
192,192,102055,1,0,0:0:0:0:
64,192,102055,1,0,0:0:0:0:
320,192,102141,1,0,0:0:0:0:
448,192,102141,1,0,0:0:0:0:
192,192,102227,1,0,0:0:0:0:
64,192,102227,1,0,0:0:0:0:
320,192,102312,1,0,0:0:0:0:
448,192,102312,1,0,0:0:0:0:
448,192,102398,1,0,0:0:0:0:
192,192,102398,1,0,0:0:0:0:
64,192,102398,1,0,0:0:0:0:
320,192,102484,1,0,0:0:0:0:
192,192,102569,1,0,0:0:0:0:
320,192,102655,1,0,0:0:0:0:
448,192,102655,1,0,0:0:0:0:
64,192,102655,1,0,0:0:0:0:
192,192,102741,1,0,0:0:0:0:
320,192,102827,1,0,0:0:0:0:
64,192,102912,1,0,0:0:0:0:
448,192,102912,1,0,0:0:0:0:
192,192,102998,1,0,0:0:0:0:
320,192,102998,1,0,0:0:0:0:
448,192,103084,1,0,0:0:0:0:
64,192,103084,1,0,0:0:0:0:
192,192,103169,1,0,0:0:0:0:
320,192,103255,1,0,0:0:0:0:
448,192,103255,1,0,0:0:0:0:
192,192,103341,1,0,0:0:0:0:
64,192,103341,1,0,0:0:0:0:
320,192,103427,1,0,0:0:0:0:
448,192,103427,1,0,0:0:0:0:
192,192,103512,1,0,0:0:0:0:
64,192,103598,1,0,0:0:0:0:
320,192,103598,1,0,0:0:0:0:
448,192,103684,1,0,0:0:0:0:
192,192,103684,1,0,0:0:0:0:
320,192,103769,1,0,0:0:0:0:
192,192,103769,1,0,0:0:0:0:
64,192,103769,1,0,0:0:0:0:
448,192,103855,1,0,0:0:0:0:
320,192,103941,1,0,0:0:0:0:
192,192,104027,1,0,0:0:0:0:
64,192,104112,1,0,0:0:0:0:
320,192,104112,1,0,0:0:0:0:
448,192,104112,1,0,0:0:0:0:
192,192,104198,1,0,0:0:0:0:
448,192,104284,1,0,0:0:0:0:
320,192,104369,1,0,0:0:0:0:
192,192,104455,1,0,0:0:0:0:
64,192,104455,1,0,0:0:0:0:
448,192,104455,1,0,0:0:0:0:
320,192,104541,1,0,0:0:0:0:
192,192,104627,1,0,0:0:0:0:
64,192,104627,1,0,0:0:0:0:
448,192,104712,1,0,0:0:0:0:
320,192,104798,1,0,0:0:0:0:
64,192,104798,1,0,0:0:0:0:
192,192,104884,1,0,0:0:0:0:
448,192,104884,1,0,0:0:0:0:
320,192,104969,1,0,0:0:0:0:
64,192,104969,1,0,0:0:0:0:
192,192,105055,1,0,0:0:0:0:
448,192,105055,1,0,0:0:0:0:
320,192,105141,1,0,0:0:0:0:
192,192,105141,1,0,0:0:0:0:
64,192,105141,1,0,0:0:0:0:
448,192,105227,1,0,0:0:0:0:
64,192,105312,1,0,0:0:0:0:
192,192,105398,1,0,0:0:0:0:
320,192,105398,1,0,0:0:0:0:
448,192,105398,1,0,0:0:0:0:
64,192,105484,1,0,0:0:0:0:
448,192,105569,1,0,0:0:0:0:
64,192,105655,1,0,0:0:0:0:
192,192,105655,1,0,0:0:0:0:
320,192,105741,1,0,0:0:0:0:
448,192,105741,1,0,0:0:0:0:
192,192,105827,1,0,0:0:0:0:
64,192,105827,1,0,0:0:0:0:
320,192,105912,1,0,0:0:0:0:
448,192,105998,1,0,0:0:0:0:
64,192,105998,1,0,0:0:0:0:
320,192,106084,1,0,0:0:0:0:
192,192,106084,1,0,0:0:0:0:
448,192,106169,1,0,0:0:0:0:
64,192,106169,1,0,0:0:0:0:
192,192,106255,1,0,0:0:0:0:
320,192,106341,1,0,0:0:0:0:
64,192,106341,1,0,0:0:0:0:
192,192,106427,1,0,0:0:0:0:
448,192,106427,1,0,0:0:0:0:
320,192,106512,1,0,0:0:0:0:
448,192,106512,1,0,0:0:0:0:
64,192,106512,1,0,0:0:0:0:
192,192,106598,1,0,0:0:0:0:
320,192,106684,1,0,0:0:0:0:
64,192,106769,1,0,0:0:0:0:
192,192,106855,1,0,0:0:0:0:
320,192,106855,1,0,0:0:0:0:
448,192,106855,1,0,0:0:0:0:
64,192,106941,1,0,0:0:0:0:
448,192,107027,1,0,0:0:0:0:
192,192,107112,1,0,0:0:0:0:
320,192,107198,1,0,0:0:0:0:
64,192,107198,1,0,0:0:0:0:
448,192,107198,1,0,0:0:0:0:
192,192,107369,1,0,0:0:0:0:
64,192,107369,1,0,0:0:0:0:
448,192,107369,1,0,0:0:0:0:
192,192,107541,1,0,0:0:0:0:
320,192,107541,1,0,0:0:0:0:
448,192,107541,1,0,0:0:0:0:
320,192,107712,1,0,0:0:0:0:
192,192,107712,1,0,0:0:0:0:
64,192,107712,1,0,0:0:0:0:
448,192,107884,1,0,0:0:0:0:
320,192,107884,1,0,0:0:0:0:
64,192,107884,1,0,0:0:0:0:
192,192,108055,1,0,0:0:0:0:
64,192,108055,1,0,0:0:0:0:
448,192,108055,1,0,0:0:0:0:
320,192,108227,1,0,0:0:0:0:
64,192,108227,1,0,0:0:0:0:
192,192,108312,1,0,0:0:0:0:
448,192,108312,1,0,0:0:0:0:
64,192,108398,1,0,0:0:0:0:
320,192,108398,1,0,0:0:0:0:
192,192,108484,1,0,0:0:0:0:
448,192,108484,1,0,0:0:0:0:
320,192,108569,1,0,0:0:0:0:
448,192,108569,1,0,0:0:0:0:
64,192,108569,1,0,0:0:0:0:
192,192,108655,1,0,0:0:0:0:
64,192,108741,1,0,0:0:0:0:
448,192,108741,1,0,0:0:0:0:
320,192,108827,1,0,0:0:0:0:
192,192,108912,1,0,0:0:0:0:
64,192,108912,1,0,0:0:0:0:
448,192,108912,1,0,0:0:0:0:
320,192,108998,1,0,0:0:0:0:
448,192,109084,1,0,0:0:0:0:
64,192,109084,1,0,0:0:0:0:
192,192,109169,1,0,0:0:0:0:
320,192,109255,1,0,0:0:0:0:
448,192,109255,1,0,0:0:0:0:
64,192,109255,1,0,0:0:0:0:
192,192,109341,1,0,0:0:0:0:
64,192,109427,1,0,0:0:0:0:
448,192,109427,1,0,0:0:0:0:
320,192,109512,1,0,0:0:0:0:
192,192,109598,1,0,0:0:0:0:
64,192,109598,1,0,0:0:0:0:
448,192,109598,1,0,0:0:0:0:
320,192,109684,1,0,0:0:0:0:
448,192,109769,1,0,0:0:0:0:
64,192,109769,1,0,0:0:0:0:
192,192,109855,1,0,0:0:0:0:
448,192,109941,1,0,0:0:0:0:
320,192,109941,1,0,0:0:0:0:
64,192,109941,1,0,0:0:0:0:
64,192,110112,1,0,0:0:0:0:
192,192,110112,1,0,0:0:0:0:
64,192,110284,1,0,0:0:0:0:
320,192,110284,1,0,0:0:0:0:
448,192,110284,1,0,0:0:0:0:
64,192,110455,1,0,0:0:0:0:
192,192,110455,1,0,0:0:0:0:
448,192,110627,1,0,0:0:0:0:
320,192,110627,1,0,0:0:0:0:
192,192,110627,1,0,0:0:0:0:
448,192,110798,1,0,0:0:0:0:
64,192,110798,1,0,0:0:0:0:
448,192,110969,1,0,0:0:0:0:
320,192,110969,1,0,0:0:0:0:
192,192,110969,1,0,0:0:0:0:
448,192,111141,1,0,0:0:0:0:
64,192,111141,1,0,0:0:0:0:
192,192,111312,1,0,0:0:0:0:
448,192,111312,1,0,0:0:0:0:
320,192,111312,1,0,0:0:0:0:
192,192,111484,1,0,0:0:0:0:
64,192,111484,1,0,0:0:0:0:
192,192,111655,1,0,0:0:0:0:
320,192,111655,1,0,0:0:0:0:
448,192,111655,1,0,0:0:0:0:
192,192,111827,1,0,0:0:0:0:
64,192,111827,1,0,0:0:0:0:
320,192,111998,1,0,0:0:0:0:
448,192,111998,1,0,0:0:0:0:
64,192,111998,1,0,0:0:0:0:
320,192,112169,1,0,0:0:0:0:
192,192,112169,1,0,0:0:0:0:
320,192,112341,1,0,0:0:0:0:
64,192,112341,1,0,0:0:0:0:
448,192,112341,1,0,0:0:0:0:
320,192,112512,1,0,0:0:0:0:
192,192,112512,1,0,0:0:0:0:
64,192,112684,1,0,0:0:0:0:
192,192,112684,1,0,0:0:0:0:
448,192,112684,1,0,0:0:0:0:
64,192,112855,1,0,0:0:0:0:
320,192,112855,1,0,0:0:0:0:
64,192,113027,1,0,0:0:0:0:
192,192,113027,1,0,0:0:0:0:
448,192,113027,1,0,0:0:0:0:
64,192,113198,1,0,0:0:0:0:
320,192,113198,1,0,0:0:0:0:
448,192,113369,1,0,0:0:0:0:
192,192,113369,1,0,0:0:0:0:
320,192,113369,1,0,0:0:0:0:
448,192,113541,1,0,0:0:0:0:
64,192,113541,1,0,0:0:0:0:
448,192,113712,1,0,0:0:0:0:
192,192,113712,1,0,0:0:0:0:
320,192,113712,1,0,0:0:0:0:
448,192,113884,1,0,0:0:0:0:
64,192,113884,1,0,0:0:0:0:
192,192,114055,1,0,0:0:0:0:
320,192,114055,1,0,0:0:0:0:
64,192,114055,1,0,0:0:0:0:
192,192,114227,1,0,0:0:0:0:
448,192,114227,1,0,0:0:0:0:
192,192,114398,1,0,0:0:0:0:
320,192,114398,1,0,0:0:0:0:
64,192,114398,1,0,0:0:0:0:
192,192,114569,1,0,0:0:0:0:
448,192,114569,1,0,0:0:0:0:
320,192,114741,1,0,0:0:0:0:
448,192,114741,1,0,0:0:0:0:
64,192,114741,1,0,0:0:0:0:
320,192,114912,1,0,0:0:0:0:
192,192,114912,1,0,0:0:0:0:
320,192,115084,1,0,0:0:0:0:
64,192,115084,1,0,0:0:0:0:
448,192,115084,1,0,0:0:0:0:
320,192,115255,1,0,0:0:0:0:
192,192,115255,1,0,0:0:0:0:
64,192,115427,1,0,0:0:0:0:
448,192,115427,1,0,0:0:0:0:
192,192,115427,1,0,0:0:0:0:
64,192,115598,1,0,0:0:0:0:
320,192,115598,1,0,0:0:0:0:
64,192,115769,1,0,0:0:0:0:
192,192,115769,1,0,0:0:0:0:
448,192,115769,1,0,0:0:0:0:
64,192,115941,1,0,0:0:0:0:
320,192,115941,1,0,0:0:0:0:
192,192,116112,1,0,0:0:0:0:
448,192,116112,1,0,0:0:0:0:
320,192,116112,1,0,0:0:0:0:
192,192,116284,1,0,0:0:0:0:
64,192,116284,1,0,0:0:0:0:
192,192,116455,1,0,0:0:0:0:
320,192,116455,1,0,0:0:0:0:
448,192,116455,1,0,0:0:0:0:
192,192,116627,1,0,0:0:0:0:
64,192,116627,1,0,0:0:0:0:
320,192,116798,1,0,0:0:0:0:
448,192,116798,1,0,0:0:0:0:
64,192,116798,1,0,0:0:0:0:
320,192,116969,1,0,0:0:0:0:
192,192,116969,1,0,0:0:0:0:
320,192,117141,1,0,0:0:0:0:
448,192,117141,1,0,0:0:0:0:
64,192,117141,1,0,0:0:0:0:
320,192,117312,1,0,0:0:0:0:
192,192,117312,1,0,0:0:0:0:
448,192,117484,1,0,0:0:0:0:
320,192,117484,1,0,0:0:0:0:
64,192,117484,1,0,0:0:0:0:
448,192,117655,1,0,0:0:0:0:
192,192,117655,1,0,0:0:0:0:
448,192,117827,1,0,0:0:0:0:
320,192,117827,1,0,0:0:0:0:
64,192,117827,1,0,0:0:0:0:
448,192,117998,1,0,0:0:0:0:
192,192,117998,1,0,0:0:0:0:
192,192,118169,1,0,0:0:0:0:
64,192,118169,1,0,0:0:0:0:
320,192,118169,1,0,0:0:0:0:
192,192,118341,1,0,0:0:0:0:
64,192,118341,1,0,0:0:0:0:
192,192,118512,1,0,0:0:0:0:
64,192,118512,1,0,0:0:0:0:
320,192,118512,1,0,0:0:0:0:
192,192,118684,1,0,0:0:0:0:
64,192,118684,1,0,0:0:0:0:
320,192,118855,1,0,0:0:0:0:
448,192,118855,1,0,0:0:0:0:
64,192,118855,1,0,0:0:0:0:
320,192,119027,1,0,0:0:0:0:
448,192,119027,1,0,0:0:0:0:
320,192,119198,1,0,0:0:0:0:
448,192,119198,1,0,0:0:0:0:
64,192,119198,1,0,0:0:0:0:
320,192,119369,1,0,0:0:0:0:
448,192,119369,1,0,0:0:0:0:
448,192,119541,1,0,0:0:0:0:
64,192,119541,1,0,0:0:0:0:
192,192,119541,1,0,0:0:0:0:
64,192,119712,1,0,0:0:0:0:
448,192,119712,1,0,0:0:0:0:
448,192,119884,1,0,0:0:0:0:
64,192,119884,1,0,0:0:0:0:
320,192,119884,1,0,0:0:0:0:
64,192,120055,1,0,0:0:0:0:
448,192,120055,1,0,0:0:0:0:
448,192,120227,1,0,0:0:0:0:
64,192,120227,1,0,0:0:0:0:
192,192,120227,1,0,0:0:0:0:
64,192,120398,1,0,0:0:0:0:
448,192,120398,1,0,0:0:0:0:
192,192,120484,1,0,0:0:0:0:
448,192,120569,1,0,0:0:0:0:
64,192,120569,1,0,0:0:0:0:
320,192,120569,1,0,0:0:0:0:
448,192,120741,1,0,0:0:0:0:
64,192,120741,1,0,0:0:0:0:
192,192,120912,1,0,0:0:0:0:
64,192,120912,1,0,0:0:0:0:
448,192,120912,1,0,0:0:0:0:
320,192,121084,128,0,121169:0:0:0:0:
192,192,121255,128,0,121341:0:0:0:0:
64,192,121427,128,0,121512:0:0:0:0:
320,192,121598,1,0,0:0:0:0:
448,192,121769,128,0,121855:0:0:0:0:
320,192,121941,128,0,122027:0:0:0:0:
192,192,122112,128,0,122198:0:0:0:0:
448,192,122284,1,0,0:0:0:0:
64,192,122455,128,0,122541:0:0:0:0:
192,192,122627,128,0,122712:0:0:0:0:
320,192,122798,128,0,122884:0:0:0:0:
64,192,122969,1,0,0:0:0:0:
192,192,123141,128,0,123227:0:0:0:0:
320,192,123312,128,0,123398:0:0:0:0:
448,192,123484,128,0,123569:0:0:0:0:
192,192,123655,1,0,0:0:0:0:
320,192,123827,128,0,123912:0:0:0:0:
64,192,123998,128,0,124084:0:0:0:0:
448,192,124169,128,0,124255:0:0:0:0:
320,192,124341,1,0,0:0:0:0:
192,192,124512,128,0,124598:0:0:0:0:
448,192,124684,128,0,124769:0:0:0:0:
64,192,124855,128,0,124941:0:0:0:0:
192,192,125027,1,0,0:0:0:0:
320,192,125198,128,0,125284:0:0:0:0:
448,192,125369,128,0,125455:0:0:0:0:
64,192,125541,128,0,125627:0:0:0:0:
320,192,125712,1,0,0:0:0:0:
192,192,125884,1,0,0:0:0:0:
320,192,126055,128,0,126312:0:0:0:0:
448,192,126055,128,0,126312:0:0:0:0:
64,192,126055,128,0,126312:0:0:0:0:
448,192,126398,1,0,0:0:0:0:
64,192,126398,1,0,0:0:0:0:
320,192,126398,1,0,0:0:0:0:
448,192,126569,1,0,0:0:0:0:
64,192,126569,1,0,0:0:0:0:
192,192,126655,1,0,0:0:0:0:
320,192,126655,1,0,0:0:0:0:
64,192,126741,1,0,0:0:0:0:
448,192,126741,1,0,0:0:0:0:
320,192,126912,1,0,0:0:0:0:
192,192,126912,1,0,0:0:0:0:
448,192,127084,1,0,0:0:0:0:
320,192,127127,1,0,0:0:0:0:
192,192,127169,1,0,0:0:0:0:
64,192,127212,1,0,0:0:0:0:
448,192,127255,1,0,0:0:0:0:
320,192,127298,1,0,0:0:0:0:
192,192,127341,1,0,0:0:0:0:
64,192,127384,1,0,0:0:0:0:
448,192,127427,1,0,0:0:0:0:
320,192,127469,1,0,0:0:0:0:
192,192,127512,1,0,0:0:0:0:
64,192,127555,1,0,0:0:0:0:
320,192,127598,1,0,0:0:0:0:
448,192,127598,1,0,0:0:0:0:
192,192,127684,1,0,0:0:0:0:
64,192,127684,1,0,0:0:0:0:
448,192,127769,128,0,127855:0:0:0:0:
320,192,127769,128,0,127855:0:0:0:0:
320,192,127941,128,0,128027:0:0:0:0:
192,192,127941,128,0,128027:0:0:0:0:
64,192,128112,128,0,128455:0:0:0:0:
192,192,128112,128,0,128455:0:0:0:0:
448,192,128455,1,0,0:0:0:0:
320,192,128498,1,0,0:0:0:0:
64,192,128541,1,0,0:0:0:0:
192,192,128584,1,0,0:0:0:0:
448,192,128627,1,0,0:0:0:0:
320,192,128669,1,0,0:0:0:0:
64,192,128712,1,0,0:0:0:0:
192,192,128755,1,0,0:0:0:0:
448,192,128798,1,0,0:0:0:0:
320,192,128841,1,0,0:0:0:0:
64,192,128884,1,0,0:0:0:0:
192,192,128927,1,0,0:0:0:0:
448,192,128969,1,0,0:0:0:0:
320,192,129012,1,0,0:0:0:0:
64,192,129055,1,0,0:0:0:0:
192,192,129098,1,0,0:0:0:0:
320,192,129141,1,0,0:0:0:0:
448,192,129141,1,0,0:0:0:0:
192,192,129484,1,0,0:0:0:0:
320,192,129484,1,0,0:0:0:0:
320,192,129655,1,0,0:0:0:0:
192,192,129655,1,0,0:0:0:0:
64,192,129827,1,0,0:0:0:0:
192,192,129869,1,0,0:0:0:0:
320,192,129912,1,0,0:0:0:0:
448,192,129955,1,0,0:0:0:0:
64,192,129998,1,0,0:0:0:0:
192,192,130041,1,0,0:0:0:0:
320,192,130084,1,0,0:0:0:0:
448,192,130127,1,0,0:0:0:0:
64,192,130169,1,0,0:0:0:0:
192,192,130212,1,0,0:0:0:0:
320,192,130255,1,0,0:0:0:0:
448,192,130298,1,0,0:0:0:0:
64,192,130341,1,0,0:0:0:0:
192,192,130341,1,0,0:0:0:0:
448,192,130427,1,0,0:0:0:0:
320,192,130427,1,0,0:0:0:0:
192,192,130512,1,0,0:0:0:0:
64,192,130512,1,0,0:0:0:0:
320,192,130684,128,0,130769:0:0:0:0:
448,192,130855,1,0,0:0:0:0:
192,192,130855,128,0,130941:0:0:0:0:
64,192,131027,128,0,131112:0:0:0:0:
320,192,131198,1,0,0:0:0:0:
448,192,131198,1,0,0:0:0:0:
192,192,131198,1,0,0:0:0:0:
192,192,131369,128,0,131455:0:0:0:0:
320,192,131541,128,0,131627:0:0:0:0:
448,192,131712,128,0,131798:0:0:0:0:
192,192,131884,1,0,0:0:0:0:
64,192,131884,1,0,0:0:0:0:
320,192,131884,1,0,0:0:0:0:
448,192,132055,1,0,0:0:0:0:
192,192,132227,1,0,0:0:0:0:
64,192,132398,1,0,0:0:0:0:
192,192,132484,1,0,0:0:0:0:
320,192,132484,1,0,0:0:0:0:
448,192,132569,1,0,0:0:0:0:
64,192,132569,1,0,0:0:0:0:
192,192,132741,1,0,0:0:0:0:
320,192,132912,1,0,0:0:0:0:
192,192,133084,1,0,0:0:0:0:
64,192,133084,1,0,0:0:0:0:
320,192,133169,1,0,0:0:0:0:
448,192,133169,1,0,0:0:0:0:
192,192,133255,1,0,0:0:0:0:
64,192,133255,1,0,0:0:0:0:
320,192,133427,1,0,0:0:0:0:
192,192,133598,1,0,0:0:0:0:
64,192,133598,1,0,0:0:0:0:
448,192,133769,1,0,0:0:0:0:
320,192,133769,1,0,0:0:0:0:
192,192,133855,1,0,0:0:0:0:
64,192,133941,1,0,0:0:0:0:
448,192,133941,1,0,0:0:0:0:
320,192,134112,1,0,0:0:0:0:
448,192,134284,1,0,0:0:0:0:
192,192,134284,1,0,0:0:0:0:
320,192,134369,1,0,0:0:0:0:
64,192,134369,1,0,0:0:0:0:
192,192,134455,1,0,0:0:0:0:
448,192,134541,1,0,0:0:0:0:
64,192,134541,1,0,0:0:0:0:
192,192,134627,1,0,0:0:0:0:
320,192,134627,1,0,0:0:0:0:
448,192,134798,1,0,0:0:0:0:
192,192,134969,1,0,0:0:0:0:
320,192,135141,1,0,0:0:0:0:
192,192,135227,1,0,0:0:0:0:
448,192,135227,1,0,0:0:0:0:
320,192,135312,1,0,0:0:0:0:
64,192,135312,1,0,0:0:0:0:
192,192,135484,1,0,0:0:0:0:
448,192,135655,1,0,0:0:0:0:
192,192,135827,1,0,0:0:0:0:
320,192,135827,1,0,0:0:0:0:
448,192,135912,1,0,0:0:0:0:
64,192,135912,1,0,0:0:0:0:
192,192,135998,1,0,0:0:0:0:
320,192,135998,1,0,0:0:0:0:
64,192,136169,1,0,0:0:0:0:
448,192,136169,1,0,0:0:0:0:
320,192,136255,1,0,0:0:0:0:
192,192,136341,1,0,0:0:0:0:
64,192,136341,1,0,0:0:0:0:
320,192,136427,1,0,0:0:0:0:
448,192,136427,1,0,0:0:0:0:
192,192,136512,1,0,0:0:0:0:
320,192,136598,1,0,0:0:0:0:
64,192,136684,1,0,0:0:0:0:
192,192,136727,1,0,0:0:0:0:
320,192,136769,1,0,0:0:0:0:
448,192,136812,1,0,0:0:0:0:
192,192,136855,1,0,0:0:0:0:
64,192,136855,1,0,0:0:0:0:
320,192,136941,1,0,0:0:0:0:
448,192,137027,128,0,137284:0:0:0:0:
192,192,137027,128,0,137284:0:0:0:0:
64,192,137027,128,0,137284:0:0:0:0:
64,192,137369,1,0,0:0:0:0:
192,192,137369,1,0,0:0:0:0:
448,192,137369,1,0,0:0:0:0:
64,192,137541,1,0,0:0:0:0:
448,192,137541,1,0,0:0:0:0:
320,192,137627,1,0,0:0:0:0:
192,192,137627,1,0,0:0:0:0:
448,192,137712,1,0,0:0:0:0:
64,192,137712,1,0,0:0:0:0:
320,192,137712,1,0,0:0:0:0:
192,192,137884,1,0,0:0:0:0:
448,192,137884,1,0,0:0:0:0:
64,192,138055,1,0,0:0:0:0:
192,192,138098,1,0,0:0:0:0:
320,192,138141,1,0,0:0:0:0:
448,192,138184,1,0,0:0:0:0:
64,192,138227,1,0,0:0:0:0:
192,192,138269,1,0,0:0:0:0:
320,192,138312,1,0,0:0:0:0:
448,192,138355,1,0,0:0:0:0:
64,192,138398,1,0,0:0:0:0:
192,192,138441,1,0,0:0:0:0:
320,192,138484,1,0,0:0:0:0:
448,192,138527,1,0,0:0:0:0:
192,192,138569,1,0,0:0:0:0:
64,192,138569,1,0,0:0:0:0:
320,192,138655,1,0,0:0:0:0:
448,192,138655,1,0,0:0:0:0:
64,192,138741,128,0,138827:0:0:0:0:
192,192,138741,128,0,138827:0:0:0:0:
192,192,138912,128,0,138998:0:0:0:0:
320,192,138912,128,0,138998:0:0:0:0:
448,192,139084,128,0,139427:0:0:0:0:
320,192,139084,128,0,139427:0:0:0:0:
64,192,139084,1,0,0:0:0:0:
64,192,139427,1,0,0:0:0:0:
192,192,139469,1,0,0:0:0:0:
448,192,139512,1,0,0:0:0:0:
320,192,139555,1,0,0:0:0:0:
64,192,139598,1,0,0:0:0:0:
192,192,139641,1,0,0:0:0:0:
448,192,139684,1,0,0:0:0:0:
320,192,139727,1,0,0:0:0:0:
64,192,139769,1,0,0:0:0:0:
192,192,139812,1,0,0:0:0:0:
448,192,139855,1,0,0:0:0:0:
320,192,139898,1,0,0:0:0:0:
64,192,139941,1,0,0:0:0:0:
192,192,139984,1,0,0:0:0:0:
448,192,140027,1,0,0:0:0:0:
320,192,140069,1,0,0:0:0:0:
192,192,140112,1,0,0:0:0:0:
64,192,140112,1,0,0:0:0:0:
320,192,140284,128,0,140455:0:0:0:0:
448,192,140284,128,0,140455:0:0:0:0:
192,192,140455,1,0,0:0:0:0:
64,192,140455,1,0,0:0:0:0:
192,192,140627,128,0,140798:0:0:0:0:
64,192,140627,128,0,140798:0:0:0:0:
320,192,140798,1,0,0:0:0:0:
448,192,140798,1,0,0:0:0:0:
448,192,140969,128,0,141141:0:0:0:0:
192,192,140969,128,0,141141:0:0:0:0:
64,192,141141,1,0,0:0:0:0:
320,192,141141,1,0,0:0:0:0:
320,192,141312,128,0,141484:0:0:0:0:
64,192,141312,128,0,141484:0:0:0:0:
192,192,141484,1,0,0:0:0:0:
448,192,141484,1,0,0:0:0:0:
320,192,141569,1,0,0:0:0:0:
64,192,141569,1,0,0:0:0:0:
192,192,141655,1,0,0:0:0:0:
448,192,141655,1,0,0:0:0:0:
320,192,141741,5,0,0:0:0:0:
64,192,141741,1,0,0:0:0:0:
192,192,141827,1,0,0:0:0:0:
448,192,141827,1,0,0:0:0:0:
320,192,141912,1,0,0:0:0:0:
64,192,141912,1,0,0:0:0:0:
192,192,141998,1,0,0:0:0:0:
448,192,141998,1,0,0:0:0:0:
320,192,142084,1,0,0:0:0:0:
64,192,142084,1,0,0:0:0:0:
192,192,142169,1,0,0:0:0:0:
64,192,142169,1,0,0:0:0:0:
448,192,142169,1,0,0:0:0:0:
192,192,142855,1,0,0:0:0:0:
320,192,142855,1,0,0:0:0:0:
448,192,142855,1,0,0:0:0:0:
64,192,142941,1,0,0:0:0:0:
192,192,143027,1,0,0:0:0:0:
448,192,143027,1,0,0:0:0:0:
320,192,143112,1,0,0:0:0:0:
192,192,143198,1,0,0:0:0:0:
64,192,143198,1,0,0:0:0:0:
448,192,143198,1,0,0:0:0:0:
320,192,143284,1,0,0:0:0:0:
192,192,143369,1,0,0:0:0:0:
64,192,143369,1,0,0:0:0:0:
448,192,143455,1,0,0:0:0:0:
320,192,143541,1,0,0:0:0:0:
192,192,143541,1,0,0:0:0:0:
64,192,143541,1,0,0:0:0:0:
448,192,143627,1,0,0:0:0:0:
320,192,143712,1,0,0:0:0:0:
64,192,143712,1,0,0:0:0:0:
192,192,143798,1,0,0:0:0:0:
64,192,143884,1,0,0:0:0:0:
320,192,143884,1,0,0:0:0:0:
448,192,143884,1,0,0:0:0:0:
192,192,143969,1,0,0:0:0:0:
320,192,144055,1,0,0:0:0:0:
448,192,144055,1,0,0:0:0:0:
64,192,144141,1,0,0:0:0:0:
192,192,144227,1,0,0:0:0:0:
320,192,144227,1,0,0:0:0:0:
448,192,144227,1,0,0:0:0:0:
64,192,144312,1,0,0:0:0:0:
192,192,144398,1,0,0:0:0:0:
320,192,144398,1,0,0:0:0:0:
448,192,144484,1,0,0:0:0:0:
320,192,144569,1,0,0:0:0:0:
192,192,144569,1,0,0:0:0:0:
64,192,144569,1,0,0:0:0:0:
448,192,144655,1,0,0:0:0:0:
192,192,144741,1,0,0:0:0:0:
64,192,144741,1,0,0:0:0:0:
320,192,144827,1,0,0:0:0:0:
448,192,144912,1,0,0:0:0:0:
192,192,144912,1,0,0:0:0:0:
64,192,144912,1,0,0:0:0:0:
320,192,144998,1,0,0:0:0:0:
448,192,145084,1,0,0:0:0:0:
64,192,145084,1,0,0:0:0:0:
192,192,145169,1,0,0:0:0:0:
64,192,145255,1,0,0:0:0:0:
320,192,145255,1,0,0:0:0:0:
448,192,145255,1,0,0:0:0:0:
192,192,145341,1,0,0:0:0:0:
320,192,145427,1,0,0:0:0:0:
448,192,145427,1,0,0:0:0:0:
64,192,145512,1,0,0:0:0:0:
192,192,145598,1,0,0:0:0:0:
320,192,145598,1,0,0:0:0:0:
448,192,145598,1,0,0:0:0:0:
64,192,145684,1,0,0:0:0:0:
192,192,145769,1,0,0:0:0:0:
320,192,145769,1,0,0:0:0:0:
448,192,145855,1,0,0:0:0:0:
320,192,145941,1,0,0:0:0:0:
192,192,145941,1,0,0:0:0:0:
64,192,145941,1,0,0:0:0:0:
448,192,146027,1,0,0:0:0:0:
320,192,146112,1,0,0:0:0:0:
64,192,146112,1,0,0:0:0:0:
192,192,146198,1,0,0:0:0:0:
64,192,146284,1,0,0:0:0:0:
320,192,146284,1,0,0:0:0:0:
448,192,146284,1,0,0:0:0:0:
192,192,146369,1,0,0:0:0:0:
64,192,146455,1,0,0:0:0:0:
448,192,146455,1,0,0:0:0:0:
320,192,146541,1,0,0:0:0:0:
192,192,146627,1,0,0:0:0:0:
64,192,146627,1,0,0:0:0:0:
448,192,146627,1,0,0:0:0:0:
320,192,146798,1,0,0:0:0:0:
192,192,146798,1,0,0:0:0:0:
320,192,146969,1,0,0:0:0:0:
448,192,146969,1,0,0:0:0:0:
64,192,146969,1,0,0:0:0:0:
192,192,147141,1,0,0:0:0:0:
448,192,147141,1,0,0:0:0:0:
320,192,147312,1,0,0:0:0:0:
192,192,147312,1,0,0:0:0:0:
64,192,147312,1,0,0:0:0:0:
448,192,147484,1,0,0:0:0:0:
64,192,147484,1,0,0:0:0:0:
192,192,147655,1,0,0:0:0:0:
320,192,147655,1,0,0:0:0:0:
448,192,147655,1,0,0:0:0:0:
320,192,147827,1,0,0:0:0:0:
64,192,147827,1,0,0:0:0:0:
192,192,147998,1,0,0:0:0:0:
64,192,148169,1,0,0:0:0:0:
448,192,148255,1,0,0:0:0:0:
320,192,148341,1,0,0:0:0:0:
192,192,148341,1,0,0:0:0:0:
64,192,148341,1,0,0:0:0:0:
448,192,148427,1,0,0:0:0:0:
320,192,148512,1,0,0:0:0:0:
64,192,148512,1,0,0:0:0:0:
192,192,148598,1,0,0:0:0:0:
320,192,148684,1,0,0:0:0:0:
448,192,148684,1,0,0:0:0:0:
64,192,148684,1,0,0:0:0:0:
192,192,148769,1,0,0:0:0:0:
64,192,148855,1,0,0:0:0:0:
448,192,148855,1,0,0:0:0:0:
320,192,148941,1,0,0:0:0:0:
448,192,149027,1,0,0:0:0:0:
192,192,149027,1,0,0:0:0:0:
64,192,149027,1,0,0:0:0:0:
320,192,149112,1,0,0:0:0:0:
192,192,149198,1,0,0:0:0:0:
448,192,149198,1,0,0:0:0:0:
64,192,149284,1,0,0:0:0:0:
192,192,149369,1,0,0:0:0:0:
448,192,149369,1,0,0:0:0:0:
320,192,149369,1,0,0:0:0:0:
64,192,149455,1,0,0:0:0:0:
192,192,149541,1,0,0:0:0:0:
320,192,149541,1,0,0:0:0:0:
448,192,149627,1,0,0:0:0:0:
320,192,149712,1,0,0:0:0:0:
192,192,149712,1,0,0:0:0:0:
64,192,149712,1,0,0:0:0:0:
448,192,149798,1,0,0:0:0:0:
320,192,149884,1,0,0:0:0:0:
64,192,149884,1,0,0:0:0:0:
192,192,149969,1,0,0:0:0:0:
64,192,150055,1,0,0:0:0:0:
320,192,150055,1,0,0:0:0:0:
448,192,150055,1,0,0:0:0:0:
192,192,150141,1,0,0:0:0:0:
64,192,150227,1,0,0:0:0:0:
448,192,150227,1,0,0:0:0:0:
320,192,150312,1,0,0:0:0:0:
192,192,150398,1,0,0:0:0:0:
64,192,150398,1,0,0:0:0:0:
448,192,150398,1,0,0:0:0:0:
320,192,150484,1,0,0:0:0:0:
192,192,150569,1,0,0:0:0:0:
448,192,150569,1,0,0:0:0:0:
64,192,150655,1,0,0:0:0:0:
192,192,150741,1,0,0:0:0:0:
320,192,150741,1,0,0:0:0:0:
448,192,150741,1,0,0:0:0:0:
64,192,150827,1,0,0:0:0:0:
192,192,150912,1,0,0:0:0:0:
320,192,150912,1,0,0:0:0:0:
448,192,150998,1,0,0:0:0:0:
320,192,151084,1,0,0:0:0:0:
192,192,151084,1,0,0:0:0:0:
64,192,151084,1,0,0:0:0:0:
448,192,151169,1,0,0:0:0:0:
320,192,151255,1,0,0:0:0:0:
64,192,151255,1,0,0:0:0:0:
192,192,151341,1,0,0:0:0:0:
64,192,151427,1,0,0:0:0:0:
320,192,151427,1,0,0:0:0:0:
448,192,151427,1,0,0:0:0:0:
192,192,151512,1,0,0:0:0:0:
64,192,151598,1,0,0:0:0:0:
448,192,151598,1,0,0:0:0:0:
320,192,151684,1,0,0:0:0:0:
192,192,151769,1,0,0:0:0:0:
64,192,151769,1,0,0:0:0:0:
448,192,151769,1,0,0:0:0:0:
320,192,151855,1,0,0:0:0:0:
448,192,151941,1,0,0:0:0:0:
64,192,151941,1,0,0:0:0:0:
192,192,152027,1,0,0:0:0:0:
320,192,152112,1,0,0:0:0:0:
448,192,152112,1,0,0:0:0:0:
64,192,152198,1,0,0:0:0:0:
320,192,152284,1,0,0:0:0:0:
448,192,152284,1,0,0:0:0:0:
192,192,152284,1,0,0:0:0:0:
320,192,152627,1,0,0:0:0:0:
448,192,152627,1,0,0:0:0:0:
64,192,152627,1,0,0:0:0:0:
192,192,152798,1,0,0:0:0:0:
64,192,152798,1,0,0:0:0:0:
448,192,152798,1,0,0:0:0:0:
320,192,152969,1,0,0:0:0:0:
192,192,153141,1,0,0:0:0:0:
64,192,153141,1,0,0:0:0:0:
448,192,153141,1,0,0:0:0:0:
320,192,153312,1,0,0:0:0:0:
192,192,153398,1,0,0:0:0:0:
320,192,153484,1,0,0:0:0:0:
448,192,153484,1,0,0:0:0:0:
64,192,153484,1,0,0:0:0:0:
192,192,153655,1,0,0:0:0:0:
448,192,153741,1,0,0:0:0:0:
320,192,153827,1,0,0:0:0:0:
192,192,153827,1,0,0:0:0:0:
64,192,153827,1,0,0:0:0:0:
448,192,153912,1,0,0:0:0:0:
192,192,153998,1,0,0:0:0:0:
64,192,153998,1,0,0:0:0:0:
320,192,154084,1,0,0:0:0:0:
448,192,154169,1,0,0:0:0:0:
192,192,154169,1,0,0:0:0:0:
64,192,154169,1,0,0:0:0:0:
320,192,154255,1,0,0:0:0:0:
192,192,154341,1,0,0:0:0:0:
448,192,154341,1,0,0:0:0:0:
64,192,154427,1,0,0:0:0:0:
192,192,154512,1,0,0:0:0:0:
320,192,154512,1,0,0:0:0:0:
448,192,154512,1,0,0:0:0:0:
64,192,154598,1,0,0:0:0:0:
320,192,154684,1,0,0:0:0:0:
448,192,154684,1,0,0:0:0:0:
192,192,154769,1,0,0:0:0:0:
64,192,154855,1,0,0:0:0:0:
320,192,154855,1,0,0:0:0:0:
448,192,154855,1,0,0:0:0:0:
192,192,154941,1,0,0:0:0:0:
64,192,155027,1,0,0:0:0:0:
448,192,155027,1,0,0:0:0:0:
320,192,155112,1,0,0:0:0:0:
192,192,155198,1,0,0:0:0:0:
64,192,155198,1,0,0:0:0:0:
448,192,155198,1,0,0:0:0:0:
320,192,155284,1,0,0:0:0:0:
192,192,155369,1,0,0:0:0:0:
64,192,155369,1,0,0:0:0:0:
448,192,155455,1,0,0:0:0:0:
320,192,155541,1,0,0:0:0:0:
192,192,155541,1,0,0:0:0:0:
64,192,155541,1,0,0:0:0:0:
448,192,155627,1,0,0:0:0:0:
320,192,155712,1,0,0:0:0:0:
192,192,155712,1,0,0:0:0:0:
64,192,155798,1,0,0:0:0:0:
192,192,155884,1,0,0:0:0:0:
320,192,155884,1,0,0:0:0:0:
448,192,155884,1,0,0:0:0:0:
64,192,155969,1,0,0:0:0:0:
192,192,156055,1,0,0:0:0:0:
448,192,156055,1,0,0:0:0:0:
320,192,156141,1,0,0:0:0:0:
192,192,156227,1,0,0:0:0:0:
64,192,156227,1,0,0:0:0:0:
448,192,156227,1,0,0:0:0:0:
320,192,156312,1,0,0:0:0:0:
448,192,156398,1,0,0:0:0:0:
64,192,156398,1,0,0:0:0:0:
192,192,156484,1,0,0:0:0:0:
64,192,156569,1,0,0:0:0:0:
320,192,156569,1,0,0:0:0:0:
448,192,156569,1,0,0:0:0:0:
192,192,156655,1,0,0:0:0:0:
320,192,156741,1,0,0:0:0:0:
448,192,156741,1,0,0:0:0:0:
64,192,156827,1,0,0:0:0:0:
192,192,156912,1,0,0:0:0:0:
320,192,156912,1,0,0:0:0:0:
448,192,156912,1,0,0:0:0:0:
64,192,156998,1,0,0:0:0:0:
192,192,157084,1,0,0:0:0:0:
448,192,157084,1,0,0:0:0:0:
320,192,157169,1,0,0:0:0:0:
192,192,157255,1,0,0:0:0:0:
64,192,157255,1,0,0:0:0:0:
448,192,157255,1,0,0:0:0:0:
320,192,157341,1,0,0:0:0:0:
64,192,157427,1,0,0:0:0:0:
448,192,157427,1,0,0:0:0:0:
192,192,157512,1,0,0:0:0:0:
64,192,157598,1,0,0:0:0:0:
320,192,157598,1,0,0:0:0:0:
448,192,157598,1,0,0:0:0:0:
192,192,157684,1,0,0:0:0:0:
64,192,157769,1,0,0:0:0:0:
320,192,157769,1,0,0:0:0:0:
448,192,157855,1,0,0:0:0:0:
64,192,157941,1,0,0:0:0:0:
192,192,157941,1,0,0:0:0:0:
320,192,157941,1,0,0:0:0:0:
448,192,158027,1,0,0:0:0:0:
320,192,158112,1,0,0:0:0:0:
64,192,158198,1,0,0:0:0:0:
192,192,158284,1,0,0:0:0:0:
320,192,158284,1,0,0:0:0:0:
448,192,158284,1,0,0:0:0:0:
64,192,158369,1,0,0:0:0:0:
192,192,158455,1,0,0:0:0:0:
448,192,158541,1,0,0:0:0:0:
320,192,158627,1,0,0:0:0:0:
192,192,158627,1,0,0:0:0:0:
64,192,158627,1,0,0:0:0:0:
448,192,158712,1,0,0:0:0:0:
320,192,158798,1,0,0:0:0:0:
64,192,158884,1,0,0:0:0:0:
192,192,158969,1,0,0:0:0:0:
320,192,158969,1,0,0:0:0:0:
448,192,158969,1,0,0:0:0:0:
64,192,159055,1,0,0:0:0:0:
320,192,159141,1,0,0:0:0:0:
448,192,159141,1,0,0:0:0:0:
192,192,159227,1,0,0:0:0:0:
64,192,159312,1,0,0:0:0:0:
320,192,159312,1,0,0:0:0:0:
448,192,159312,1,0,0:0:0:0:
192,192,159398,1,0,0:0:0:0:
64,192,159484,1,0,0:0:0:0:
448,192,159484,1,0,0:0:0:0:
320,192,159569,1,0,0:0:0:0:
448,192,159655,1,0,0:0:0:0:
192,192,159655,1,0,0:0:0:0:
64,192,159655,1,0,0:0:0:0:
320,192,159741,1,0,0:0:0:0:
448,192,159827,1,0,0:0:0:0:
192,192,159827,1,0,0:0:0:0:
64,192,159912,1,0,0:0:0:0:
192,192,159998,1,0,0:0:0:0:
320,192,159998,1,0,0:0:0:0:
448,192,159998,1,0,0:0:0:0:
64,192,160084,1,0,0:0:0:0:
192,192,160169,1,0,0:0:0:0:
320,192,160169,1,0,0:0:0:0:
448,192,160255,1,0,0:0:0:0:
320,192,160341,1,0,0:0:0:0:
192,192,160341,1,0,0:0:0:0:
64,192,160341,1,0,0:0:0:0:
448,192,160427,1,0,0:0:0:0:
192,192,160512,1,0,0:0:0:0:
64,192,160512,1,0,0:0:0:0:
320,192,160598,1,0,0:0:0:0:
192,192,160684,1,0,0:0:0:0:
64,192,160684,1,0,0:0:0:0:
448,192,160684,1,0,0:0:0:0:
320,192,160769,1,0,0:0:0:0:
192,192,160855,1,0,0:0:0:0:
448,192,160855,1,0,0:0:0:0:
64,192,160941,1,0,0:0:0:0:
192,192,161027,1,0,0:0:0:0:
320,192,161027,1,0,0:0:0:0:
448,192,161027,1,0,0:0:0:0:
64,192,161112,1,0,0:0:0:0:
320,192,161198,1,0,0:0:0:0:
448,192,161198,1,0,0:0:0:0:
192,192,161284,1,0,0:0:0:0:
64,192,161369,1,0,0:0:0:0:
320,192,161369,1,0,0:0:0:0:
448,192,161369,1,0,0:0:0:0:
192,192,161455,1,0,0:0:0:0:
320,192,161541,1,0,0:0:0:0:
64,192,161541,1,0,0:0:0:0:
448,192,161627,1,0,0:0:0:0:
320,192,161712,1,0,0:0:0:0:
64,192,161712,1,0,0:0:0:0:
192,192,161712,1,0,0:0:0:0:
448,192,161798,1,0,0:0:0:0:
320,192,161884,1,0,0:0:0:0:
192,192,161884,1,0,0:0:0:0:
64,192,161969,1,0,0:0:0:0:
192,192,162055,1,0,0:0:0:0:
320,192,162055,1,0,0:0:0:0:
448,192,162055,1,0,0:0:0:0:
192,192,162227,1,0,0:0:0:0:
64,192,162227,1,0,0:0:0:0:
448,192,162227,1,0,0:0:0:0:
320,192,162398,1,0,0:0:0:0:
448,192,162398,1,0,0:0:0:0:
64,192,162398,1,0,0:0:0:0:
320,192,162569,1,0,0:0:0:0:
192,192,162569,1,0,0:0:0:0:
64,192,162569,1,0,0:0:0:0:
192,192,162741,1,0,0:0:0:0:
320,192,162741,1,0,0:0:0:0:
448,192,162741,1,0,0:0:0:0:
64,192,162912,1,0,0:0:0:0:
192,192,162912,1,0,0:0:0:0:
448,192,162912,1,0,0:0:0:0:
320,192,163084,1,0,0:0:0:0:
448,192,163084,1,0,0:0:0:0:
64,192,163084,1,0,0:0:0:0:
320,192,163255,1,0,0:0:0:0:
64,192,163255,1,0,0:0:0:0:
192,192,163255,1,0,0:0:0:0:
320,192,163598,1,0,0:0:0:0:
448,192,163598,1,0,0:0:0:0:
64,192,163598,1,0,0:0:0:0:
192,192,163684,1,0,0:0:0:0:
320,192,163769,1,0,0:0:0:0:
192,192,163855,1,0,0:0:0:0:
64,192,163855,1,0,0:0:0:0:
448,192,163855,1,0,0:0:0:0:
320,192,163941,1,0,0:0:0:0:
192,192,164027,1,0,0:0:0:0:
448,192,164112,1,0,0:0:0:0:
64,192,164112,1,0,0:0:0:0:
192,192,164155,1,0,0:0:0:0:
320,192,164198,1,0,0:0:0:0:
448,192,164241,1,0,0:0:0:0:
64,192,164284,1,0,0:0:0:0:
192,192,164327,1,0,0:0:0:0:
320,192,164369,1,0,0:0:0:0:
448,192,164412,1,0,0:0:0:0:
192,192,164455,1,0,0:0:0:0:
64,192,164455,128,0,164798:0:0:0:0:
320,192,164541,1,0,0:0:0:0:
448,192,164627,1,0,0:0:0:0:
192,192,164712,1,0,0:0:0:0:
448,192,164798,1,0,0:0:0:0:
320,192,164798,1,0,0:0:0:0:
64,192,164884,1,0,0:0:0:0:
192,192,164884,1,0,0:0:0:0:
448,192,164969,1,0,0:0:0:0:
320,192,164969,1,0,0:0:0:0:
64,192,165055,1,0,0:0:0:0:
192,192,165055,1,0,0:0:0:0:
448,192,165141,1,0,0:0:0:0:
320,192,165141,1,0,0:0:0:0:
64,192,165312,1,0,0:0:0:0:
192,192,165312,1,0,0:0:0:0:
448,192,165398,1,0,0:0:0:0:
320,192,165398,1,0,0:0:0:0:
64,192,165569,1,0,0:0:0:0:
192,192,165569,1,0,0:0:0:0:
448,192,165655,1,0,0:0:0:0:
320,192,165655,1,0,0:0:0:0:
64,192,165827,1,0,0:0:0:0:
448,192,165827,1,0,0:0:0:0:
320,192,165998,1,0,0:0:0:0:
192,192,165998,1,0,0:0:0:0:
448,192,166169,1,0,0:0:0:0:
320,192,166255,1,0,0:0:0:0:
192,192,166341,1,0,0:0:0:0:
448,192,166512,1,0,0:0:0:0:
320,192,166598,1,0,0:0:0:0:
192,192,166684,1,0,0:0:0:0:
448,192,166855,1,0,0:0:0:0:
320,192,166941,1,0,0:0:0:0:
192,192,167027,1,0,0:0:0:0:
448,192,167198,1,0,0:0:0:0:
320,192,167284,1,0,0:0:0:0:
192,192,167369,1,0,0:0:0:0:
64,192,167541,1,0,0:0:0:0:
448,192,167541,1,0,0:0:0:0:
192,192,167712,1,0,0:0:0:0:
320,192,167712,1,0,0:0:0:0:
448,192,167798,1,0,0:0:0:0:
64,192,167798,1,0,0:0:0:0:
320,192,167969,1,0,0:0:0:0:
192,192,167969,1,0,0:0:0:0:
64,192,168055,1,0,0:0:0:0:
448,192,168055,1,0,0:0:0:0:
320,192,168227,1,0,0:0:0:0:
192,192,168312,1,0,0:0:0:0:
320,192,168398,1,0,0:0:0:0:
192,192,168484,1,0,0:0:0:0:
320,192,168569,1,0,0:0:0:0:
448,192,168569,1,0,0:0:0:0:
64,192,168655,1,0,0:0:0:0:
320,192,168741,1,0,0:0:0:0:
320,192,168827,1,0,0:0:0:0:
64,192,168912,1,0,0:0:0:0:
192,192,168998,1,0,0:0:0:0:
320,192,169084,1,0,0:0:0:0:
64,192,169255,1,0,0:0:0:0:
192,192,169341,1,0,0:0:0:0:
320,192,169427,1,0,0:0:0:0:
64,192,169598,1,0,0:0:0:0:
192,192,169684,1,0,0:0:0:0:
320,192,169769,1,0,0:0:0:0:
64,192,169941,1,0,0:0:0:0:
192,192,170027,1,0,0:0:0:0:
320,192,170112,1,0,0:0:0:0:
192,192,170284,1,0,0:0:0:0:
320,192,170369,1,0,0:0:0:0:
64,192,170455,1,0,0:0:0:0:
448,192,170541,1,0,0:0:0:0:
192,192,170627,1,0,0:0:0:0:
320,192,170627,1,0,0:0:0:0:
448,192,170798,1,0,0:0:0:0:
64,192,170798,1,0,0:0:0:0:
192,192,170969,1,0,0:0:0:0:
448,192,171141,1,0,0:0:0:0:
320,192,171141,1,0,0:0:0:0:
64,192,171312,1,0,0:0:0:0:
192,192,171312,1,0,0:0:0:0:
320,192,171398,1,0,0:0:0:0:
448,192,171398,1,0,0:0:0:0:
192,192,171484,1,0,0:0:0:0:
64,192,171484,1,0,0:0:0:0:
320,192,171569,1,0,0:0:0:0:
448,192,171569,1,0,0:0:0:0:
192,192,171655,1,0,0:0:0:0:
320,192,171741,1,0,0:0:0:0:
448,192,171827,1,0,0:0:0:0:
192,192,171998,1,0,0:0:0:0:
320,192,172084,1,0,0:0:0:0:
448,192,172169,1,0,0:0:0:0:
192,192,172341,1,0,0:0:0:0:
320,192,172427,1,0,0:0:0:0:
448,192,172512,1,0,0:0:0:0:
192,192,172684,1,0,0:0:0:0:
320,192,172769,1,0,0:0:0:0:
448,192,172855,1,0,0:0:0:0:
320,192,173027,1,0,0:0:0:0:
64,192,173027,1,0,0:0:0:0:
448,192,173198,1,0,0:0:0:0:
192,192,173198,1,0,0:0:0:0:
64,192,173284,1,0,0:0:0:0:
320,192,173284,1,0,0:0:0:0:
192,192,173455,1,0,0:0:0:0:
448,192,173455,1,0,0:0:0:0:
320,192,173541,1,0,0:0:0:0:
64,192,173541,1,0,0:0:0:0:
192,192,173627,1,0,0:0:0:0:
448,192,173627,1,0,0:0:0:0:
64,192,173712,1,0,0:0:0:0:
320,192,173712,1,0,0:0:0:0:
192,192,173798,1,0,0:0:0:0:
320,192,173884,1,0,0:0:0:0:
192,192,173969,1,0,0:0:0:0:
448,192,174055,1,0,0:0:0:0:
320,192,174055,1,0,0:0:0:0:
64,192,174227,1,0,0:0:0:0:
192,192,174227,1,0,0:0:0:0:
320,192,174398,1,0,0:0:0:0:
192,192,174484,1,0,0:0:0:0:
64,192,174569,1,0,0:0:0:0:
320,192,174741,1,0,0:0:0:0:
192,192,174827,1,0,0:0:0:0:
64,192,174912,1,0,0:0:0:0:
320,192,175084,1,0,0:0:0:0:
192,192,175169,1,0,0:0:0:0:
64,192,175255,1,0,0:0:0:0:
320,192,175427,1,0,0:0:0:0:
192,192,175512,1,0,0:0:0:0:
64,192,175598,1,0,0:0:0:0:
320,192,175769,1,0,0:0:0:0:
448,192,175769,1,0,0:0:0:0:
192,192,175855,1,0,0:0:0:0:
64,192,175855,1,0,0:0:0:0:
320,192,175941,1,0,0:0:0:0:
448,192,175941,1,0,0:0:0:0:
192,192,176027,1,0,0:0:0:0:
64,192,176027,1,0,0:0:0:0:
320,192,176112,1,0,0:0:0:0:
448,192,176112,1,0,0:0:0:0:
192,192,176284,1,0,0:0:0:0:
64,192,176284,1,0,0:0:0:0:
320,192,176369,1,0,0:0:0:0:
448,192,176369,1,0,0:0:0:0:
192,192,176541,1,0,0:0:0:0:
64,192,176541,1,0,0:0:0:0:
320,192,176627,1,0,0:0:0:0:
448,192,176627,1,0,0:0:0:0:
448,192,176798,1,0,0:0:0:0:
64,192,176798,1,0,0:0:0:0:
192,192,176969,1,0,0:0:0:0:
320,192,176969,1,0,0:0:0:0:
448,192,177141,1,0,0:0:0:0:
64,192,177141,1,0,0:0:0:0:
320,192,177312,1,0,0:0:0:0:
192,192,177312,1,0,0:0:0:0:
64,192,177398,1,0,0:0:0:0:
448,192,177398,1,0,0:0:0:0:
320,192,177569,1,0,0:0:0:0:
192,192,177569,1,0,0:0:0:0:
64,192,177655,1,0,0:0:0:0:
448,192,177655,1,0,0:0:0:0:
320,192,177827,1,0,0:0:0:0:
192,192,177912,1,0,0:0:0:0:
320,192,177998,1,0,0:0:0:0:
192,192,178084,1,0,0:0:0:0:
64,192,178169,1,0,0:0:0:0:
448,192,178169,1,0,0:0:0:0:
192,192,178341,1,0,0:0:0:0:
192,192,178427,1,0,0:0:0:0:
448,192,178512,1,0,0:0:0:0:
64,192,178512,1,0,0:0:0:0:
320,192,178598,1,0,0:0:0:0:
192,192,178684,1,0,0:0:0:0:
320,192,178769,1,0,0:0:0:0:
64,192,178855,1,0,0:0:0:0:
448,192,178855,1,0,0:0:0:0:
192,192,179027,1,0,0:0:0:0:
320,192,179198,1,0,0:0:0:0:
448,192,179369,1,0,0:0:0:0:
64,192,179369,1,0,0:0:0:0:
192,192,179541,1,0,0:0:0:0:
64,192,179541,1,0,0:0:0:0:
320,192,179627,1,0,0:0:0:0:
448,192,179627,1,0,0:0:0:0:
192,192,179712,1,0,0:0:0:0:
64,192,179712,1,0,0:0:0:0:
320,192,179798,1,0,0:0:0:0:
448,192,179798,1,0,0:0:0:0:
192,192,179884,1,0,0:0:0:0:
64,192,179884,1,0,0:0:0:0:
320,192,180055,1,0,0:0:0:0:
448,192,180055,1,0,0:0:0:0:
192,192,180141,1,0,0:0:0:0:
64,192,180141,1,0,0:0:0:0:
320,192,180312,1,0,0:0:0:0:
448,192,180312,1,0,0:0:0:0:
192,192,180398,1,0,0:0:0:0:
64,192,180398,1,0,0:0:0:0:
320,192,180484,1,0,0:0:0:0:
448,192,180484,1,0,0:0:0:0:
192,192,180569,1,0,0:0:0:0:
64,192,180569,1,0,0:0:0:0:
320,192,180655,1,0,0:0:0:0:
448,192,180741,1,0,0:0:0:0:
320,192,180827,1,0,0:0:0:0:
448,192,180912,1,0,0:0:0:0:
64,192,180912,1,0,0:0:0:0:
192,192,181084,1,0,0:0:0:0:
320,192,181084,1,0,0:0:0:0:
192,192,181255,1,0,0:0:0:0:
64,192,181255,1,0,0:0:0:0:
320,192,181341,1,0,0:0:0:0:
448,192,181341,1,0,0:0:0:0:
192,192,181427,1,0,0:0:0:0:
64,192,181427,1,0,0:0:0:0:
320,192,181512,1,0,0:0:0:0:
448,192,181512,1,0,0:0:0:0:
192,192,181598,1,0,0:0:0:0:
64,192,181598,1,0,0:0:0:0:
320,192,181769,1,0,0:0:0:0:
448,192,181769,1,0,0:0:0:0:
192,192,181855,1,0,0:0:0:0:
64,192,181855,1,0,0:0:0:0:
320,192,182027,1,0,0:0:0:0:
448,192,182027,1,0,0:0:0:0:
192,192,182112,1,0,0:0:0:0:
64,192,182112,1,0,0:0:0:0:
64,192,182284,1,0,0:0:0:0:
448,192,182284,1,0,0:0:0:0:
320,192,182455,1,0,0:0:0:0:
192,192,182455,1,0,0:0:0:0:
64,192,182627,1,0,0:0:0:0:
448,192,182627,1,0,0:0:0:0:
192,192,182798,1,0,0:0:0:0:
320,192,182798,1,0,0:0:0:0:
448,192,182884,1,0,0:0:0:0:
64,192,182884,1,0,0:0:0:0:
192,192,183055,1,0,0:0:0:0:
320,192,183055,1,0,0:0:0:0:
448,192,183141,1,0,0:0:0:0:
64,192,183141,1,0,0:0:0:0:
192,192,183312,1,0,0:0:0:0:
320,192,183398,1,0,0:0:0:0:
192,192,183484,1,0,0:0:0:0:
320,192,183569,1,0,0:0:0:0:
448,192,183655,1,0,0:0:0:0:
64,192,183655,1,0,0:0:0:0:
320,192,183827,1,0,0:0:0:0:
320,192,183912,1,0,0:0:0:0:
64,192,183998,1,0,0:0:0:0:
448,192,183998,1,0,0:0:0:0:
192,192,184084,1,0,0:0:0:0:
320,192,184169,1,0,0:0:0:0:
192,192,184255,1,0,0:0:0:0:
448,192,184341,1,0,0:0:0:0:
64,192,184341,1,0,0:0:0:0:
320,192,184512,1,0,0:0:0:0:
192,192,184684,1,0,0:0:0:0:
64,192,184855,1,0,0:0:0:0:
448,192,184855,1,0,0:0:0:0:
320,192,185027,5,0,0:0:0:0:
448,192,185027,1,0,0:0:0:0:
192,192,185112,1,0,0:0:0:0:
64,192,185112,1,0,0:0:0:0:
320,192,185198,1,0,0:0:0:0:
448,192,185198,1,0,0:0:0:0:
192,192,185284,1,0,0:0:0:0:
64,192,185284,1,0,0:0:0:0:
320,192,185369,1,0,0:0:0:0:
448,192,185369,1,0,0:0:0:0:
192,192,185541,1,0,0:0:0:0:
64,192,185541,1,0,0:0:0:0:
320,192,185627,1,0,0:0:0:0:
448,192,185627,1,0,0:0:0:0:
192,192,185798,1,0,0:0:0:0:
64,192,185798,1,0,0:0:0:0:
320,192,185884,1,0,0:0:0:0:
448,192,185884,1,0,0:0:0:0:
192,192,185969,1,0,0:0:0:0:
64,192,185969,1,0,0:0:0:0:
448,192,186055,5,0,0:0:0:0:
320,192,186098,5,0,0:0:0:0:
64,192,186141,5,0,0:0:0:0:
192,192,186184,5,0,0:0:0:0:
448,192,186227,5,0,0:0:0:0:
320,192,186269,5,0,0:0:0:0:
64,192,186312,5,0,0:0:0:0:
192,192,186355,5,0,0:0:0:0:
320,192,186398,5,0,0:0:0:0:
448,192,186398,1,0,0:0:0:0:
64,192,186441,1,0,0:0:0:0:
192,192,186484,1,0,0:0:0:0:
320,192,186527,1,0,0:0:0:0:
448,192,186569,1,0,0:0:0:0:
64,192,186612,1,0,0:0:0:0:
192,192,186655,1,0,0:0:0:0:
320,192,186698,1,0,0:0:0:0:
64,192,186741,1,0,0:0:0:0:
448,192,186741,1,0,0:0:0:0:
320,192,186912,1,0,0:0:0:0:
64,192,186912,1,0,0:0:0:0:
192,192,186998,1,0,0:0:0:0:
448,192,186998,1,0,0:0:0:0:
320,192,187084,1,0,0:0:0:0:
448,192,187084,1,0,0:0:0:0:
64,192,187084,1,0,0:0:0:0:
192,192,187255,1,0,0:0:0:0:
448,192,187255,1,0,0:0:0:0:
64,192,187341,1,0,0:0:0:0:
320,192,187341,1,0,0:0:0:0:
192,192,187427,1,0,0:0:0:0:
64,192,187427,1,0,0:0:0:0:
448,192,187427,1,0,0:0:0:0:
64,192,187598,1,0,0:0:0:0:
320,192,187598,1,0,0:0:0:0:
192,192,187684,1,0,0:0:0:0:
448,192,187684,1,0,0:0:0:0:
320,192,187769,1,0,0:0:0:0:
448,192,187769,1,0,0:0:0:0:
64,192,187769,1,0,0:0:0:0:
192,192,187941,1,0,0:0:0:0:
64,192,187941,1,0,0:0:0:0:
320,192,188027,1,0,0:0:0:0:
448,192,188027,1,0,0:0:0:0:
192,192,188112,1,0,0:0:0:0:
64,192,188112,1,0,0:0:0:0:
448,192,188112,1,0,0:0:0:0:
320,192,188284,1,0,0:0:0:0:
448,192,188284,1,0,0:0:0:0:
192,192,188369,1,0,0:0:0:0:
64,192,188369,1,0,0:0:0:0:
64,192,188455,1,0,0:0:0:0:
320,192,188455,1,0,0:0:0:0:
448,192,188455,1,0,0:0:0:0:
192,192,188627,1,0,0:0:0:0:
64,192,188627,1,0,0:0:0:0:
320,192,188712,1,0,0:0:0:0:
448,192,188712,1,0,0:0:0:0:
448,192,188798,1,0,0:0:0:0:
192,192,188798,1,0,0:0:0:0:
64,192,188798,1,0,0:0:0:0:
320,192,188969,1,0,0:0:0:0:
448,192,188969,1,0,0:0:0:0:
192,192,189055,1,0,0:0:0:0:
64,192,189055,1,0,0:0:0:0:
64,192,189141,1,0,0:0:0:0:
320,192,189141,1,0,0:0:0:0:
448,192,189141,1,0,0:0:0:0:
320,192,189312,1,0,0:0:0:0:
192,192,189312,1,0,0:0:0:0:
64,192,189398,1,0,0:0:0:0:
448,192,189398,1,0,0:0:0:0:
320,192,189484,1,0,0:0:0:0:
192,192,189484,1,0,0:0:0:0:
64,192,189484,1,0,0:0:0:0:
448,192,189655,1,0,0:0:0:0:
64,192,189655,1,0,0:0:0:0:
320,192,189741,1,0,0:0:0:0:
192,192,189741,1,0,0:0:0:0:
320,192,189827,1,0,0:0:0:0:
448,192,189827,1,0,0:0:0:0:
64,192,189827,1,0,0:0:0:0:
320,192,189998,1,0,0:0:0:0:
192,192,189998,1,0,0:0:0:0:
64,192,190084,1,0,0:0:0:0:
448,192,190084,1,0,0:0:0:0:
192,192,190169,1,0,0:0:0:0:
320,192,190169,1,0,0:0:0:0:
448,192,190169,1,0,0:0:0:0:
64,192,190341,1,0,0:0:0:0:
448,192,190341,1,0,0:0:0:0:
192,192,190427,1,0,0:0:0:0:
320,192,190427,1,0,0:0:0:0:
192,192,190512,1,0,0:0:0:0:
64,192,190512,1,0,0:0:0:0:
448,192,190512,1,0,0:0:0:0:
320,192,190684,1,0,0:0:0:0:
64,192,190684,1,0,0:0:0:0:
192,192,190769,1,0,0:0:0:0:
448,192,190769,1,0,0:0:0:0:
320,192,190855,1,0,0:0:0:0:
448,192,190855,1,0,0:0:0:0:
64,192,190855,1,0,0:0:0:0:
192,192,190941,1,0,0:0:0:0:
64,192,190941,1,0,0:0:0:0:
320,192,191027,1,0,0:0:0:0:
448,192,191027,1,0,0:0:0:0:
192,192,191112,1,0,0:0:0:0:
64,192,191112,1,0,0:0:0:0:
320,192,191198,1,0,0:0:0:0:
448,192,191198,1,0,0:0:0:0:
192,192,191369,1,0,0:0:0:0:
64,192,191369,1,0,0:0:0:0:
320,192,191455,1,0,0:0:0:0:
448,192,191455,1,0,0:0:0:0:
192,192,191627,1,0,0:0:0:0:
64,192,191627,1,0,0:0:0:0:
320,192,191712,1,0,0:0:0:0:
448,192,191712,1,0,0:0:0:0:
192,192,191884,1,0,0:0:0:0:
64,192,191884,1,0,0:0:0:0:
448,192,191884,1,0,0:0:0:0:
320,192,192055,1,0,0:0:0:0:
192,192,192055,1,0,0:0:0:0:
320,192,192227,1,0,0:0:0:0:
448,192,192227,1,0,0:0:0:0:
64,192,192227,1,0,0:0:0:0:
192,192,192398,1,0,0:0:0:0:
64,192,192398,1,0,0:0:0:0:
320,192,192484,1,0,0:0:0:0:
448,192,192484,1,0,0:0:0:0:
192,192,192569,1,0,0:0:0:0:
64,192,192569,1,0,0:0:0:0:
448,192,192569,1,0,0:0:0:0:
320,192,192741,1,0,0:0:0:0:
448,192,192741,1,0,0:0:0:0:
192,192,192827,1,0,0:0:0:0:
64,192,192827,1,0,0:0:0:0:
448,192,192912,1,0,0:0:0:0:
320,192,192912,1,0,0:0:0:0:
64,192,192912,1,0,0:0:0:0:
192,192,193084,1,0,0:0:0:0:
64,192,193084,1,0,0:0:0:0:
320,192,193169,1,0,0:0:0:0:
448,192,193169,1,0,0:0:0:0:
192,192,193255,1,0,0:0:0:0:
64,192,193255,1,0,0:0:0:0:
448,192,193255,1,0,0:0:0:0:
320,192,193427,1,0,0:0:0:0:
64,192,193427,1,0,0:0:0:0:
192,192,193512,1,0,0:0:0:0:
448,192,193512,1,0,0:0:0:0:
320,192,193598,1,0,0:0:0:0:
192,192,193598,1,0,0:0:0:0:
64,192,193598,1,0,0:0:0:0:
448,192,193769,1,0,0:0:0:0:
192,192,193769,1,0,0:0:0:0:
320,192,193855,1,0,0:0:0:0:
64,192,193855,1,0,0:0:0:0:
192,192,193941,1,0,0:0:0:0:
320,192,193941,1,0,0:0:0:0:
448,192,193941,1,0,0:0:0:0:
64,192,194112,1,0,0:0:0:0:
320,192,194112,1,0,0:0:0:0:
448,192,194198,1,0,0:0:0:0:
192,192,194198,1,0,0:0:0:0:
320,192,194284,1,0,0:0:0:0:
192,192,194284,1,0,0:0:0:0:
64,192,194284,1,0,0:0:0:0:
448,192,194455,1,0,0:0:0:0:
192,192,194455,1,0,0:0:0:0:
320,192,194541,1,0,0:0:0:0:
64,192,194541,1,0,0:0:0:0:
192,192,194627,1,0,0:0:0:0:
320,192,194627,1,0,0:0:0:0:
448,192,194627,1,0,0:0:0:0:
64,192,194798,1,0,0:0:0:0:
448,192,194798,1,0,0:0:0:0:
320,192,194884,1,0,0:0:0:0:
192,192,194884,1,0,0:0:0:0:
192,192,194969,1,0,0:0:0:0:
64,192,194969,1,0,0:0:0:0:
448,192,194969,1,0,0:0:0:0:
320,192,195141,1,0,0:0:0:0:
192,192,195141,1,0,0:0:0:0:
448,192,195227,1,0,0:0:0:0:
64,192,195227,1,0,0:0:0:0:
320,192,195312,1,0,0:0:0:0:
192,192,195312,1,0,0:0:0:0:
448,192,195312,1,0,0:0:0:0:
448,192,195484,1,0,0:0:0:0:
64,192,195484,1,0,0:0:0:0:
320,192,195569,1,0,0:0:0:0:
192,192,195569,1,0,0:0:0:0:
320,192,195655,1,0,0:0:0:0:
64,192,195655,1,0,0:0:0:0:
448,192,195655,1,0,0:0:0:0:
320,192,195827,1,0,0:0:0:0:
192,192,195827,1,0,0:0:0:0:
64,192,195912,1,0,0:0:0:0:
448,192,195912,1,0,0:0:0:0:
320,192,195998,1,0,0:0:0:0:
192,192,195998,1,0,0:0:0:0:
64,192,195998,1,0,0:0:0:0:
192,192,196169,1,0,0:0:0:0:
64,192,196169,1,0,0:0:0:0:
320,192,196255,1,0,0:0:0:0:
448,192,196255,1,0,0:0:0:0:
448,192,196341,1,0,0:0:0:0:
192,192,196341,1,0,0:0:0:0:
64,192,196341,1,0,0:0:0:0:
320,192,196512,1,0,0:0:0:0:
192,192,196512,1,0,0:0:0:0:
64,192,196598,1,0,0:0:0:0:
448,192,196598,1,0,0:0:0:0:
320,192,196769,1,0,0:0:0:0:
192,192,196769,1,0,0:0:0:0:
64,192,196855,1,0,0:0:0:0:
448,192,196855,1,0,0:0:0:0:
192,192,197027,1,0,0:0:0:0:
320,192,197027,1,0,0:0:0:0:
448,192,197112,1,0,0:0:0:0:
192,192,197198,1,0,0:0:0:0:
320,192,197198,1,0,0:0:0:0:
64,192,197284,1,0,0:0:0:0:
192,192,197369,1,0,0:0:0:0:
320,192,197369,1,0,0:0:0:0:
448,192,197369,1,0,0:0:0:0:
64,192,197455,1,0,0:0:0:0:
320,192,197541,1,0,0:0:0:0:
320,192,197627,1,0,0:0:0:0:
192,192,197712,1,0,0:0:0:0:
64,192,197712,1,0,0:0:0:0:
448,192,197712,1,0,0:0:0:0:
320,192,197884,1,0,0:0:0:0:
448,192,197884,1,0,0:0:0:0:
192,192,197969,1,0,0:0:0:0:
64,192,197969,1,0,0:0:0:0:
320,192,198055,1,0,0:0:0:0:
448,192,198055,1,0,0:0:0:0:
64,192,198055,1,0,0:0:0:0:
192,192,198227,1,0,0:0:0:0:
64,192,198227,1,0,0:0:0:0:
320,192,198312,1,0,0:0:0:0:
448,192,198312,1,0,0:0:0:0:
192,192,198398,1,0,0:0:0:0:
64,192,198398,1,0,0:0:0:0:
448,192,198398,1,0,0:0:0:0:
320,192,198484,1,0,0:0:0:0:
64,192,198569,1,0,0:0:0:0:
448,192,198569,1,0,0:0:0:0:
320,192,198655,1,0,0:0:0:0:
192,192,198655,1,0,0:0:0:0:
320,192,198741,1,0,0:0:0:0:
64,192,198741,1,0,0:0:0:0:
448,192,198741,1,0,0:0:0:0:
192,192,198912,1,0,0:0:0:0:
448,192,198912,1,0,0:0:0:0:
320,192,198998,1,0,0:0:0:0:
64,192,198998,1,0,0:0:0:0:
192,192,199084,1,0,0:0:0:0:
64,192,199084,1,0,0:0:0:0:
448,192,199084,1,0,0:0:0:0:
64,192,199255,1,0,0:0:0:0:
320,192,199255,1,0,0:0:0:0:
192,192,199341,1,0,0:0:0:0:
448,192,199341,1,0,0:0:0:0:
320,192,199427,1,0,0:0:0:0:
448,192,199427,1,0,0:0:0:0:
64,192,199427,1,0,0:0:0:0:
448,192,199598,1,0,0:0:0:0:
192,192,199598,1,0,0:0:0:0:
320,192,199684,1,0,0:0:0:0:
64,192,199684,1,0,0:0:0:0:
192,192,199769,1,0,0:0:0:0:
64,192,199769,1,0,0:0:0:0:
448,192,199769,1,0,0:0:0:0:
320,192,199855,1,0,0:0:0:0:
64,192,199941,1,0,0:0:0:0:
448,192,199941,1,0,0:0:0:0:
320,192,200027,1,0,0:0:0:0:
192,192,200027,1,0,0:0:0:0:
320,192,200112,1,0,0:0:0:0:
448,192,200112,1,0,0:0:0:0:
64,192,200112,1,0,0:0:0:0:
192,192,200284,1,0,0:0:0:0:
64,192,200284,1,0,0:0:0:0:
320,192,200369,1,0,0:0:0:0:
448,192,200369,1,0,0:0:0:0:
320,192,200455,1,0,0:0:0:0:
192,192,200455,1,0,0:0:0:0:
64,192,200455,1,0,0:0:0:0:
448,192,200627,1,0,0:0:0:0:
320,192,200627,1,0,0:0:0:0:
192,192,200712,1,0,0:0:0:0:
64,192,200712,1,0,0:0:0:0:
192,192,200798,1,0,0:0:0:0:
448,192,200798,1,0,0:0:0:0:
320,192,200798,1,0,0:0:0:0:
64,192,200969,1,0,0:0:0:0:
192,192,200969,1,0,0:0:0:0:
320,192,201055,1,0,0:0:0:0:
448,192,201055,1,0,0:0:0:0:
320,192,201141,1,0,0:0:0:0:
192,192,201141,1,0,0:0:0:0:
64,192,201141,1,0,0:0:0:0:
448,192,201227,1,0,0:0:0:0:
320,192,201312,1,0,0:0:0:0:
64,192,201312,1,0,0:0:0:0:
192,192,201398,1,0,0:0:0:0:
448,192,201398,1,0,0:0:0:0:
320,192,201484,1,0,0:0:0:0:
448,192,201484,1,0,0:0:0:0:
64,192,201484,1,0,0:0:0:0:
448,192,201655,1,0,0:0:0:0:
192,192,201655,1,0,0:0:0:0:
320,192,201741,1,0,0:0:0:0:
64,192,201741,1,0,0:0:0:0:
192,192,201827,1,0,0:0:0:0:
64,192,201827,1,0,0:0:0:0:
448,192,201827,1,0,0:0:0:0:
320,192,201912,1,0,0:0:0:0:
448,192,201912,1,0,0:0:0:0:
192,192,201998,1,0,0:0:0:0:
64,192,201998,1,0,0:0:0:0:
320,192,202084,1,0,0:0:0:0:
448,192,202084,1,0,0:0:0:0:
192,192,202169,1,0,0:0:0:0:
64,192,202169,1,0,0:0:0:0:
320,192,202341,1,0,0:0:0:0:
448,192,202341,1,0,0:0:0:0:
192,192,202427,1,0,0:0:0:0:
64,192,202427,1,0,0:0:0:0:
320,192,202598,1,0,0:0:0:0:
448,192,202598,1,0,0:0:0:0:
192,192,202684,1,0,0:0:0:0:
64,192,202684,1,0,0:0:0:0:
448,192,202855,1,0,0:0:0:0:
64,192,202855,1,0,0:0:0:0:
320,192,202855,1,0,0:0:0:0:
192,192,203027,1,0,0:0:0:0:
320,192,203027,1,0,0:0:0:0:
448,192,203198,1,0,0:0:0:0:
192,192,203198,1,0,0:0:0:0:
64,192,203198,1,0,0:0:0:0:
320,192,203284,1,0,0:0:0:0:
192,192,203369,1,0,0:0:0:0:
64,192,203369,1,0,0:0:0:0:
320,192,203455,1,0,0:0:0:0:
448,192,203455,1,0,0:0:0:0:
192,192,203541,1,0,0:0:0:0:
64,192,203541,1,0,0:0:0:0:
448,192,203541,1,0,0:0:0:0:
320,192,203627,1,0,0:0:0:0:
192,192,203712,1,0,0:0:0:0:
448,192,203712,1,0,0:0:0:0:
320,192,203798,1,0,0:0:0:0:
64,192,203798,1,0,0:0:0:0:
192,192,203884,1,0,0:0:0:0:
448,192,203884,1,0,0:0:0:0:
64,192,203884,1,0,0:0:0:0:
320,192,203969,1,0,0:0:0:0:
64,192,204055,1,0,0:0:0:0:
448,192,204055,1,0,0:0:0:0:
320,192,204141,1,0,0:0:0:0:
192,192,204141,1,0,0:0:0:0:
320,192,204227,1,0,0:0:0:0:
448,192,204227,1,0,0:0:0:0:
64,192,204227,1,0,0:0:0:0:
192,192,204312,1,0,0:0:0:0:
64,192,204398,1,0,0:0:0:0:
320,192,204398,1,0,0:0:0:0:
448,192,204484,1,0,0:0:0:0:
192,192,204484,1,0,0:0:0:0:
320,192,204569,1,0,0:0:0:0:
192,192,204569,1,0,0:0:0:0:
64,192,204569,1,0,0:0:0:0:
448,192,204655,1,0,0:0:0:0:
192,192,204741,1,0,0:0:0:0:
320,192,204741,1,0,0:0:0:0:
64,192,204827,1,0,0:0:0:0:
448,192,204827,1,0,0:0:0:0:
192,192,204912,1,0,0:0:0:0:
320,192,204912,1,0,0:0:0:0:
448,192,204912,1,0,0:0:0:0:
64,192,204998,1,0,0:0:0:0:
320,192,205084,1,0,0:0:0:0:
448,192,205084,1,0,0:0:0:0:
192,192,205169,1,0,0:0:0:0:
64,192,205169,1,0,0:0:0:0:
320,192,205255,1,0,0:0:0:0:
448,192,205255,1,0,0:0:0:0:
64,192,205255,1,0,0:0:0:0:
192,192,205341,1,0,0:0:0:0:
64,192,205427,1,0,0:0:0:0:
448,192,205427,1,0,0:0:0:0:
320,192,205512,1,0,0:0:0:0:
192,192,205512,1,0,0:0:0:0:
192,192,205598,1,0,0:0:0:0:
64,192,205598,1,0,0:0:0:0:
448,192,205598,1,0,0:0:0:0:
320,192,205684,1,0,0:0:0:0:
192,192,205769,1,0,0:0:0:0:
64,192,205769,1,0,0:0:0:0:
320,192,205855,1,0,0:0:0:0:
448,192,205855,1,0,0:0:0:0:
64,192,205941,1,0,0:0:0:0:
448,192,205941,1,0,0:0:0:0:
192,192,205941,1,0,0:0:0:0:
320,192,206027,1,0,0:0:0:0:
192,192,206027,1,0,0:0:0:0:
448,192,206112,1,0,0:0:0:0:
64,192,206112,1,0,0:0:0:0:
192,192,206198,1,0,0:0:0:0:
320,192,206198,1,0,0:0:0:0:
448,192,206284,1,0,0:0:0:0:
64,192,206284,1,0,0:0:0:0:
192,192,206369,1,0,0:0:0:0:
320,192,206369,1,0,0:0:0:0:
448,192,206455,1,0,0:0:0:0:
64,192,206455,1,0,0:0:0:0:
192,192,206541,1,0,0:0:0:0:
320,192,206627,1,0,0:0:0:0:
448,192,206627,1,0,0:0:0:0:
64,192,206712,1,0,0:0:0:0:
192,192,206712,1,0,0:0:0:0:
320,192,206798,1,0,0:0:0:0:
448,192,206798,1,0,0:0:0:0:
192,192,206884,1,0,0:0:0:0:
64,192,206884,1,0,0:0:0:0:
320,192,206969,1,0,0:0:0:0:
448,192,206969,1,0,0:0:0:0:
192,192,207055,1,0,0:0:0:0:
64,192,207055,1,0,0:0:0:0:
320,192,207141,1,0,0:0:0:0:
448,192,207141,1,0,0:0:0:0:
192,192,207227,1,0,0:0:0:0:
64,192,207227,1,0,0:0:0:0:
192,192,207312,1,0,0:0:0:0:
320,192,207312,1,0,0:0:0:0:
448,192,207312,1,0,0:0:0:0:
64,192,207398,1,0,0:0:0:0:
192,192,207484,1,0,0:0:0:0:
320,192,207484,1,0,0:0:0:0:
448,192,207569,5,0,0:0:0:0:
320,192,207655,1,0,0:0:0:0:
192,192,207655,1,0,0:0:0:0:
64,192,207655,1,0,0:0:0:0:
448,192,207741,1,0,0:0:0:0:
320,192,207827,1,0,0:0:0:0:
192,192,207827,1,0,0:0:0:0:
64,192,207912,1,0,0:0:0:0:
192,192,207998,1,0,0:0:0:0:
320,192,207998,1,0,0:0:0:0:
448,192,207998,1,0,0:0:0:0:
64,192,208084,1,0,0:0:0:0:
192,192,208169,1,0,0:0:0:0:
320,192,208169,1,0,0:0:0:0:
448,192,208255,1,0,0:0:0:0:
320,192,208341,1,0,0:0:0:0:
192,192,208341,1,0,0:0:0:0:
64,192,208341,1,0,0:0:0:0:
448,192,208427,1,0,0:0:0:0:
320,192,208512,1,0,0:0:0:0:
192,192,208512,1,0,0:0:0:0:
64,192,208598,1,0,0:0:0:0:
448,192,208684,5,0,0:0:0:0:
320,192,208684,1,0,0:0:0:0:
192,192,208684,1,0,0:0:0:0:
64,192,208855,128,0,209198:0:0:0:0:
192,192,209027,128,0,209369:0:0:0:0:
448,192,209198,128,0,209541:0:0:0:0:
320,192,209369,128,0,209712:0:0:0:0:
64,192,209541,128,0,209884:0:0:0:0:
192,192,209712,128,0,210055:0:0:0:0:
320,192,209884,128,0,210227:0:0:0:0:
448,192,210055,128,0,210398:0:0:0:0:
192,192,210227,128,0,210569:0:0:0:0:
64,192,210398,128,0,210741:0:0:0:0:
320,192,210569,128,0,210912:0:0:0:0:
192,192,210741,128,0,211084:0:0:0:0:
448,192,210912,128,0,211255:0:0:0:0:
320,192,211084,128,0,211427:0:0:0:0:
192,192,211255,128,0,211598:0:0:0:0:
64,192,211427,128,0,211769:0:0:0:0:
448,192,211598,128,0,211941:0:0:0:0:
320,192,211769,128,0,212112:0:0:0:0:
64,192,211941,128,0,212284:0:0:0:0:
192,192,212112,128,0,212455:0:0:0:0:
320,192,212284,128,0,212627:0:0:0:0:
448,192,212455,128,0,212798:0:0:0:0:
192,192,212627,128,0,212969:0:0:0:0:
320,192,212798,128,0,213141:0:0:0:0:
64,192,212969,128,0,213312:0:0:0:0:
448,192,213141,128,0,213484:0:0:0:0:
192,192,213312,128,0,213655:0:0:0:0:
320,192,213484,128,0,213827:0:0:0:0:
448,192,213655,128,0,213998:0:0:0:0:
64,192,213827,128,0,214169:0:0:0:0:
320,192,213998,128,0,214341:0:0:0:0:
192,192,214169,128,0,214512:0:0:0:0:
448,192,214341,128,0,214684:0:0:0:0:
64,192,214512,128,0,214855:0:0:0:0:
192,192,214684,128,0,215027:0:0:0:0:
320,192,214855,128,0,215198:0:0:0:0:
448,192,215027,128,0,215369:0:0:0:0:
192,192,215198,128,0,215541:0:0:0:0:
64,192,215369,128,0,215712:0:0:0:0:
320,192,215541,128,0,215884:0:0:0:0:
448,192,215712,128,0,216055:0:0:0:0:
192,192,215884,128,0,216227:0:0:0:0:
320,192,216055,128,0,216398:0:0:0:0:
64,192,216227,128,0,216569:0:0:0:0:
448,192,216398,128,0,216741:0:0:0:0:
192,192,216569,128,0,216912:0:0:0:0:
64,192,216741,128,0,217084:0:0:0:0:
320,192,216912,128,0,217255:0:0:0:0:
448,192,217084,128,0,217427:0:0:0:0:
192,192,217255,128,0,217598:0:0:0:0:
320,192,217427,128,0,217769:0:0:0:0:
64,192,217598,128,0,217941:0:0:0:0:
448,192,217769,128,0,218112:0:0:0:0:
320,192,217941,128,0,218284:0:0:0:0:
192,192,218112,128,0,218455:0:0:0:0:
64,192,218284,128,0,218627:0:0:0:0:
320,192,218455,128,0,218798:0:0:0:0:
448,192,218627,128,0,219227:0:0:0:0:
64,192,218798,128,0,219227:0:0:0:0:
192,192,218969,128,0,219227:0:0:0:0:
320,192,218969,128,0,219227:0:0:0:0:
448,192,219655,5,0,0:0:0:0:
64,192,219655,1,0,0:0:0:0:
320,192,219655,1,0,0:0:0:0:
192,192,219741,1,0,0:0:0:0:
320,192,219827,1,0,0:0:0:0:
64,192,219827,1,0,0:0:0:0:
448,192,219912,1,0,0:0:0:0:
320,192,219998,1,0,0:0:0:0:
192,192,219998,1,0,0:0:0:0:
64,192,219998,1,0,0:0:0:0:
448,192,220084,1,0,0:0:0:0:
192,192,220169,1,0,0:0:0:0:
64,192,220169,1,0,0:0:0:0:
320,192,220255,1,0,0:0:0:0:
192,192,220341,1,0,0:0:0:0:
64,192,220341,1,0,0:0:0:0:
448,192,220341,1,0,0:0:0:0:
320,192,220427,1,0,0:0:0:0:
448,192,220512,1,0,0:0:0:0:
64,192,220512,1,0,0:0:0:0:
192,192,220598,1,0,0:0:0:0:
320,192,220684,1,0,0:0:0:0:
448,192,220684,1,0,0:0:0:0:
64,192,220684,1,0,0:0:0:0:
192,192,220769,1,0,0:0:0:0:
320,192,220855,1,0,0:0:0:0:
448,192,220855,1,0,0:0:0:0:
64,192,220941,1,0,0:0:0:0:
192,192,221027,1,0,0:0:0:0:
320,192,221027,1,0,0:0:0:0:
448,192,221027,1,0,0:0:0:0:
64,192,221112,1,0,0:0:0:0:
192,192,221198,1,0,0:0:0:0:
448,192,221198,1,0,0:0:0:0:
320,192,221284,1,0,0:0:0:0:
192,192,221369,1,0,0:0:0:0:
64,192,221369,1,0,0:0:0:0:
448,192,221369,1,0,0:0:0:0:
320,192,221455,1,0,0:0:0:0:
448,192,221541,1,0,0:0:0:0:
64,192,221541,1,0,0:0:0:0:
192,192,221627,1,0,0:0:0:0:
320,192,221712,1,0,0:0:0:0:
448,192,221712,1,0,0:0:0:0:
64,192,221712,1,0,0:0:0:0:
192,192,221798,1,0,0:0:0:0:
320,192,221884,1,0,0:0:0:0:
64,192,221884,1,0,0:0:0:0:
448,192,221969,1,0,0:0:0:0:
320,192,222055,1,0,0:0:0:0:
192,192,222055,1,0,0:0:0:0:
64,192,222055,1,0,0:0:0:0:
448,192,222141,1,0,0:0:0:0:
320,192,222227,1,0,0:0:0:0:
192,192,222227,1,0,0:0:0:0:
64,192,222312,1,0,0:0:0:0:
192,192,222398,1,0,0:0:0:0:
320,192,222398,1,0,0:0:0:0:
448,192,222398,1,0,0:0:0:0:
64,192,222484,1,0,0:0:0:0:
192,192,222569,1,0,0:0:0:0:
448,192,222569,1,0,0:0:0:0:
320,192,222655,1,0,0:0:0:0:
192,192,222741,1,0,0:0:0:0:
64,192,222741,1,0,0:0:0:0:
448,192,222741,1,0,0:0:0:0:
320,192,222827,1,0,0:0:0:0:
448,192,222912,1,0,0:0:0:0:
64,192,222912,1,0,0:0:0:0:
192,192,222998,1,0,0:0:0:0:
320,192,223084,1,0,0:0:0:0:
448,192,223084,1,0,0:0:0:0:
64,192,223084,1,0,0:0:0:0:
192,192,223169,1,0,0:0:0:0:
320,192,223255,1,0,0:0:0:0:
448,192,223255,1,0,0:0:0:0:
64,192,223341,1,0,0:0:0:0:
192,192,223427,1,0,0:0:0:0:
320,192,223427,1,0,0:0:0:0:
448,192,223427,1,0,0:0:0:0:
64,192,223598,1,0,0:0:0:0:
448,192,223598,1,0,0:0:0:0:
320,192,223769,1,0,0:0:0:0:
192,192,223769,1,0,0:0:0:0:
64,192,223769,1,0,0:0:0:0:
448,192,223941,1,0,0:0:0:0:
192,192,223941,1,0,0:0:0:0:
320,192,224112,1,0,0:0:0:0:
448,192,224112,1,0,0:0:0:0:
64,192,224112,1,0,0:0:0:0:
192,192,224284,1,0,0:0:0:0:
320,192,224284,1,0,0:0:0:0:
448,192,224455,1,0,0:0:0:0:
192,192,224455,1,0,0:0:0:0:
64,192,224455,1,0,0:0:0:0:
320,192,224627,1,0,0:0:0:0:
64,192,224627,1,0,0:0:0:0:
192,192,224798,1,0,0:0:0:0:
320,192,224969,1,0,0:0:0:0:
192,192,225055,1,0,0:0:0:0:
320,192,225141,1,0,0:0:0:0:
448,192,225141,1,0,0:0:0:0:
64,192,225141,1,0,0:0:0:0:
192,192,225227,1,0,0:0:0:0:
320,192,225312,1,0,0:0:0:0:
448,192,225312,1,0,0:0:0:0:
64,192,225398,1,0,0:0:0:0:
192,192,225484,1,0,0:0:0:0:
320,192,225484,1,0,0:0:0:0:
448,192,225484,1,0,0:0:0:0:
64,192,225569,1,0,0:0:0:0:
192,192,225655,1,0,0:0:0:0:
448,192,225655,1,0,0:0:0:0:
320,192,225741,1,0,0:0:0:0:
448,192,225827,1,0,0:0:0:0:
192,192,225827,1,0,0:0:0:0:
64,192,225827,1,0,0:0:0:0:
320,192,225912,1,0,0:0:0:0:
448,192,225998,1,0,0:0:0:0:
64,192,225998,1,0,0:0:0:0:
192,192,226084,1,0,0:0:0:0:
320,192,226169,1,0,0:0:0:0:
448,192,226169,1,0,0:0:0:0:
64,192,226169,1,0,0:0:0:0:
192,192,226255,1,0,0:0:0:0:
320,192,226341,1,0,0:0:0:0:
64,192,226341,1,0,0:0:0:0:
448,192,226427,1,0,0:0:0:0:
320,192,226512,1,0,0:0:0:0:
192,192,226512,1,0,0:0:0:0:
64,192,226512,1,0,0:0:0:0:
448,192,226598,1,0,0:0:0:0:
320,192,226684,1,0,0:0:0:0:
192,192,226684,1,0,0:0:0:0:
64,192,226769,1,0,0:0:0:0:
192,192,226855,1,0,0:0:0:0:
448,192,226855,1,0,0:0:0:0:
320,192,226855,1,0,0:0:0:0:
64,192,226941,1,0,0:0:0:0:
192,192,227027,1,0,0:0:0:0:
448,192,227027,1,0,0:0:0:0:
320,192,227112,1,0,0:0:0:0:
192,192,227198,1,0,0:0:0:0:
64,192,227198,1,0,0:0:0:0:
448,192,227198,1,0,0:0:0:0:
320,192,227284,1,0,0:0:0:0:
448,192,227369,1,0,0:0:0:0:
64,192,227369,1,0,0:0:0:0:
192,192,227455,1,0,0:0:0:0:
64,192,227541,1,0,0:0:0:0:
320,192,227541,1,0,0:0:0:0:
448,192,227541,1,0,0:0:0:0:
192,192,227627,1,0,0:0:0:0:
320,192,227712,1,0,0:0:0:0:
448,192,227712,1,0,0:0:0:0:
64,192,227798,1,0,0:0:0:0:
192,192,227884,1,0,0:0:0:0:
320,192,227884,1,0,0:0:0:0:
448,192,227884,1,0,0:0:0:0:
64,192,227969,1,0,0:0:0:0:
192,192,228055,1,0,0:0:0:0:
320,192,228055,1,0,0:0:0:0:
448,192,228141,1,0,0:0:0:0:
320,192,228227,1,0,0:0:0:0:
192,192,228227,1,0,0:0:0:0:
64,192,228227,1,0,0:0:0:0:
448,192,228312,1,0,0:0:0:0:
192,192,228398,1,0,0:0:0:0:
64,192,228398,1,0,0:0:0:0:
320,192,228484,1,0,0:0:0:0:
64,192,228569,1,0,0:0:0:0:
448,192,228569,1,0,0:0:0:0:
192,192,228569,1,0,0:0:0:0:
320,192,228655,1,0,0:0:0:0:
448,192,228741,1,0,0:0:0:0:
64,192,228741,1,0,0:0:0:0:
192,192,228827,1,0,0:0:0:0:
320,192,228912,1,0,0:0:0:0:
448,192,228912,1,0,0:0:0:0:
192,192,228998,1,0,0:0:0:0:
64,192,229084,1,0,0:0:0:0:
320,192,229084,1,0,0:0:0:0:
448,192,229084,1,0,0:0:0:0:
192,192,229427,1,0,0:0:0:0:
64,192,229427,1,0,0:0:0:0:
320,192,229427,1,0,0:0:0:0:
448,192,229598,1,0,0:0:0:0:
192,192,229598,1,0,0:0:0:0:
64,192,229598,1,0,0:0:0:0:
320,192,229769,1,0,0:0:0:0:
192,192,229941,1,0,0:0:0:0:
448,192,229941,1,0,0:0:0:0:
64,192,229941,1,0,0:0:0:0:
320,192,230112,1,0,0:0:0:0:
192,192,230198,1,0,0:0:0:0:
320,192,230284,1,0,0:0:0:0:
448,192,230284,1,0,0:0:0:0:
64,192,230284,1,0,0:0:0:0:
64,192,230455,1,0,0:0:0:0:
192,192,230541,1,0,0:0:0:0:
64,192,230627,1,0,0:0:0:0:
320,192,230627,1,0,0:0:0:0:
448,192,230627,1,0,0:0:0:0:
192,192,230712,1,0,0:0:0:0:
64,192,230798,1,0,0:0:0:0:
320,192,230798,1,0,0:0:0:0:
448,192,230884,1,0,0:0:0:0:
320,192,230969,1,0,0:0:0:0:
192,192,230969,1,0,0:0:0:0:
64,192,230969,1,0,0:0:0:0:
448,192,231055,1,0,0:0:0:0:
320,192,231141,1,0,0:0:0:0:
192,192,231141,1,0,0:0:0:0:
64,192,231227,1,0,0:0:0:0:
192,192,231312,1,0,0:0:0:0:
320,192,231312,1,0,0:0:0:0:
448,192,231312,1,0,0:0:0:0:
64,192,231398,1,0,0:0:0:0:
192,192,231484,1,0,0:0:0:0:
448,192,231484,1,0,0:0:0:0:
320,192,231569,1,0,0:0:0:0:
448,192,231655,1,0,0:0:0:0:
192,192,231655,1,0,0:0:0:0:
64,192,231655,1,0,0:0:0:0:
320,192,231741,1,0,0:0:0:0:
448,192,231827,1,0,0:0:0:0:
64,192,231827,1,0,0:0:0:0:
192,192,231912,1,0,0:0:0:0:
320,192,231998,1,0,0:0:0:0:
448,192,231998,1,0,0:0:0:0:
64,192,231998,1,0,0:0:0:0:
192,192,232084,1,0,0:0:0:0:
64,192,232169,1,0,0:0:0:0:
320,192,232169,1,0,0:0:0:0:
448,192,232255,1,0,0:0:0:0:
320,192,232341,1,0,0:0:0:0:
192,192,232341,1,0,0:0:0:0:
64,192,232341,1,0,0:0:0:0:
448,192,232427,1,0,0:0:0:0:
320,192,232512,1,0,0:0:0:0:
192,192,232512,1,0,0:0:0:0:
64,192,232598,1,0,0:0:0:0:
192,192,232684,1,0,0:0:0:0:
320,192,232684,1,0,0:0:0:0:
448,192,232684,1,0,0:0:0:0:
64,192,232769,1,0,0:0:0:0:
320,192,232855,1,0,0:0:0:0:
448,192,232855,1,0,0:0:0:0:
192,192,232941,1,0,0:0:0:0:
64,192,233027,1,0,0:0:0:0:
320,192,233027,1,0,0:0:0:0:
448,192,233027,1,0,0:0:0:0:
192,192,233112,1,0,0:0:0:0:
448,192,233198,1,0,0:0:0:0:
64,192,233198,1,0,0:0:0:0:
320,192,233284,1,0,0:0:0:0:
448,192,233369,1,0,0:0:0:0:
192,192,233369,1,0,0:0:0:0:
64,192,233369,1,0,0:0:0:0:
320,192,233455,1,0,0:0:0:0:
192,192,233541,1,0,0:0:0:0:
448,192,233541,1,0,0:0:0:0:
64,192,233627,1,0,0:0:0:0:
192,192,233712,1,0,0:0:0:0:
320,192,233712,1,0,0:0:0:0:
448,192,233712,1,0,0:0:0:0:
64,192,233798,1,0,0:0:0:0:
448,192,233884,1,0,0:0:0:0:
320,192,233884,1,0,0:0:0:0:
192,192,233969,1,0,0:0:0:0:
64,192,234055,1,0,0:0:0:0:
320,192,234055,1,0,0:0:0:0:
448,192,234055,1,0,0:0:0:0:
192,192,234141,1,0,0:0:0:0:
64,192,234227,1,0,0:0:0:0:
448,192,234227,1,0,0:0:0:0:
320,192,234312,1,0,0:0:0:0:
192,192,234398,1,0,0:0:0:0:
64,192,234398,1,0,0:0:0:0:
448,192,234398,1,0,0:0:0:0:
320,192,234484,1,0,0:0:0:0:
448,192,234569,1,0,0:0:0:0:
64,192,234569,1,0,0:0:0:0:
192,192,234655,1,0,0:0:0:0:
320,192,234741,1,0,0:0:0:0:
448,192,234741,1,0,0:0:0:0:
64,192,234741,1,0,0:0:0:0:
192,192,234827,1,0,0:0:0:0:
448,192,234912,1,0,0:0:0:0:
320,192,234998,1,0,0:0:0:0:
448,192,235084,1,0,0:0:0:0:
192,192,235084,1,0,0:0:0:0:
64,192,235084,1,0,0:0:0:0:
320,192,235169,1,0,0:0:0:0:
64,192,235255,1,0,0:0:0:0:
192,192,235341,1,0,0:0:0:0:
320,192,235427,1,0,0:0:0:0:
448,192,235427,1,0,0:0:0:0:
64,192,235427,1,0,0:0:0:0:
192,192,235512,1,0,0:0:0:0:
448,192,235598,1,0,0:0:0:0:
320,192,235684,1,0,0:0:0:0:
192,192,235769,1,0,0:0:0:0:
64,192,235769,1,0,0:0:0:0:
448,192,235769,1,0,0:0:0:0:
320,192,235855,1,0,0:0:0:0:
64,192,235941,1,0,0:0:0:0:
448,192,235941,1,0,0:0:0:0:
192,192,236027,1,0,0:0:0:0:
448,192,236112,1,0,0:0:0:0:
64,192,236112,1,0,0:0:0:0:
320,192,236112,1,0,0:0:0:0:
192,192,236198,1,0,0:0:0:0:
448,192,236284,1,0,0:0:0:0:
320,192,236284,1,0,0:0:0:0:
64,192,236369,1,0,0:0:0:0:
192,192,236455,1,0,0:0:0:0:
320,192,236455,1,0,0:0:0:0:
448,192,236455,1,0,0:0:0:0:
64,192,236541,1,0,0:0:0:0:
192,192,236627,1,0,0:0:0:0:
320,192,236627,1,0,0:0:0:0:
448,192,236712,1,0,0:0:0:0:
192,192,236798,1,0,0:0:0:0:
320,192,236798,1,0,0:0:0:0:
64,192,236798,1,0,0:0:0:0:
448,192,236884,1,0,0:0:0:0:
320,192,236969,1,0,0:0:0:0:
64,192,236969,1,0,0:0:0:0:
192,192,237055,1,0,0:0:0:0:
320,192,237141,1,0,0:0:0:0:
448,192,237141,1,0,0:0:0:0:
64,192,237141,1,0,0:0:0:0:
192,192,237227,1,0,0:0:0:0:
320,192,237312,1,0,0:0:0:0:
448,192,237312,1,0,0:0:0:0:
64,192,237398,1,0,0:0:0:0:
192,192,237484,1,0,0:0:0:0:
320,192,237484,1,0,0:0:0:0:
448,192,237484,1,0,0:0:0:0:
64,192,237569,1,0,0:0:0:0:
192,192,237655,1,0,0:0:0:0:
448,192,237655,1,0,0:0:0:0:
320,192,237741,5,0,0:0:0:0:
192,192,237827,1,0,0:0:0:0:
64,192,237827,1,0,0:0:0:0:
448,192,237827,1,0,0:0:0:0:
320,192,237912,1,0,0:0:0:0:
64,192,237998,1,0,0:0:0:0:
192,192,237998,1,0,0:0:0:0:
448,192,238084,1,0,0:0:0:0:
320,192,238169,1,0,0:0:0:0:
64,192,238169,1,0,0:0:0:0:
192,192,238169,1,0,0:0:0:0:
448,192,238255,1,0,0:0:0:0:
320,192,238341,1,0,0:0:0:0:
192,192,238341,1,0,0:0:0:0:
64,192,238427,1,0,0:0:0:0:
320,192,238512,1,0,0:0:0:0:
192,192,238512,1,0,0:0:0:0:
448,192,238512,1,0,0:0:0:0:
64,192,238598,1,0,0:0:0:0:
192,192,238684,1,0,0:0:0:0:
448,192,238684,1,0,0:0:0:0:
320,192,238769,1,0,0:0:0:0:
192,192,238855,5,0,0:0:0:0:
448,192,238855,1,0,0:0:0:0:
64,192,238855,1,0,0:0:0:0:
320,192,239027,1,0,0:0:0:0:
448,192,239027,1,0,0:0:0:0:
64,192,239027,1,0,0:0:0:0:
192,192,239198,1,0,0:0:0:0:
320,192,239198,1,0,0:0:0:0:
64,192,239198,1,0,0:0:0:0:
192,192,239369,1,0,0:0:0:0:
320,192,239369,1,0,0:0:0:0:
448,192,239369,1,0,0:0:0:0:
192,192,239541,1,0,0:0:0:0:
64,192,239541,1,0,0:0:0:0:
448,192,239541,1,0,0:0:0:0:
320,192,239712,1,0,0:0:0:0:
448,192,239712,1,0,0:0:0:0:
64,192,239712,1,0,0:0:0:0:
320,192,239884,1,0,0:0:0:0:
192,192,239884,1,0,0:0:0:0:
64,192,239884,1,0,0:0:0:0:
192,192,240055,1,0,0:0:0:0:
320,192,240055,1,0,0:0:0:0:
448,192,240055,1,0,0:0:0:0:
448,192,240398,1,0,0:0:0:0:
320,192,240398,1,0,0:0:0:0:
64,192,240398,1,0,0:0:0:0:
192,192,240484,1,0,0:0:0:0:
320,192,240569,1,0,0:0:0:0:
192,192,240655,1,0,0:0:0:0:
64,192,240655,1,0,0:0:0:0:
448,192,240655,1,0,0:0:0:0:
320,192,240741,1,0,0:0:0:0:
192,192,240827,1,0,0:0:0:0:
448,192,240912,1,0,0:0:0:0:
64,192,240912,1,0,0:0:0:0:
192,192,240955,1,0,0:0:0:0:
320,192,240998,1,0,0:0:0:0:
448,192,241041,1,0,0:0:0:0:
64,192,241084,1,0,0:0:0:0:
192,192,241127,1,0,0:0:0:0:
320,192,241169,1,0,0:0:0:0:
448,192,241212,1,0,0:0:0:0:
192,192,241255,1,0,0:0:0:0:
64,192,241255,128,0,241598:0:0:0:0:
320,192,241341,1,0,0:0:0:0:
448,192,241427,1,0,0:0:0:0:
192,192,241512,1,0,0:0:0:0:
320,192,241598,1,0,0:0:0:0:
448,192,241598,1,0,0:0:0:0:
192,192,241684,1,0,0:0:0:0:
64,192,241769,1,0,0:0:0:0:
448,192,241769,1,0,0:0:0:0:
320,192,241855,1,0,0:0:0:0:
192,192,241941,1,0,0:0:0:0:
448,192,241941,1,0,0:0:0:0:
320,192,242027,1,0,0:0:0:0:
64,192,242027,1,0,0:0:0:0:
192,192,242112,1,0,0:0:0:0:
448,192,242112,1,0,0:0:0:0:
320,192,242198,1,0,0:0:0:0:
64,192,242198,1,0,0:0:0:0:
448,192,242284,1,0,0:0:0:0:
192,192,242284,1,0,0:0:0:0:
64,192,242284,1,0,0:0:0:0:
320,192,242369,1,0,0:0:0:0:
192,192,242455,1,0,0:0:0:0:
320,192,242541,1,0,0:0:0:0:
448,192,242541,1,0,0:0:0:0:
64,192,242541,1,0,0:0:0:0:
192,192,242627,1,0,0:0:0:0:
320,192,242712,1,0,0:0:0:0:
64,192,242798,1,0,0:0:0:0:
448,192,242798,1,0,0:0:0:0:
192,192,242884,1,0,0:0:0:0:
320,192,242884,1,0,0:0:0:0:
448,192,242969,1,0,0:0:0:0:
64,192,242969,1,0,0:0:0:0:
192,192,243055,1,0,0:0:0:0:
320,192,243141,1,0,0:0:0:0:
448,192,243141,1,0,0:0:0:0:
192,192,243227,1,0,0:0:0:0:
64,192,243227,1,0,0:0:0:0:
320,192,243312,1,0,0:0:0:0:
448,192,243312,1,0,0:0:0:0:
192,192,243398,1,0,0:0:0:0:
64,192,243484,1,0,0:0:0:0:
320,192,243484,1,0,0:0:0:0:
448,192,243569,1,0,0:0:0:0:
192,192,243569,1,0,0:0:0:0:
320,192,243655,1,0,0:0:0:0:
192,192,243655,1,0,0:0:0:0:
64,192,243655,1,0,0:0:0:0:
448,192,243741,1,0,0:0:0:0:
320,192,243827,1,0,0:0:0:0:
192,192,243912,1,0,0:0:0:0:
64,192,243998,1,0,0:0:0:0:
320,192,243998,1,0,0:0:0:0:
448,192,243998,1,0,0:0:0:0:
192,192,244084,1,0,0:0:0:0:
448,192,244169,1,0,0:0:0:0:
320,192,244255,1,0,0:0:0:0:
192,192,244341,1,0,0:0:0:0:
64,192,244341,1,0,0:0:0:0:
448,192,244341,1,0,0:0:0:0:
320,192,244427,1,0,0:0:0:0:
448,192,244512,1,0,0:0:0:0:
192,192,244512,1,0,0:0:0:0:
64,192,244598,1,0,0:0:0:0:
320,192,244684,1,0,0:0:0:0:
448,192,244684,1,0,0:0:0:0:
192,192,244769,1,0,0:0:0:0:
64,192,244769,1,0,0:0:0:0:
320,192,244855,1,0,0:0:0:0:
448,192,244855,1,0,0:0:0:0:
192,192,244941,1,0,0:0:0:0:
64,192,244941,1,0,0:0:0:0:
64,192,245027,1,0,0:0:0:0:
320,192,245027,1,0,0:0:0:0:
448,192,245027,1,0,0:0:0:0:
192,192,245112,1,0,0:0:0:0:
320,192,245198,1,0,0:0:0:0:
192,192,245284,1,0,0:0:0:0:
64,192,245284,1,0,0:0:0:0:
448,192,245284,1,0,0:0:0:0:
320,192,245369,1,0,0:0:0:0:
192,192,245455,1,0,0:0:0:0:
448,192,245541,1,0,0:0:0:0:
64,192,245541,1,0,0:0:0:0:
320,192,245627,1,0,0:0:0:0:
192,192,245627,1,0,0:0:0:0:
64,192,245712,1,0,0:0:0:0:
448,192,245712,1,0,0:0:0:0:
320,192,245798,1,0,0:0:0:0:
192,192,245884,1,0,0:0:0:0:
64,192,245884,1,0,0:0:0:0:
320,192,245969,1,0,0:0:0:0:
448,192,245969,1,0,0:0:0:0:
192,192,246055,1,0,0:0:0:0:
64,192,246055,1,0,0:0:0:0:
320,192,246141,1,0,0:0:0:0:
448,192,246227,1,0,0:0:0:0:
192,192,246227,1,0,0:0:0:0:
64,192,246312,1,0,0:0:0:0:
320,192,246312,1,0,0:0:0:0:
192,192,246398,1,0,0:0:0:0:
320,192,246398,1,0,0:0:0:0:
448,192,246398,1,0,0:0:0:0:
64,192,246484,1,0,0:0:0:0:
192,192,246569,1,0,0:0:0:0:
320,192,246655,1,0,0:0:0:0:
448,192,246741,1,0,0:0:0:0:
192,192,246741,1,0,0:0:0:0:
64,192,246741,1,0,0:0:0:0:
320,192,246827,1,0,0:0:0:0:
64,192,246912,1,0,0:0:0:0:
192,192,246998,1,0,0:0:0:0:
320,192,247084,1,0,0:0:0:0:
448,192,247084,1,0,0:0:0:0:
64,192,247084,1,0,0:0:0:0:
192,192,247169,1,0,0:0:0:0:
448,192,247255,1,0,0:0:0:0:
320,192,247255,1,0,0:0:0:0:
64,192,247341,1,0,0:0:0:0:
192,192,247427,1,0,0:0:0:0:
320,192,247427,1,0,0:0:0:0:
64,192,247512,1,0,0:0:0:0:
448,192,247512,1,0,0:0:0:0:
192,192,247598,1,0,0:0:0:0:
320,192,247598,1,0,0:0:0:0:
64,192,247684,1,0,0:0:0:0:
448,192,247684,1,0,0:0:0:0:
192,192,247769,1,0,0:0:0:0:
320,192,247769,1,0,0:0:0:0:
448,192,247769,1,0,0:0:0:0:
64,192,247855,1,0,0:0:0:0:
448,192,247941,1,0,0:0:0:0:
320,192,248027,1,0,0:0:0:0:
192,192,248027,1,0,0:0:0:0:
64,192,248027,1,0,0:0:0:0:
448,192,248112,1,0,0:0:0:0:
64,192,248198,1,0,0:0:0:0:
448,192,248284,1,0,0:0:0:0:
320,192,248284,1,0,0:0:0:0:
192,192,248369,1,0,0:0:0:0:
64,192,248369,1,0,0:0:0:0:
320,192,248455,1,0,0:0:0:0:
448,192,248455,1,0,0:0:0:0:
192,192,248541,1,0,0:0:0:0:
64,192,248627,1,0,0:0:0:0:
448,192,248627,1,0,0:0:0:0:
192,192,248712,1,0,0:0:0:0:
320,192,248712,1,0,0:0:0:0:
64,192,248798,1,0,0:0:0:0:
448,192,248798,1,0,0:0:0:0:
320,192,248884,1,0,0:0:0:0:
192,192,248969,1,0,0:0:0:0:
448,192,248969,1,0,0:0:0:0:
320,192,249055,1,0,0:0:0:0:
64,192,249055,1,0,0:0:0:0:
192,192,249141,1,0,0:0:0:0:
64,192,249141,1,0,0:0:0:0:
448,192,249141,1,0,0:0:0:0:
320,192,249227,1,0,0:0:0:0:
192,192,249312,1,0,0:0:0:0:
448,192,249398,1,0,0:0:0:0:
320,192,249484,1,0,0:0:0:0:
192,192,249484,1,0,0:0:0:0:
64,192,249484,1,0,0:0:0:0:
448,192,249569,1,0,0:0:0:0:
64,192,249655,1,0,0:0:0:0:
320,192,249741,1,0,0:0:0:0:
192,192,249827,1,0,0:0:0:0:
448,192,249827,1,0,0:0:0:0:
64,192,249827,1,0,0:0:0:0:
320,192,249912,1,0,0:0:0:0:
192,192,249998,1,0,0:0:0:0:
64,192,249998,1,0,0:0:0:0:
448,192,250084,1,0,0:0:0:0:
320,192,250169,1,0,0:0:0:0:
64,192,250169,1,0,0:0:0:0:
192,192,250255,1,0,0:0:0:0:
448,192,250255,1,0,0:0:0:0:
320,192,250341,1,0,0:0:0:0:
64,192,250341,1,0,0:0:0:0:
192,192,250427,1,0,0:0:0:0:
448,192,250427,1,0,0:0:0:0:
320,192,250512,1,0,0:0:0:0:
448,192,250512,1,0,0:0:0:0:
64,192,250512,1,0,0:0:0:0:
192,192,250598,1,0,0:0:0:0:
320,192,250684,1,0,0:0:0:0:
192,192,250769,1,0,0:0:0:0:
64,192,250769,1,0,0:0:0:0:
448,192,250769,1,0,0:0:0:0:
320,192,250855,1,0,0:0:0:0:
192,192,250941,1,0,0:0:0:0:
320,192,251027,1,0,0:0:0:0:
448,192,251027,1,0,0:0:0:0:
192,192,251112,1,0,0:0:0:0:
64,192,251112,1,0,0:0:0:0:
320,192,251198,1,0,0:0:0:0:
448,192,251198,1,0,0:0:0:0:
64,192,251198,1,0,0:0:0:0:
192,192,251284,1,0,0:0:0:0:
64,192,251369,1,0,0:0:0:0:
448,192,251455,1,0,0:0:0:0:
192,192,251541,1,0,0:0:0:0:
64,192,251541,1,0,0:0:0:0:
320,192,251541,1,0,0:0:0:0:
448,192,251627,1,0,0:0:0:0:
64,192,251712,1,0,0:0:0:0:
192,192,251798,1,0,0:0:0:0:
320,192,251884,1,0,0:0:0:0:
448,192,251884,1,0,0:0:0:0:
64,192,251884,1,0,0:0:0:0:
192,192,251969,1,0,0:0:0:0:
448,192,252055,1,0,0:0:0:0:
64,192,252141,1,0,0:0:0:0:
448,192,252227,1,0,0:0:0:0:
192,192,252227,1,0,0:0:0:0:
320,192,252227,1,0,0:0:0:0:
64,192,252312,1,0,0:0:0:0:
448,192,252398,1,0,0:0:0:0:
320,192,252484,1,0,0:0:0:0:
448,192,252569,1,0,0:0:0:0:
64,192,252569,1,0,0:0:0:0:
192,192,252569,1,0,0:0:0:0:
320,192,252655,1,0,0:0:0:0:
192,192,252741,1,0,0:0:0:0:
448,192,252741,1,0,0:0:0:0:
64,192,252827,1,0,0:0:0:0:
448,192,252912,1,0,0:0:0:0:
320,192,252912,1,0,0:0:0:0:
64,192,252998,1,0,0:0:0:0:
192,192,252998,1,0,0:0:0:0:
448,192,253084,1,0,0:0:0:0:
320,192,253084,1,0,0:0:0:0:
64,192,253169,1,0,0:0:0:0:
192,192,253169,1,0,0:0:0:0:
448,192,253255,1,0,0:0:0:0:
320,192,253255,1,0,0:0:0:0:
64,192,253255,1,0,0:0:0:0:
192,192,253341,1,0,0:0:0:0:
320,192,253427,1,0,0:0:0:0:
448,192,253512,1,0,0:0:0:0:
64,192,253512,1,0,0:0:0:0:
192,192,253512,1,0,0:0:0:0:
320,192,253598,1,0,0:0:0:0:
192,192,253684,1,0,0:0:0:0:
64,192,253769,1,0,0:0:0:0:
448,192,253769,1,0,0:0:0:0:
192,192,253855,1,0,0:0:0:0:
320,192,253855,1,0,0:0:0:0:
448,192,253941,1,0,0:0:0:0:
64,192,253941,1,0,0:0:0:0:
320,192,254027,1,0,0:0:0:0:
64,192,254112,1,0,0:0:0:0:
192,192,254112,1,0,0:0:0:0:
448,192,254198,1,0,0:0:0:0:
320,192,254198,1,0,0:0:0:0:
64,192,254284,1,0,0:0:0:0:
192,192,254284,1,0,0:0:0:0:
320,192,254369,1,0,0:0:0:0:
192,192,254455,1,0,0:0:0:0:
448,192,254455,1,0,0:0:0:0:
320,192,254541,1,0,0:0:0:0:
64,192,254541,1,0,0:0:0:0:
448,192,254627,1,0,0:0:0:0:
320,192,254627,1,0,0:0:0:0:
192,192,254627,1,0,0:0:0:0:
64,192,254712,1,0,0:0:0:0:
192,192,254798,1,0,0:0:0:0:
320,192,254884,1,0,0:0:0:0:
64,192,254969,1,0,0:0:0:0:
192,192,254969,1,0,0:0:0:0:
448,192,254969,1,0,0:0:0:0:
320,192,255055,1,0,0:0:0:0:
64,192,255141,1,0,0:0:0:0:
192,192,255227,1,0,0:0:0:0:
64,192,255312,1,0,0:0:0:0:
448,192,255312,1,0,0:0:0:0:
320,192,255312,1,0,0:0:0:0:
192,192,255398,1,0,0:0:0:0:
320,192,255484,1,0,0:0:0:0:
64,192,255484,1,0,0:0:0:0:
448,192,255569,1,0,0:0:0:0:
64,192,255655,1,0,0:0:0:0:
192,192,255655,1,0,0:0:0:0:
448,192,255741,1,0,0:0:0:0:
320,192,255741,1,0,0:0:0:0:
64,192,255827,1,0,0:0:0:0:
192,192,255827,1,0,0:0:0:0:
448,192,255912,1,0,0:0:0:0:
320,192,255912,1,0,0:0:0:0:
64,192,255998,1,0,0:0:0:0:
192,192,255998,1,0,0:0:0:0:
448,192,255998,1,0,0:0:0:0:
320,192,256084,1,0,0:0:0:0:
192,192,256169,1,0,0:0:0:0:
64,192,256255,1,0,0:0:0:0:
448,192,256255,1,0,0:0:0:0:
320,192,256255,1,0,0:0:0:0:
192,192,256341,1,0,0:0:0:0:
320,192,256427,1,0,0:0:0:0:
448,192,256512,1,0,0:0:0:0:
64,192,256512,1,0,0:0:0:0:
320,192,256598,1,0,0:0:0:0:
192,192,256598,1,0,0:0:0:0:
64,192,256684,1,0,0:0:0:0:
448,192,256684,1,0,0:0:0:0:
192,192,256769,1,0,0:0:0:0:
448,192,256855,1,0,0:0:0:0:
320,192,256855,1,0,0:0:0:0:
64,192,256941,1,0,0:0:0:0:
192,192,256941,1,0,0:0:0:0:
448,192,257027,1,0,0:0:0:0:
320,192,257027,1,0,0:0:0:0:
192,192,257112,1,0,0:0:0:0:
320,192,257198,1,0,0:0:0:0:
64,192,257198,1,0,0:0:0:0:
192,192,257284,1,0,0:0:0:0:
448,192,257284,1,0,0:0:0:0:
64,192,257369,1,0,0:0:0:0:
192,192,257369,1,0,0:0:0:0:
320,192,257369,1,0,0:0:0:0:
448,192,257455,1,0,0:0:0:0:
320,192,257541,1,0,0:0:0:0:
192,192,257627,1,0,0:0:0:0:
448,192,257712,1,0,0:0:0:0:
320,192,257712,1,0,0:0:0:0:
64,192,257712,1,0,0:0:0:0:
192,192,257798,1,0,0:0:0:0:
448,192,257884,1,0,0:0:0:0:
320,192,257969,1,0,0:0:0:0:
448,192,258055,1,0,0:0:0:0:
64,192,258055,1,0,0:0:0:0:
192,192,258055,1,0,0:0:0:0:
320,192,258141,1,0,0:0:0:0:
64,192,258227,1,0,0:0:0:0:
192,192,258227,1,0,0:0:0:0:
448,192,258312,1,0,0:0:0:0:
64,192,258398,1,0,0:0:0:0:
320,192,258398,1,0,0:0:0:0:
448,192,258484,1,0,0:0:0:0:
192,192,258484,1,0,0:0:0:0:
64,192,258569,1,0,0:0:0:0:
320,192,258569,1,0,0:0:0:0:
448,192,258655,1,0,0:0:0:0:
192,192,258655,1,0,0:0:0:0:
64,192,258741,1,0,0:0:0:0:
192,192,258741,1,0,0:0:0:0:
320,192,258741,1,0,0:0:0:0:
448,192,258827,1,0,0:0:0:0:
64,192,258912,1,0,0:0:0:0:
448,192,258998,1,0,0:0:0:0:
320,192,258998,1,0,0:0:0:0:
192,192,258998,1,0,0:0:0:0:
64,192,259084,1,0,0:0:0:0:
448,192,259169,1,0,0:0:0:0:
192,192,259255,1,0,0:0:0:0:
64,192,259255,1,0,0:0:0:0:
448,192,259341,1,0,0:0:0:0:
320,192,259341,1,0,0:0:0:0:
64,192,259427,1,0,0:0:0:0:
192,192,259427,1,0,0:0:0:0:
320,192,259512,1,0,0:0:0:0:
64,192,259598,1,0,0:0:0:0:
448,192,259598,1,0,0:0:0:0:
192,192,259684,1,0,0:0:0:0:
320,192,259684,1,0,0:0:0:0:
64,192,259769,1,0,0:0:0:0:
448,192,259769,1,0,0:0:0:0:
192,192,259855,1,0,0:0:0:0:
64,192,259941,1,0,0:0:0:0:
320,192,259941,1,0,0:0:0:0:
448,192,260027,1,0,0:0:0:0:
192,192,260027,1,0,0:0:0:0:
64,192,260112,1,0,0:0:0:0:
448,192,260112,1,0,0:0:0:0:
320,192,260112,1,0,0:0:0:0:
192,192,260198,1,0,0:0:0:0:
320,192,260284,1,0,0:0:0:0:
64,192,260369,1,0,0:0:0:0:
448,192,260455,1,0,0:0:0:0:
320,192,260455,1,0,0:0:0:0:
192,192,260455,1,0,0:0:0:0:
64,192,260541,1,0,0:0:0:0:
448,192,260627,1,0,0:0:0:0:
192,192,260712,1,0,0:0:0:0:
448,192,260798,1,0,0:0:0:0:
64,192,260798,1,0,0:0:0:0:
320,192,260798,1,0,0:0:0:0:
448,192,260969,1,0,0:0:0:0:
64,192,260969,1,0,0:0:0:0:
192,192,260969,1,0,0:0:0:0:
448,192,261141,1,0,0:0:0:0:
320,192,261141,1,0,0:0:0:0:
192,192,261141,1,0,0:0:0:0:
64,192,261312,1,0,0:0:0:0:
192,192,261312,1,0,0:0:0:0:
320,192,261312,1,0,0:0:0:0:
64,192,261484,1,0,0:0:0:0:
320,192,261484,1,0,0:0:0:0:
448,192,261484,1,0,0:0:0:0:
448,192,261655,1,0,0:0:0:0:
64,192,261655,1,0,0:0:0:0:
192,192,261655,1,0,0:0:0:0:
320,192,261827,1,0,0:0:0:0:
448,192,261827,1,0,0:0:0:0:
192,192,261827,1,0,0:0:0:0:
320,192,261998,1,0,0:0:0:0:
64,192,261998,1,0,0:0:0:0:
192,192,261998,1,0,0:0:0:0:
64,192,262169,1,0,0:0:0:0:
448,192,262169,1,0,0:0:0:0:
320,192,262169,1,0,0:0:0:0:
192,192,262255,1,0,0:0:0:0:
448,192,262341,1,0,0:0:0:0:
64,192,262341,1,0,0:0:0:0:
320,192,262427,5,0,0:0:0:0:
448,192,262512,1,0,0:0:0:0:
64,192,262512,1,0,0:0:0:0:
192,192,262512,1,0,0:0:0:0:
320,192,262598,1,0,0:0:0:0:
64,192,262684,1,0,0:0:0:0:
448,192,262684,1,0,0:0:0:0:
192,192,262769,1,0,0:0:0:0:
64,192,262855,1,0,0:0:0:0:
448,192,262855,1,0,0:0:0:0:
320,192,262855,1,0,0:0:0:0:
192,192,262941,1,0,0:0:0:0:
448,192,263027,1,0,0:0:0:0:
64,192,263027,1,0,0:0:0:0:
320,192,263112,1,0,0:0:0:0:
448,192,263198,1,0,0:0:0:0:
64,192,263198,1,0,0:0:0:0:
192,192,263198,1,0,0:0:0:0:
320,192,263284,1,0,0:0:0:0:
64,192,263369,1,0,0:0:0:0:
448,192,263369,1,0,0:0:0:0:
192,192,263455,1,0,0:0:0:0:
64,192,263541,1,0,0:0:0:0:
320,192,263541,1,0,0:0:0:0:
448,192,263541,1,0,0:0:0:0:
