osu file format v14

[General]
AudioFilename: audio.MP3
AudioLeadIn: 0
PreviewTime: 69239
Countdown: 0
SampleSet: Soft
StackLeniency: 0.2
Mode: 0
LetterboxInBreaks: 0
WidescreenStoryboard: 1

[Editor]
Bookmarks: 91474,187827,199121
DistanceSpacing: 1.5
BeatDivisor: 4
GridSize: 4
TimelineZoom: 2.799999

[Metadata]
Title:Look For The Truth
TitleUnicode:Look For The Truth
Artist:ALiCE'S EMOTION
ArtistUnicode:ALiCE'S EMOTION
Creator:Riana
Version:Truth
Source:東方花映塚 ~ Phantasmagoria of Flower View.
Tags:東方Project 東方花映塚 Touhou c80 野宮あゆみ nomiya ayumi shikieiki yamaxanadu radiata comiket80 redalice eastern judgement of sixtieth year Fate Sixty Years 六十年目の東方裁判 kaeizuka japanese video game electronic LMT Adinda Dora-
BeatmapID:2843799
BeatmapSetID:1332617

[Difficulty]
HPDrainRate:6
CircleSize:4
OverallDifficulty:9
ApproachRate:9.5
SliderMultiplier:2
SliderTickRate:1

[Events]
//Background and Video events
0,0,"64099091_p0.jpg",0,0
//Break Periods
//Storyboard Layer 0 (Background)
//Storyboard Layer 1 (Fail)
//Storyboard Layer 2 (Pass)
//Storyboard Layer 3 (Foreground)
//Storyboard Layer 4 (Overlay)
//Storyboard Sound Samples

[TimingPoints]
63,352.941176470588,4,2,1,80,1,0
6415,-76.9230769230769,4,2,1,80,0,0
6768,-100,4,2,1,80,0,0
11004,-100,4,2,2,80,0,0
11268,-100,4,2,1,80,0,0
11533,-100,4,2,2,80,0,0
11798,-100,4,2,1,80,0,0
12062,-100,4,2,2,80,0,0
12327,-100,4,2,1,80,0,0
12415,-100,4,2,2,80,0,0
12768,-66.6666666666667,4,2,3,90,0,0
12945,-66.6666666666667,4,2,2,90,0,0
22562,-66.6666666666667,4,2,1,90,0,0
22827,-66.6666666666667,4,2,2,90,0,0
23092,-66.6666666666667,4,2,1,90,0,0
23357,-66.6666666666667,4,2,2,90,0,0
23621,-66.6666666666667,4,2,1,90,0,0
23886,-50,4,2,2,90,0,0
24062,-76.9230769230769,4,2,4,80,0,0
33592,-76.9230769230769,4,2,5,80,0,0
35710,-76.9230769230769,4,2,4,80,0,0
45239,-76.9230769230769,4,2,5,80,0,0
46298,-76.9230769230769,4,2,6,80,0,0
46651,-133.333333333333,4,2,6,70,0,0
57592,-76.9230769230769,4,2,6,70,0,0
57945,-66.6666666666667,4,2,7,80,0,0
58298,-66.6666666666667,4,2,2,80,0,0
67827,-55.5555555555556,4,2,3,70,0,0
68180,-69.4444444444444,4,2,3,70,0,0
68533,-92.5925925925926,4,2,3,70,0,0
68621,-111.111111111111,4,2,3,70,0,0
68710,-138.888888888889,4,2,3,70,0,0
68798,-185.185185185185,4,2,3,70,0,0
69239,-66.6666666666667,4,2,3,90,0,1
69415,-66.6666666666667,4,2,2,90,0,1
80533,-66.6666666666667,4,2,3,90,0,1
80710,-66.6666666666667,4,2,2,90,0,1
89004,-66.6666666666667,4,2,2,75,0,1
89533,-66.6666666666667,4,2,8,75,0,1
89710,-100,4,2,8,75,0,1
90415,-75,4,2,8,75,0,1
90945,-100,4,2,8,75,0,1
91474,-100,4,2,3,75,0,1
91827,-66.6666666666667,4,2,3,90,0,0
92004,-66.6666666666667,4,2,2,90,0,0
101004,-66.6666666666667,4,2,2,90,0,0
101621,-66.6666666666667,4,2,1,90,0,0
101886,-66.6666666666667,4,2,2,90,0,0
102151,-66.6666666666667,4,2,1,90,0,0
102415,-66.6666666666667,4,2,2,90,0,0
102680,-66.6666666666667,4,2,1,90,0,0
102945,-50,4,2,2,90,0,0
103121,-76.9230769230769,4,2,4,80,0,0
112651,-76.9230769230769,4,2,5,80,0,0
114768,-76.9230769230769,4,2,4,80,0,0
124298,-76.9230769230769,4,2,5,80,0,0
125357,-76.9230769230769,4,2,6,80,0,0
125710,-83.3333333333333,4,2,6,80,0,0
137004,-66.6666666666667,4,2,7,80,0,0
137357,-66.6666666666667,4,2,2,80,0,0
146710,-66.6666666666667,4,2,2,80,0,0
146886,-55.5555555555556,4,2,3,70,0,0
147239,-69.4444444444444,4,2,3,70,0,0
147592,-92.5925925925926,4,2,3,70,0,0
147680,-111.111111111111,4,2,3,70,0,0
147769,-138.888888888889,4,2,3,70,0,0
147857,-185.185185185185,4,2,3,70,0,0
148298,-66.6666666666667,4,2,3,90,0,1
148474,-66.6666666666667,4,2,2,90,0,1
159592,-66.6666666666667,4,2,3,90,0,1
159768,-66.6666666666667,4,2,2,90,0,1
168062,-66.6666666666667,4,2,2,75,0,1
168592,-66.6666666666667,4,2,8,75,0,1
168768,-100,4,2,8,75,0,1
169474,-75.0000000000019,4,2,8,75,0,1
170004,-100,4,2,8,75,0,1
170180,-100,4,2,8,75,0,1
170533,-100,4,2,8,75,0,1
170886,-50,4,2,4,80,0,0
175827,-50,4,2,4,80,0,0
176180,-50,4,2,9,80,0,0
176533,-57.1428571428571,4,2,9,85,0,0
183415,-333.333333333333,4,2,9,85,0,0
183592,-1000,4,2,9,85,0,0
183768,-57.1428571428571,4,2,9,85,0,0
184651,-50,4,2,9,85,0,0
186062,-50,4,2,10,85,0,0
186945,-50,4,2,9,85,0,0
187121,-50,4,2,10,85,0,0
187827,-50,4,2,6,70,0,0
199121,-133.333333333333,4,2,11,80,0,0
199827,-133.333333333333,4,2,6,80,0,0
209004,-133.333333333333,4,2,8,70,0,0
210415,-66.6666666666667,4,2,3,90,0,1
210592,-66.6666666666667,4,2,2,90,0,1
221710,-66.6666666666667,4,2,3,90,0,1
221886,-66.6666666666667,4,2,2,90,0,1
230180,-66.6666666666667,4,2,2,75,0,1
230710,-66.6666666666667,4,2,8,75,0,1
230886,-100,4,2,8,75,0,1
231592,-75,4,2,8,75,0,1
232121,-100,4,2,8,75,0,1
232651,-100,4,2,3,75,0,1
233004,-66.6666666666667,4,2,3,90,0,0
233180,-66.6666666666667,4,2,2,90,0,0
242798,-66.6666666666667,4,2,1,90,0,0
243062,-66.6666666666667,4,2,2,90,0,0
243327,-66.6666666666667,4,2,1,90,0,0
243592,-66.6666666666667,4,2,2,90,0,0
243857,-66.6666666666667,4,2,1,90,0,0
244121,-50,4,2,2,90,0,0
244298,-66.6666666666667,4,2,3,90,0,0
244474,-66.6666666666667,4,2,2,90,0,0
254092,-66.6666666666667,4,2,1,90,0,0
254357,-66.6666666666667,4,2,2,90,0,0
254621,-66.6666666666667,4,2,1,90,0,0
254886,-66.6666666666667,4,2,2,90,0,0
255151,-66.6666666666667,4,2,1,90,0,0
255415,-100,4,2,12,90,0,0
257180,-200,4,2,12,90,0,0
257268,-200,4,2,12,90,0,0
257357,-200,4,2,12,90,0,0

[Colours]
Combo1 : 233,225,238
Combo2 : 187,188,221
Combo3 : 227,198,198
Combo4 : 208,210,181

[HitObjects]
116,87,1474,6,0,P|124:151|162:193,1,100,6|0,3:2|0:0,0:0:0:0:
283,52,1739,1,2,0:0:0:0:
283,52,1827,2,0,P|224:79|196:128,1,100,2|0,3:2|0:0,0:0:0:0:
399,105,2092,5,0,0:0:0:0:
399,105,2180,2,0,P|378:78|352:68,3,50,2|0|0|0,3:2|0:0|0:0|0:0,0:0:0:0:
304,132,2533,2,0,P|325:159|351:169,3,50,2|0|0|0,3:2|0:0|0:0|0:0,0:0:0:0:
385,239,2886,5,2,3:2:0:0:
385,239,2974,2,0,P|372:301|328:322,1,100,2|0,0:0|0:0,0:0:0:0:
433,314,3239,1,0,3:0:0:0:
433,314,3327,2,0,P|385:271|389:223,1,100,2|0,0:0|0:0,0:0:0:0:
469,147,3592,5,0,3:0:0:0:
482,115,3680,1,0,0:0:0:0:
481,82,3768,2,0,P|463:49|441:36,1,50,2|0,0:0|0:0,0:0:0:0:
243,24,3945,1,2,3:2:0:0:
243,24,4033,2,0,P|252:37|294:51,1,50,2|0,0:0|0:0,0:0:0:0:
391,163,4210,1,0,0:0:0:0:
391,163,4298,5,2,3:2:0:0:
391,161,4386,2,0,P|353:192|305:188,1,100,2|0,0:0|0:0,0:0:0:0:
129,322,4651,1,0,3:0:0:0:
129,322,4739,2,0,P|173:301|189:255,1,100,2|0,0:0|0:0,0:0:0:0:
313,56,5004,5,2,3:2:0:0:
313,56,5092,2,0,P|321:103|294:143,1,100,2|0,0:0|0:0,0:0:0:0:
68,205,5357,1,0,3:0:0:0:
68,205,5445,2,0,P|108:232|155:223,1,100,2|0,0:0|0:0,0:0:0:0:
201,61,5710,5,2,3:2:0:0:
201,61,5798,2,0,P|241:88|249:136,1,100,2|0,0:0|0:0,0:0:0:0:
122,106,6062,1,0,3:0:0:0:
122,106,6150,2,0,P|130:153|170:181,1,100,2|0,0:0|0:0,0:0:0:0:
302,334,6415,6,0,P|306:305|271:257,3,64.9999970245363,2|0|0|0,3:2|0:0|0:0|0:0,0:0:0:0:
208,169,6768,1,0,3:0:0:0:
248,105,6857,1,0,3:0:0:0:
320,87,6945,1,0,3:0:0:0:
384,124,7033,1,0,3:0:0:0:
403,203,7121,6,0,P|374:260|316:277,1,100,2|0,3:2|0:0,0:0:0:0:
445,52,7386,1,2,0:0:0:0:
445,52,7474,2,0,P|485:101|481:161,1,100,2|0,3:2|0:0,0:0:0:0:
225,60,7739,5,0,0:0:0:0:
225,60,7827,2,0,P|246:33|272:23,3,50,2|0|0|0,3:2|0:0|0:0|0:0,0:0:0:0:
320,87,8180,2,0,P|299:114|273:124,3,50,2|0|0|0,3:2|0:0|0:0|0:0,0:0:0:0:
163,224,8533,5,2,3:2:0:0:
163,224,8621,2,0,P|176:162|220:141,1,100,2|0,0:0|0:0,0:0:0:0:
318,274,8886,1,0,3:0:0:0:
318,274,8974,2,0,P|270:231|274:183,1,100,2|0,0:0|0:0,0:0:0:0:
415,170,9239,5,0,3:0:0:0:
427,194,9327,1,0,0:0:0:0:
424,220,9415,2,0,P|406:252|384:265,1,50,2|0,0:0|0:0,0:0:0:0:
275,345,9592,1,2,3:2:0:0:
275,345,9680,2,0,P|287:354|332:352,1,50,2|0,0:0|0:0,0:0:0:0:
346,200,9857,1,0,0:0:0:0:
346,200,9945,5,2,3:2:0:0:
346,200,10033,2,0,P|305:172|297:124,1,100,2|0,0:0|0:0,0:0:0:0:
219,125,10297,1,0,3:0:0:0:
219,125,10385,2,0,P|227:77|267:49,1,100,2|0,0:0|0:0,0:0:0:0:
217,285,10651,5,2,3:2:0:0:
139,303,10739,1,0,3:0:0:0:
96,236,10827,1,0,3:0:0:0:
150,176,10915,1,0,3:0:0:0:
226,204,11004,1,6,3:2:0:0:
372,207,11268,5,2,3:2:0:0:
105,316,11533,1,6,3:2:0:0:
262,77,11798,1,2,3:2:0:0:
279,362,12062,1,6,3:2:0:0:
500,59,12239,5,0,0:0:0:0:
503,66,12327,1,2,3:2:0:0:
486,127,12415,5,2,0:2:0:0:
452,154,12504,1,2,0:2:0:0:
406,160,12592,1,6,3:2:0:0:
358,134,12680,1,2,0:2:0:0:
297,152,12768,6,0,P|253:198|281:290,1,150.000005722046,6|8,3:2|0:2,0:0:0:0:
268,278,13121,2,0,P|126:195|82:220,1,225.000008583069,2|0,1:2|0:0,0:0:0:0:
20,263,13474,2,0,P|11:184|61:136,1,150.000005722046,0|10,3:0|0:2,0:0:0:0:
186,292,13739,1,0,0:0:0:0:
237,358,13827,2,0,P|265:364|327:335,1,75.0000028610231,0|0,1:0|0:0,0:0:0:0:
495,145,14004,6,0,P|432:201|488:321,1,225.000008583069,10|0,0:2|0:0,0:0:0:0:
409,254,14357,2,0,P|384:238|316:244,1,75.0000028610231,10|0,0:2|0:0,0:0:0:0:
121,294,14533,2,0,P|134:320|301:301,1,225.000008583069,2|0,1:2|0:0,0:0:0:0:
322,107,14886,2,0,P|297:173|341:235,1,150.000005722046,0|8,3:0|0:2,0:0:0:0:
56,229,15239,2,0,P|129:202|196:242,1,150.000005722046,0|10,1:0|0:2,0:0:0:0:
366,0,15592,6,0,P|328:65|256:78,1,150.000005722046,2|8,3:2|0:2,0:0:0:0:
260,80,15945,2,0,P|367:82|424:174,1,225.000008583069,2|0,1:2|0:0,0:0:0:0:
423,262,16298,2,0,P|350:230|333:162,1,150.000005722046,0|10,3:0|0:2,0:0:0:0:
491,51,16563,1,0,0:0:0:0:
482,132,16651,2,0,P|463:155|398:173,1,75.0000028610231,0|0,1:0|0:0,0:0:0:0:
234,227,16827,6,0,P|338:221|379:319,1,225.000008583069,10|0,0:2|0:0,0:0:0:0:
296,370,17180,2,0,P|285:342|299:274,1,75.0000028610231,10|0,0:2|0:0,0:0:0:0:
512,227,17356,2,0,P|482:327|378:319,1,225.000008583069,2|0,1:2|0:0,0:0:0:0:
274,97,17710,2,0,P|280:168|225:231,1,150.000005722046,0|8,3:0|0:2,0:0:0:0:
367,104,18062,5,2,3:2:0:0:
453,160,18151,1,2,3:2:0:0:
422,255,18239,1,2,3:2:0:0:
320,259,18327,1,2,3:2:0:0:
284,166,18415,6,0,P|229:198|222:292,1,150.000005722046,2|8,3:2|0:2,0:0:0:0:
216,278,18768,2,0,P|121:142|71:145,1,225.000008583069,2|0,1:2|0:0,0:0:0:0:
27,200,19121,2,0,P|3:131|45:72,1,150.000005722046,0|10,3:0|0:2,0:0:0:0:
213,76,19386,1,0,0:0:0:0:
255,142,19474,2,0,P|280:158|348:152,1,75.0000028610231,0|0,1:0|0:0,0:0:0:0:
380,56,19651,6,0,P|362:160|454:212,1,225.000008583069,10|0,0:2|0:0,0:0:0:0:
512,147,20004,2,0,P|480:126|443:123,1,75.0000028610231,10|0,0:2|0:0,0:0:0:0:
379,372,20180,2,0,P|362:347|462:212,1,225.000008583069,2|0,1:2|0:0,0:0:0:0:
378,371,20533,2,0,P|306:370|266:311,1,150.000005722046,0|8,3:0|0:2,0:0:0:0:
292,17,20886,2,0,P|303:91|252:142,1,150.000005722046,0|10,1:0|0:2,0:0:0:0:
0,221,21239,6,0,P|18:188|51:171,1,75.0000028610231,2|0,3:2|0:0,0:0:0:0:
146,283,21415,2,0,P|127:315|94:332,1,75.0000028610231,8|0,0:2|0:0,0:0:0:0:
7,308,21592,2,0,P|98:287|163:386,1,225.000008583069,0|0,1:0|0:0,0:0:0:0:
455,234,21945,5,2,3:2:0:0:
426,132,22033,1,2,3:2:0:0:
321,128,22122,1,2,3:2:0:0:
285,227,22210,1,2,3:2:0:0:
368,292,22298,6,0,P|319:304|260:393,1,150.000005722046,6|0,3:2|0:0,0:0:0:0:
261,380,22562,2,0,P|226:343|169:335,1,75.0000028610231,2|0,3:2|0:0,0:0:0:0:
51,333,22827,6,0,P|65:284|17:188,1,150.000005722046,6|0,3:2|0:0,0:0:0:0:
28,196,23091,2,0,P|77:184|111:138,1,75.0000028610231,2|0,3:2|0:0,0:0:0:0:
204,55,23357,6,0,P|238:91|345:98,1,150.000005722046,6|0,3:2|0:0,0:0:0:0:
334,103,23621,2,0,P|319:151|387:237,1,150.000005722046,2|0,3:2|0:0,0:0:0:0:
493,196,23886,6,0,P|360:174|342:201,1,100,6|0,3:2|0:0,0:0:0:0:
246,320,24062,5,6,3:2:0:0:
266,243,24239,1,0,0:0:0:0:
137,101,24415,1,2,1:2:0:0:
156,180,24592,1,0,0:0:0:0:
352,181,24768,1,2,3:2:0:0:
333,102,24945,1,2,0:0:0:0:
323,65,25033,1,2,0:0:0:0:
314,23,25122,1,2,1:2:0:0:
266,243,25298,1,0,0:0:0:0:
181,67,25474,5,2,3:2:0:0:
261,45,25651,1,0,0:0:0:0:
156,180,25827,1,2,1:2:0:0:
76,158,26004,1,2,0:2:0:0:
182,293,26180,1,2,3:2:0:0:
269,266,26357,1,2,0:0:0:0:
309,255,26445,1,2,0:0:0:0:
349,244,26533,1,2,1:2:0:0:
156,180,26710,1,0,0:0:0:0:
73,158,26886,5,2,3:2:0:0:
78,304,27062,2,0,L|96:234,1,64.9999970245363,2|0,0:0|0:0,0:0:0:0:
73,158,27239,1,0,1:0:0:0:
202,225,27415,2,0,L|150:174,1,64.9999970245363,2|0,0:0|0:0,0:0:0:0:
73,158,27592,1,0,3:0:0:0:
196,80,27768,2,0,L|126:99,1,64.9999970245363,2|0,0:2|0:0,0:0:0:0:
73,158,27945,1,2,1:2:0:0:
66,12,28121,2,0,L|48:82,1,64.9999970245363,2|0,0:2|0:0,0:0:0:0:
348,230,28298,5,0,3:0:0:0:
202,225,28474,2,0,L|272:207,1,64.9999970245363,2|0,0:0|0:0,0:0:0:0:
348,230,28651,1,0,1:0:0:0:
281,101,28827,2,0,L|331:152,1,64.9999970245363,2|0,0:0|0:0,0:0:0:0:
348,230,29004,1,0,3:0:0:0:
427,94,29180,1,2,0:0:0:0:
417,132,29268,1,2,0:0:0:0:
408,169,29357,1,2,1:2:0:0:
282,290,29533,1,2,0:2:0:0:
141,166,29710,5,2,3:2:0:0:
219,190,29886,1,0,0:0:0:0:
123,83,30062,1,2,1:2:0:0:
63,138,30238,1,0,0:0:0:0:
203,107,30415,1,2,3:2:0:0:
187,24,30591,1,2,0:0:0:0:
154,53,30680,1,2,0:0:0:0:
123,83,30768,1,2,1:2:0:0:
219,190,30945,1,0,0:0:0:0:
377,142,31121,5,2,3:2:0:0:
299,166,31297,1,0,0:0:0:0:
395,59,31474,1,2,1:2:0:0:
455,114,31651,1,2,0:2:0:0:
313,80,31827,1,2,3:2:0:0:
331,0,32004,1,2,0:0:0:0:
365,29,32091,1,2,0:0:0:0:
395,59,32179,1,2,1:2:0:0:
299,166,32356,1,0,0:0:0:0:
144,108,32533,5,2,3:2:0:0:
168,252,32710,2,0,L|155:172,1,64.9999970245363,2|0,0:0|0:0,0:0:0:0:
299,166,32886,1,0,1:0:0:0:
275,310,33062,2,0,L|288:230,1,64.9999970245363,2|0,0:0|0:0,0:0:0:0:
401,95,33239,1,0,3:0:0:0:
425,239,33415,2,0,L|412:159,1,64.9999970245363,2|0,0:0|0:0,0:0:0:0:
391,16,33592,5,6,3:2:0:0:
107,365,33768,1,6,3:2:0:0:
119,120,34121,5,4,3:2:0:0:
382,266,34474,1,4,3:2:0:0:
119,120,34827,1,4,3:2:0:0:
382,266,35004,5,0,0:0:0:0:
382,266,35092,1,0,0:0:0:0:
382,266,35180,1,0,3:0:0:0:
302,285,35268,1,0,3:0:0:0:
221,301,35357,5,6,3:2:0:0:
302,285,35534,1,0,0:0:0:0:
101,177,35710,1,2,1:2:0:0:
180,196,35887,1,0,0:0:0:0:
408,78,36062,1,2,3:2:0:0:
329,97,36240,1,2,0:0:0:0:
290,107,36327,1,2,0:0:0:0:
250,116,36415,1,2,1:2:0:0:
268,23,36593,1,0,0:0:0:0:
179,235,36768,5,2,3:2:0:0:
157,155,36946,1,0,0:0:0:0:
249,304,37122,1,2,1:2:0:0:
227,384,37299,1,2,0:2:0:0:
296,165,37474,1,2,3:2:0:0:
323,252,37652,1,2,0:0:0:0:
334,292,37740,1,2,0:0:0:0:
345,332,37827,1,2,1:2:0:0:
179,235,38005,1,0,0:0:0:0:
22,329,38180,5,2,3:2:0:0:
164,327,38357,1,2,0:0:0:0:
131,304,38445,1,2,0:0:0:0:
98,281,38533,1,0,1:2:0:0:
22,329,38710,1,0,0:0:0:0:
153,148,38886,1,2,3:2:0:0:
11,150,39063,1,2,0:0:0:0:
44,173,39151,1,2,0:0:0:0:
77,196,39239,1,0,1:2:0:0:
153,148,39416,1,2,0:2:0:0:
324,166,39592,5,0,3:0:0:0:
470,161,39768,2,0,L|400:143,1,64.9999970245363,2|0,0:0|0:0,0:0:0:0:
324,166,39945,1,0,1:0:0:0:
309,58,40121,2,0,L|259:109,1,64.9999970245363,2|0,0:0|0:0,0:0:0:0:
242,187,40298,1,0,3:0:0:0:
140,132,40474,1,2,0:0:0:0:
150,170,40562,1,2,0:0:0:0:
159,207,40651,1,2,1:2:0:0:
263,104,40827,1,2,0:2:0:0:
119,52,41004,5,2,3:2:0:0:
35,32,41180,1,2,0:0:0:0:
45,69,41268,1,2,0:0:0:0:
54,107,41357,1,2,1:2:0:0:
119,52,41533,1,2,0:2:0:0:
76,187,41710,1,2,3:2:0:0:
100,269,41886,1,2,0:2:0:0:
128,242,41974,1,2,0:2:0:0:
156,215,42063,1,2,1:2:0:0:
76,187,42239,1,0,0:0:0:0:
226,160,42415,5,2,3:2:0:0:
295,208,42592,1,0,0:0:0:0:
429,302,42768,1,2,1:2:0:0:
346,328,42945,1,0,0:0:0:0:
444,142,43121,1,2,3:2:0:0:
449,55,43297,1,2,0:2:0:0:
413,72,43385,1,2,0:0:0:0:
378,87,43474,1,2,1:2:0:0:
444,142,43650,1,2,0:2:0:0:
303,123,43827,5,2,3:2:0:0:
226,160,44003,1,2,0:0:0:0:
258,183,44091,1,2,0:0:0:0:
289,206,44180,1,2,1:2:0:0:
303,123,44356,1,2,0:2:0:0:
358,255,44533,1,2,3:2:0:0:
428,303,44709,1,2,0:2:0:0:
432,263,44797,1,2,0:0:0:0:
436,225,44886,1,2,1:2:0:0:
358,255,45062,1,2,0:2:0:0:
144,345,45239,5,6,3:2:0:0:
381,53,45415,1,6,3:2:0:0:
182,35,45592,5,8,0:3:0:0:
230,11,45680,1,8,0:3:0:0:
282,28,45768,1,6,3:2:0:0:
291,100,45857,1,0,0:0:0:0:
300,172,45945,5,6,3:2:0:0:
325,141,46033,1,4,0:3:0:0:
362,130,46121,1,4,0:3:0:0:
402,138,46210,1,4,0:3:0:0:
429,164,46298,1,2,0:2:0:0:
451,189,46386,1,2,0:2:0:0:
470,199,46474,1,2,0:2:0:0:
489,195,46562,1,0,0:0:0:0:
368,210,46651,6,0,P|322:269|420:372,2,225.000008583069,6|2|2,3:2|0:2|0:2,0:0:0:0:
224,282,48062,2,0,P|195:212|57:246,2,225.000008583069,2|2|2,0:2|0:2|0:2,0:0:0:0:
234,130,49474,2,0,P|308:140|348:3,2,225.000008583069,2|2|2,0:2|0:2|0:2,0:0:0:0:
201,103,50710,6,0,P|250:150|120:113,1,450.000017166138,2|0,0:2|0:0,0:0:0:0:
201,103,51945,2,0,P|240:132|259:179,1,75.0000028610231,2|2,0:2|0:2,0:0:0:0:
230,249,52298,6,0,P|287:237|363:371,2,225.000008583069,2|2|2,0:2|0:2|0:2,0:0:0:0:
486,161,53710,2,0,P|429:149|353:283,2,225.000008583069,2|2|2,0:2|0:2|0:2,0:0:0:0:
438,242,55121,1,2,0:2:0:0:
415,327,55298,5,0,0:0:0:0:
255,273,55651,1,0,0:0:0:0:
97,327,56004,1,0,0:0:0:0:
255,273,56357,1,0,0:0:0:0:
255,273,56445,1,0,0:0:0:0:
255,273,56533,1,2,0:2:0:0:
167,378,56710,5,0,0:0:0:0:
194,159,57062,1,0,0:0:0:0:
167,378,57415,1,0,0:0:0:0:
53,372,57592,6,0,P|66:366|99:313,1,64.9999970245363,2|2,0:2|0:2,0:0:0:0:
176,299,57768,2,0,P|177:284|147:229,1,64.9999970245363,2|0,0:2|0:0,0:0:0:0:
215,43,57945,5,6,3:2:0:0:
277,31,58033,1,0,0:0:0:0:
319,61,58121,2,0,P|333:87|316:158,3,75.0000028610231,0|0|0|0,0:0|0:0|1:0|0:0,0:0:0:0:
208,194,58474,5,2,0:2:0:0:
167,242,58562,1,0,0:0:0:0:
172,294,58650,1,0,3:0:0:0:
204,324,58738,1,0,0:0:0:0:
244,333,58827,1,0,0:0:0:0:
280,319,58915,1,0,0:0:0:0:
305,291,59003,2,0,P|358:279|403:305,3,75.0000028610231,2|0|0|0,1:2|0:0|0:0|0:0,0:0:0:0:
496,366,59356,5,2,3:2:0:0:
455,319,59444,1,0,0:0:0:0:
460,267,59533,2,0,P|480:227|528:209,3,75.0000028610231,0|0|0|0,0:0|0:0|1:0|0:0,0:0:0:0:
410,128,59885,5,2,0:2:0:0:
363,88,59973,1,0,0:0:0:0:
311,92,60061,1,0,3:0:0:0:
281,125,60151,1,0,0:0:0:0:
272,165,60239,1,0,0:0:0:0:
286,201,60327,1,0,0:0:0:0:
305,222,60415,2,0,P|317:268|274:314,3,75.0000028610231,2|0|0|0,1:2|0:0|0:0|0:0,0:0:0:0:
220,384,60768,2,0,P|209:339|252:293,3,75.0000028610231,2|0|0|0,3:2|0:0|0:0|0:0,0:0:0:0:
134,248,61121,5,2,1:2:0:0:
134,248,61210,1,0,0:0:0:0:
134,248,61298,1,2,0:2:0:0:
116,213,61386,1,0,0:0:0:0:
130,163,61474,2,0,P|159:143|215:153,3,75.0000028610231,0|0|0|0,3:0|0:0|0:0|0:0,0:0:0:0:
379,115,61827,5,2,1:2:0:0:
379,115,61915,1,0,0:0:0:0:
379,115,62004,1,2,0:2:0:0:
341,118,62092,1,0,0:0:0:0:
307,97,62180,1,0,3:0:0:0:
278,59,62268,1,0,0:0:0:0:
230,29,62357,1,0,0:0:0:0:
171,40,62445,1,0,0:0:0:0:
124,92,62533,1,0,1:0:0:0:
130,163,62621,1,0,0:0:0:0:
194,200,62710,1,0,0:0:0:0:
223,271,62798,1,0,0:0:0:0:
184,345,62886,6,0,P|136:354|86:322,1,75.0000028610231,0|0,3:0|0:0,0:0:0:0:
257,130,63062,2,0,P|225:168|228:227,1,75.0000028610231
352,361,63239,2,0,P|336:315|284:287,3,75.0000028610231,2|0|2|0,1:2|0:0|0:2|0:0,0:0:0:0:
30,91,63592,5,2,3:2:0:0:
94,73,63680,1,0,0:0:0:0:
143,94,63768,1,0,0:0:0:0:
168,134,63856,1,0,0:0:0:0:
166,177,63945,1,0,1:0:0:0:
140,207,64033,1,0,0:0:0:0:
113,219,64121,2,0,P|72:216|41:183,5,75.0000028610231,2|0|0|0|0|0,0:2|0:0|3:0|0:0|0:0|0:0,0:0:0:0:
227,108,64651,2,0,P|268:111|299:144,3,75.0000028610231,2|0|0|0,1:2|0:0|0:0|0:0,0:0:0:0:
409,228,65003,5,2,3:2:0:0:
366,295,65091,1,0,0:0:0:0:
305,314,65179,1,0,0:0:0:0:
251,297,65267,1,0,0:0:0:0:
219,255,65356,1,0,1:0:0:0:
220,207,65444,1,0,0:0:0:0:
241,172,65533,2,0,P|286:151|338:167,5,75.0000028610231,2|0|0|0|0|0,0:2|0:0|3:0|0:0|0:0|0:0,0:0:0:0:
130,236,66062,2,0,P|93:236|62:217,3,75.0000028610231,2|0|0|0,1:2|0:0|0:0|0:0,0:0:0:0:
216,36,66415,5,2,3:2:0:0:
261,56,66503,1,0,0:0:0:0:
300,49,66591,1,0,0:0:0:0:
344,28,66679,1,0,0:0:0:0:
398,31,66768,1,0,1:0:0:0:
442,68,66856,1,0,0:0:0:0:
449,128,66944,1,0,0:0:0:0:
412,180,67032,1,0,0:0:0:0:
347,185,67121,1,0,3:0:0:0:
299,139,67209,1,0,0:0:0:0:
235,123,67298,5,2,0:2:0:0:
186,167,67386,1,0,0:0:0:0:
185,235,67474,1,2,1:2:0:0:
235,287,67562,1,0,0:0:0:0:
312,283,67651,2,0,P|349:248|355:214,1,75.0000028610231,2|0,0:2|0:0,0:0:0:0:
266,46,67827,6,0,P|294:40|317:41,1,44.999998626709,0|0,1:0|1:0,0:0:0:0:
298,115,67915,6,0,P|324:122|343:136,1,44.999998626709,0|0,1:0|1:0,0:0:0:0:
291,191,68004,6,0,P|310:211|318:231,1,44.999998626709,0|0,1:0|1:0,0:0:0:0:
247,250,68092,6,0,P|251:276|249:299,1,44.999998626709,0|0,1:0|1:0,0:0:0:0:
178,278,68180,6,0,P|170:298|160:312,1,36.0000008789063,0|0,1:0|1:0,0:0:0:0:
107,263,68268,6,0,P|88:277|72:283,1,36.0000008789063,0|0,1:0|1:0,0:0:0:0:
55,216,68357,6,0,P|31:219|14:217,1,36.0000008789063,0|0,1:0|1:0,0:0:0:0:
32,153,68445,6,0,P|9:144|-4:134,1,36.0000008789063,0|0,1:0|1:0,0:0:0:0:
44,86,68533,6,0,P|31:71|25:59,1,27.0000006591797,0|0,1:0|1:0,0:0:0:0:
82,38,68621,6,0,P|77:19|79:6,1,22.4999993133545,0|0,1:0|1:0,0:0:0:0:
136,17,68710,6,0,P|141:-1|144:-6,1,18.0000004394531,0|0,1:0|1:0,0:0:0:0:
187,31,68798,6,0,P|200:17|204:15,1,13.5000003295899,0|0,1:0|1:0,0:0:0:0:
214,82,68886,5,0,1:0:0:0:
251,100,68974,1,0,1:0:0:0:
295,101,69062,1,0,1:0:0:0:
328,78,69151,1,0,1:0:0:0:
301,7,69239,6,0,P|252:96|363:149,1,225.000008583069,6|0,3:2|0:0,0:0:0:0:
486,152,69592,1,2,1:2:0:0:
482,70,69680,1,0,0:0:0:0:
413,112,69768,2,0,P|379:128|378:247,1,150.000005722046,10|0,0:2|3:0,0:0:0:0:
421,345,70033,5,0,0:0:0:0:
423,266,70121,2,0,P|398:238|362:228,1,75.0000028610231,10|0,0:2|0:0,0:0:0:0:
227,356,70298,1,2,1:2:0:0:
154,384,70386,1,0,0:0:0:0:
79,359,70474,2,0,P|59:319|68:270,1,75.0000028610231,10|0,0:2|0:0,0:0:0:0:
182,191,70651,6,0,P|188:105|119:54,1,150.000005722046,2|8,3:2|0:2,0:0:0:0:
42,206,70915,1,2,0:2:0:0:
121,229,71004,2,0,P|159:216|186:137,1,75.0000028610231,0|0,1:0|0:0,0:0:0:0:
277,28,71180,2,0,P|152:53|133:109,1,150.000005722046,10|0,0:0|3:0,0:0:0:0:
297,212,71445,5,0,0:0:0:0:
313,215,71533,1,10,0:2:0:0:
354,182,71621,1,0,0:0:0:0:
367,121,71710,1,2,1:2:0:0:
415,62,71798,1,0,0:0:0:0:
496,62,71886,1,10,0:2:0:0:
433,202,72062,5,2,3:2:0:0:
373,262,72151,1,0,0:0:0:0:
354,182,72239,1,8,0:2:0:0:
251,285,72415,5,2,1:2:0:0:
168,260,72504,1,0,0:0:0:0:
230,203,72592,1,8,0:2:0:0:
61,185,72768,5,2,3:2:0:0:
61,92,72857,1,0,0:0:0:0:
143,134,72945,1,8,0:2:0:0:
251,285,73121,5,2,1:2:0:0:
168,260,73210,1,0,0:0:0:0:
230,203,73298,1,8,0:2:0:0:
432,203,73474,5,2,3:2:0:0:
372,263,73563,1,0,0:0:0:0:
353,183,73651,1,8,0:2:0:0:
412,128,73739,1,2,0:2:0:0:
412,128,73827,6,0,P|428:81|378:22,1,75.0000028610231,0|0,1:0|0:0,0:0:0:0:
167,26,74004,2,0,P|236:106|366:44,1,225.000008583069,10|0,0:2|0:0,0:0:0:0:
248,200,74357,5,10,0:2:0:0:
277,272,74445,1,2,0:2:0:0:
345,295,74533,1,2,1:2:0:0:
413,274,74621,1,2,0:2:0:0:
445,218,74710,1,10,0:2:0:0:
437,166,74798,1,2,0:2:0:0:
412,128,74886,6,0,P|381:36|503:40,1,225.000008583069,2|0,3:2|0:0,0:0:0:0:
348,200,75239,1,2,1:2:0:0:
266,171,75327,1,0,0:0:0:0:
279,255,75415,2,0,P|317:283|419:249,1,150.000005722046,10|0,0:2|3:0,0:0:0:0:
306,102,75680,5,0,0:0:0:0:
227,100,75768,2,0,P|199:124|189:160,1,75.0000028610231,10|0,0:2|0:0,0:0:0:0:
204,315,75945,1,2,1:2:0:0:
126,328,76033,1,0,0:0:0:0:
71,270,76121,2,0,P|51:230|59:180,1,75.0000028610231,10|0,0:2|0:0,0:0:0:0:
231,240,76298,6,0,P|317:246|368:177,1,150.000005722046,2|8,3:2|0:2,0:0:0:0:
395,0,76562,1,2,0:2:0:0:
373,78,76651,2,0,P|386:116|465:143,1,75.0000028610231,0|0,1:0|0:0,0:0:0:0:
448,341,76827,2,0,P|492:282|482:210,1,150.000005722046,10|0,0:0|3:0,0:0:0:0:
211,310,77092,5,0,0:0:0:0:
225,297,77180,1,10,0:2:0:0:
231,240,77268,1,0,0:0:0:0:
192,195,77357,1,2,1:2:0:0:
179,124,77445,1,0,0:0:0:0:
237,76,77533,2,0,P|273:70|319:94,1,75.0000028610231,10|0,0:2|0:0,0:0:0:0:
192,195,77710,5,2,3:2:0:0:
119,233,77798,1,0,0:0:0:0:
41,210,77886,2,0,P|17:181|12:131,1,75.0000028610231,8|0,0:2|0:0,0:0:0:0:
192,195,78062,1,0,1:0:0:0:
261,239,78150,1,0,0:0:0:0:
280,318,78238,2,0,P|267:352|227:379,1,75.0000028610231,8|0,0:2|0:0,0:0:0:0:
237,76,78415,6,0,P|273:70|319:94,1,75.0000028610231,2|0,3:2|0:0,0:0:0:0:
447,162,78592,1,10,0:2:0:0:
413,191,78680,1,0,0:0:0:0:
368,171,78768,1,2,1:2:0:0:
306,183,78857,1,0,0:0:0:0:
271,242,78945,2,0,P|270:270|297:312,1,75.0000028610231,10|0,0:2|0:0,0:0:0:0:
386,374,79121,6,0,P|293:312|172:375,1,225.000008583069,2|0,3:2|0:0,0:0:0:0:
30,337,79474,1,2,1:2:0:0:
9,273,79562,1,0,0:0:0:0:
35,212,79651,2,0,P|72:186|130:195,1,75.0000028610231,10|0,0:2|0:0,0:0:0:0:
271,242,79827,5,0,3:0:0:0:
302,171,79915,1,0,0:0:0:0:
283,104,80004,1,8,0:2:0:0:
237,73,80092,1,0,0:0:0:0:
188,78,80180,2,0,P|86:85|61:0,1,150.000005722046,0|8,1:0|0:2,0:0:0:0:
476,121,80533,6,0,P|370:92|299:192,1,225.000008583069,6|0,3:2|0:0,0:0:0:0:
286,311,80886,1,2,1:2:0:0:
369,327,80974,1,0,0:0:0:0:
346,247,81062,2,0,P|330:213|211:212,1,150.000005722046,10|0,0:2|3:0,0:0:0:0:
84,333,81327,5,0,0:0:0:0:
163,335,81415,2,0,P|191:310|201:274,1,75.0000028610231,10|0,0:2|0:0,0:0:0:0:
22,166,81592,1,2,1:2:0:0:
0,87,81680,1,0,0:0:0:0:
39,18,81768,2,0,P|79:-2|128:7,1,75.0000028610231,10|0,0:2|0:0,0:0:0:0:
169,174,81945,6,0,P|204:95|156:23,1,150.000005722046,2|8,3:2|0:2,0:0:0:0:
22,166,82209,1,2,0:2:0:0:
99,191,82298,2,0,P|139:191|191:126,1,75.0000028610231,0|0,1:0|0:0,0:0:0:0:
310,7,82474,2,0,P|185:32|166:88,1,150.000005722046,10|0,0:0|3:0,0:0:0:0:
244,238,82739,5,0,0:0:0:0:
291,242,82827,1,10,0:2:0:0:
332,209,82915,1,0,0:0:0:0:
345,148,83004,1,2,1:2:0:0:
393,89,83092,1,0,0:0:0:0:
474,89,83180,1,10,0:2:0:0:
365,363,83356,5,2,3:2:0:0:
347,285,83445,1,0,0:0:0:0:
332,209,83533,1,8,0:2:0:0:
144,322,83710,5,2,1:2:0:0:
172,242,83799,1,0,0:0:0:0:
199,164,83887,1,8,0:2:0:0:
14,157,84062,5,2,3:2:0:0:
82,77,84151,1,0,0:0:0:0:
147,0,84239,1,8,0:2:0:0:
144,322,84416,5,2,1:2:0:0:
172,242,84505,1,0,0:0:0:0:
199,164,84593,1,8,0:2:0:0:
365,363,84768,5,2,3:2:0:0:
347,285,84857,1,0,0:0:0:0:
332,209,84945,1,8,0:2:0:0:
320,124,85033,1,2,0:2:0:0:
320,124,85121,6,0,P|372:128|413:198,1,75.0000028610231,0|0,1:0|0:0,0:0:0:0:
206,260,85298,2,0,P|114:205|152:66,1,225.000008583069,10|0,0:2|0:0,0:0:0:0:
337,28,85651,5,10,0:2:0:0:
414,9,85739,1,2,0:2:0:0:
480,42,85827,1,2,1:2:0:0:
512,106,85915,1,2,0:2:0:0:
501,170,86004,1,10,0:2:0:0:
461,204,86092,1,2,0:2:0:0:
414,222,86180,6,0,P|383:314|505:310,1,225.000008583069,2|0,3:2|0:0,0:0:0:0:
351,161,86533,1,2,1:2:0:0:
269,132,86621,1,0,0:0:0:0:
282,216,86709,2,0,P|320:244|422:210,1,150.000005722046,10|0,0:2|3:0,0:0:0:0:
269,132,86974,5,0,0:0:0:0:
190,130,87062,2,0,P|162:154|152:190,1,75.0000028610231,10|0,0:2|0:0,0:0:0:0:
197,344,87239,1,2,1:2:0:0:
168,267,87327,1,0,0:0:0:0:
93,247,87415,2,0,P|48:249|9:281,1,75.0000028610231,10|0,0:2|0:0,0:0:0:0:
311,250,87592,6,0,P|317:164|248:113,1,150.000005722046,2|8,3:2|0:2,0:0:0:0:
71,86,87856,1,2,0:2:0:0:
149,108,87945,2,0,P|187:95|214:16,1,75.0000028610231,0|0,1:0|0:0,0:0:0:0:
419,0,88121,2,0,P|294:25|275:81,1,150.000005722046,10|0,0:0|3:0,0:0:0:0:
243,203,88386,5,0,0:0:0:0:
251,219,88474,1,10,0:2:0:0:
311,250,88562,1,0,0:0:0:0:
377,219,88651,1,2,1:2:0:0:
448,200,88739,1,0,0:0:0:0:
507,248,88827,2,0,P|513:284|489:330,1,75.0000028610231,10|0,0:2|0:0,0:0:0:0:
275,344,89004,6,0,P|179:384|274:230,1,450.000017166138,6|8,3:2|0:2,0:0:0:0:
364,234,89710,6,0,P|328:186|349:127,1,100,2|10,0:2|0:2,0:0:0:0:
485,308,90062,2,0,P|429:328|379:290,1,100,2|10,0:2|0:2,0:0:0:0:
288,209,90415,6,0,P|199:193|124:299,1,200,14|0,0:2|0:0,0:0:0:0:
147,346,90768,1,2,0:2:0:0:
36,250,90945,2,0,P|126:267|201:161,1,200,2|0,0:2|0:0,0:0:0:0:
407,357,91474,5,2,0:2:0:0:
450,302,91562,1,2,0:2:0:0:
455,229,91651,1,2,0:2:0:0:
415,166,91739,1,2,0:2:0:0:
341,130,91827,6,0,P|326:68|396:2,1,150.000005722046,6|8,3:2|0:2,0:0:0:0:
379,7,92180,2,0,P|230:77|188:48,1,225.000008583069,2|0,1:2|0:0,0:0:0:0:
130,0,92533,2,0,P|115:77|159:130,1,150.000005722046,0|10,3:0|0:2,0:0:0:0:
298,232,92798,1,0,0:0:0:0:
340,166,92886,2,0,P|365:150|433:156,1,75.0000028610231,0|0,1:0|0:0,0:0:0:0:
495,256,93063,6,0,P|432:200|488:80,1,225.000008583069,10|0,0:2|0:0,0:0:0:0:
409,147,93416,2,0,P|384:163|316:157,1,75.0000028610231,10|0,0:2|0:0,0:0:0:0:
121,107,93592,2,0,P|134:81|301:100,1,225.000008583069,2|0,1:2|0:0,0:0:0:0:
322,294,93945,2,0,P|297:228|341:166,1,150.000005722046,0|8,3:0|0:2,0:0:0:0:
38,238,94298,2,0,P|115:238|165:177,1,150.000005722046,0|10,1:0|0:2,0:0:0:0:
368,351,94651,6,0,P|310:302|238:314,1,150.000005722046,2|8,3:2|0:2,0:0:0:0:
242,314,95004,2,0,P|349:312|406:220,1,225.000008583069,2|0,1:2|0:0,0:0:0:0:
337,168,95357,2,0,P|328:247|378:295,1,150.000005722046,0|10,3:0|0:2,0:0:0:0:
512,312,95622,1,0,0:0:0:0:
476,238,95710,2,0,P|451:222|383:228,1,75.0000028610231,0|0,1:0|0:0,0:0:0:0:
219,178,95886,6,0,P|324:178|359:78,1,225.000008583069,10|0,0:2|0:0,0:0:0:0:
283,30,96239,2,0,P|272:58|286:126,1,75.0000028610231,10|0,0:2|0:0,0:0:0:0:
497,244,96415,2,0,P|493:216|329:176,1,225.000008583069,2|0,1:2|0:0,0:0:0:0:
179,254,96769,2,0,P|181:182|123:122,1,150.000005722046,0|8,3:0|0:2,0:0:0:0:
345,267,97121,5,2,3:2:0:0:
388,350,97210,1,2,3:2:0:0:
483,338,97298,1,2,3:2:0:0:
497,244,97386,1,2,3:2:0:0:
416,191,97474,6,0,P|390:133|448:56,1,150.000005722046,2|8,3:2|0:2,0:0:0:0:
431,63,97827,2,0,P|289:146|245:121,1,225.000008583069,2|0,1:2|0:0,0:0:0:0:
213,47,98180,2,0,P|163:99|176:170,1,150.000005722046,0|10,3:0|0:2,0:0:0:0:
213,325,98445,1,0,0:0:0:0:
255,259,98533,2,0,P|280:243|348:249,1,75.0000028610231,0|0,1:0|0:0,0:0:0:0:
380,345,98710,6,0,P|362:241|454:189,1,225.000008583069,10|0,0:2|0:0,0:0:0:0:
512,254,99063,2,0,P|480:275|443:278,1,75.0000028610231,10|0,0:2|0:0,0:0:0:0:
379,29,99239,2,0,P|362:54|462:189,1,225.000008583069,2|0,1:2|0:0,0:0:0:0:
378,30,99592,2,0,P|306:31|266:90,1,150.000005722046,0|8,3:0|0:2,0:0:0:0:
169,235,99945,2,0,P|244:233|286:174,1,150.000005722046,0|10,1:0|0:2,0:0:0:0:
90,264,100298,6,0,P|108:297|141:314,1,75.0000028610231,2|0,3:2|0:0,0:0:0:0:
200,153,100474,2,0,P|181:121|148:104,1,75.0000028610231,8|0,0:2|0:0,0:0:0:0:
247,327,100651,6,0,P|338:348|403:249,1,225.000008583069,0|0,1:0|0:0,0:0:0:0:
430,141,101004,5,2,3:2:0:0:
395,57,101093,1,2,3:2:0:0:
311,32,101181,1,2,3:2:0:0:
234,73,101269,1,2,3:2:0:0:
200,153,101357,6,0,P|142:178|65:120,1,150.000005722046,6|0,3:2|0:0,0:0:0:0:
73,136,101621,2,0,P|110:149|136:190,1,75.0000028610231,2|0,3:2|0:0,0:0:0:0:
404,236,101886,6,0,P|421:175|515:153,1,150.000005722046,6|0,3:2|0:0,0:0:0:0:
498,148,102150,2,0,P|463:168|415:161,1,75.0000028610231,2|0,3:2|0:0,0:0:0:0:
279,246,102415,6,0,P|322:291|294:383,1,150.000005722046,6|0,3:2|0:0,0:0:0:0:
308,371,102680,2,0,P|307:330|404:273,1,150.000005722046,2|0,3:2|0:0,0:0:0:0:
180,256,102945,6,0,P|141:218|138:142,1,100,6|0,3:2|0:0,0:0:0:0:
266,3,103121,5,6,3:2:0:0:
286,80,103298,1,2,0:0:0:0:
276,41,103386,1,2,0:0:0:0:
266,3,103474,1,2,1:2:0:0:
229,141,103651,1,0,0:0:0:0:
388,182,103827,1,2,3:2:0:0:
311,160,104004,1,2,0:0:0:0:
350,171,104092,1,2,0:0:0:0:
388,182,104180,1,2,1:2:0:0:
286,80,104357,1,0,0:0:0:0:
255,221,104533,5,2,3:2:0:0:
178,241,104710,1,2,0:0:0:0:
217,231,104798,1,2,0:0:0:0:
255,221,104886,1,2,1:2:0:0:
117,184,105063,1,2,0:2:0:0:
76,343,105239,1,2,3:2:0:0:
98,266,105416,1,2,0:0:0:0:
87,305,105504,1,2,0:0:0:0:
76,343,105592,1,2,1:2:0:0:
178,241,105769,1,0,0:0:0:0:
320,330,105945,5,2,3:2:0:0:
174,325,106121,2,0,L|244:307,1,64.9999970245363,2|0,0:0|0:0,0:0:0:0:
320,330,106298,1,0,1:0:0:0:
253,201,106474,2,0,L|304:253,1,64.9999970245363,2|0,0:0|0:0,0:0:0:0:
320,330,106651,1,0,3:0:0:0:
398,207,106827,1,2,0:2:0:0:
389,240,106915,1,2,0:0:0:0:
380,269,107004,1,2,1:2:0:0:
466,337,107180,2,0,L|396:355,1,64.9999970245363,2|0,0:2|0:0,0:0:0:0:
253,201,107357,5,0,3:0:0:0:
96,199,107533,1,2,0:0:0:0:
133,189,107621,1,2,0:0:0:0:
170,178,107710,1,0,1:2:0:0:
186,72,107886,2,0,L|236:123,1,64.9999970245363,2|0,0:0|0:0,0:0:0:0:
253,201,108063,1,0,3:0:0:0:
332,65,108239,1,2,0:0:0:0:
322,103,108327,1,2,0:0:0:0:
313,140,108416,1,2,1:2:0:0:
210,0,108592,1,2,0:2:0:0:
154,123,108768,5,2,3:2:0:0:
174,200,108945,1,2,0:0:0:0:
164,161,109033,1,2,0:0:0:0:
154,123,109121,1,2,1:2:0:0:
117,261,109298,1,0,0:0:0:0:
276,302,109474,1,2,3:2:0:0:
199,280,109651,1,2,0:0:0:0:
238,291,109739,1,2,0:0:0:0:
276,302,109827,1,2,1:2:0:0:
174,200,110004,1,0,0:0:0:0:
385,384,110180,5,2,3:2:0:0:
365,307,110357,1,2,0:2:0:0:
375,346,110445,1,2,0:2:0:0:
385,384,110533,1,0,1:2:0:0:
422,246,110710,1,2,0:2:0:0:
263,205,110886,1,2,3:2:0:0:
340,227,111063,1,2,0:0:0:0:
301,216,111151,1,2,0:0:0:0:
263,205,111239,1,2,1:2:0:0:
365,307,111416,1,0,0:0:0:0:
55,254,111592,5,2,3:2:0:0:
60,108,111768,2,0,L|78:178,1,64.9999970245363,2|0,0:0|0:0,0:0:0:0:
55,254,111945,1,0,1:0:0:0:
184,187,112121,2,0,L|132:238,1,64.9999970245363,2|0,0:0|0:0,0:0:0:0:
55,254,112298,1,0,3:0:0:0:
178,332,112474,1,2,0:0:0:0:
145,323,112562,1,2,0:0:0:0:
55,254,112651,5,6,3:2:0:0:
365,46,112827,1,6,3:2:0:0:
256,384,113180,5,4,3:2:0:0:
126,49,113533,1,4,3:2:0:0:
439,253,113886,1,4,3:2:0:0:
248,120,114062,5,0,0:0:0:0:
248,120,114151,1,0,0:0:0:0:
248,120,114239,1,0,3:0:0:0:
328,101,114327,1,0,3:0:0:0:
409,85,114415,5,6,3:2:0:0:
384,165,114592,1,2,0:0:0:0:
406,200,114680,1,2,0:0:0:0:
426,232,114768,1,2,1:2:0:0:
475,302,114945,1,0,0:0:0:0:
224,332,115121,1,2,3:2:0:0:
308,313,115297,1,2,0:0:0:0:
328,276,115385,1,2,0:0:0:0:
346,240,115473,1,2,1:2:0:0:
384,165,115650,1,0,0:0:0:0:
186,41,115827,5,2,3:2:0:0:
161,121,116003,1,2,0:0:0:0:
183,156,116091,1,2,0:0:0:0:
203,188,116179,1,2,1:2:0:0:
252,258,116356,1,2,0:2:0:0:
1,288,116532,1,2,3:2:0:0:
85,269,116710,1,2,0:0:0:0:
105,232,116798,1,2,0:0:0:0:
123,196,116886,1,2,1:2:0:0:
161,121,117061,1,0,0:0:0:0:
333,178,117239,5,2,3:2:0:0:
338,32,117415,2,0,L|356:102,1,64.9999970245363,2|0,0:0|0:0,0:0:0:0:
333,178,117592,1,0,1:0:0:0:
462,111,117768,2,0,L|410:162,1,64.9999970245363,2|0,0:0|0:0,0:0:0:0:
333,178,117945,1,0,3:0:0:0:
456,256,118121,1,2,0:0:0:0:
423,247,118209,1,2,0:0:0:0:
394,238,118298,1,2,1:2:0:0:
326,324,118474,2,0,L|308:254,1,64.9999970245363,2|0,0:2|0:0,0:0:0:0:
230,125,118651,5,0,3:0:0:0:
73,127,118827,1,2,0:0:0:0:
110,137,118915,1,2,0:0:0:0:
147,148,119004,1,2,1:2:0:0:
163,254,119180,2,0,L|213:203,1,64.9999970245363,2|0,0:0|0:0,0:0:0:0:
230,125,119357,1,0,3:0:0:0:
309,261,119533,1,2,0:0:0:0:
299,223,119621,1,2,0:0:0:0:
290,186,119710,1,2,1:2:0:0:
147,148,119886,1,2,0:2:0:0:
77,289,120062,5,2,3:2:0:0:
142,354,120239,1,2,0:0:0:0:
185,338,120327,1,2,0:0:0:0:
226,322,120415,1,2,1:2:0:0:
159,260,120592,1,2,0:2:0:0:
375,355,120768,1,2,3:2:0:0:
310,290,120945,1,2,0:0:0:0:
267,306,121033,1,2,0:0:0:0:
226,322,121121,1,2,1:2:0:0:
293,384,121298,1,0,0:0:0:0:
344,121,121474,5,2,3:2:0:0:
255,144,121651,1,2,0:0:0:0:
247,190,121739,1,2,0:0:0:0:
240,233,121827,1,0,1:2:0:0:
328,206,122004,1,0,0:0:0:0:
143,346,122180,1,2,3:2:0:0:
226,322,122357,1,2,0:2:0:0:
234,277,122445,1,2,0:0:0:0:
240,233,122533,1,2,1:2:0:0:
159,260,122710,1,2,0:2:0:0:
201,96,122886,5,2,3:2:0:0:
55,101,123062,2,0,L|125:119,1,64.9999970245363,2|0,0:0|0:0,0:0:0:0:
201,96,123239,1,2,1:2:0:0:
134,225,123415,2,0,L|185:173,1,64.9999970245363,2|0,0:2|0:0,0:0:0:0:
201,96,123592,1,0,3:0:0:0:
279,219,123768,1,2,0:2:0:0:
270,186,123856,1,2,0:0:0:0:
261,157,123945,1,2,1:2:0:0:
347,89,124121,2,0,L|277:71,1,64.9999970245363,2|0,0:2|0:0,0:0:0:0:
63,277,124298,5,6,3:2:0:0:
223,11,124474,1,6,3:2:0:0:
268,281,124651,5,8,0:3:0:0:
319,311,124739,1,8,0:3:0:0:
373,284,124827,1,6,3:2:0:0:
361,207,124915,1,0,0:0:0:0:
349,126,125004,5,6,3:2:0:0:
388,190,125092,1,4,0:3:0:0:
439,219,125180,1,4,0:3:0:0:
492,201,125268,1,4,0:3:0:0:
511,152,125357,1,2,0:2:0:0:
493,110,125445,1,2,0:2:0:0:
452,91,125533,1,2,0:0:0:0:
412,103,125621,1,0,0:0:0:0:
309,54,125710,6,0,P|223:35|177:69,1,119.999996337891,6|0,3:2|0:0,0:0:0:0:
356,247,126062,2,0,P|330:163|278:140,1,119.999996337891,0|2,3:0|0:2,0:0:0:0:
225,384,126415,1,8,3:2:0:0:
182,218,126592,1,0,0:0:0:0:
182,218,126680,1,0,0:0:0:0:
182,218,126768,2,0,P|247:277|304:271,1,119.999996337891,2|0,3:2|0:0,0:0:0:0:
110,164,127121,6,0,P|70:113|-17:115,1,119.999996337891,2|0,3:2|0:0,0:0:0:0:
92,358,127474,2,0,P|117:297|71:223,1,119.999996337891,0|2,3:0|0:2,0:0:0:0:
10,383,127827,1,8,3:2:0:0:
276,278,128004,1,0,0:0:0:0:
276,278,128092,1,0,0:0:0:0:
276,278,128180,2,0,P|220:261|166:285,1,119.999996337891,2|0,3:2|0:0,0:0:0:0:
366,259,128533,5,2,3:2:0:0:
214,186,128710,1,0,0:0:0:0:
214,186,128798,1,0,0:0:0:0:
214,186,128886,2,0,P|228:243|276:277,1,119.999996337891,0|2,3:0|0:2,0:0:0:0:
304,192,129239,5,8,3:2:0:0:
315,14,129416,1,0,0:0:0:0:
315,14,129504,1,0,0:0:0:0:
315,14,129592,2,0,P|273:54|267:113,1,119.999996337891,2|2,3:2|0:2,0:0:0:0:
230,273,129945,6,0,P|292:233|296:147,1,119.999996337891,0|0,3:0|0:0,0:0:0:0:
384,224,130298,2,0,P|382:150|309:105,1,119.999996337891,0|0,3:0|0:0,0:0:0:0:
144,219,130651,2,0,P|147:145|220:100,1,119.999996337891,8|0,3:2|0:0,0:0:0:0:
110,61,131004,2,0,P|175:27|252:67,1,119.999996337891,2|2,3:2|0:2,0:0:0:0:
500,176,131357,6,0,P|414:195|368:161,1,119.999996337891,2|0,3:2|0:0,0:0:0:0:
417,3,131709,2,0,P|391:86|339:109,1,119.999996337891,0|2,3:0|0:2,0:0:0:0:
225,0,132062,1,8,3:2:0:0:
182,166,132239,1,0,0:0:0:0:
182,166,132327,1,0,0:0:0:0:
182,166,132415,2,0,P|247:106|304:112,1,119.999996337891,2|0,3:2|0:0,0:0:0:0:
110,220,132768,6,0,P|70:271|-17:269,1,119.999996337891,2|0,3:2|0:0,0:0:0:0:
92,26,133121,2,0,P|117:86|71:160,1,119.999996337891,0|2,3:0|0:2,0:0:0:0:
10,1,133474,1,8,3:2:0:0:
276,106,133651,1,0,0:0:0:0:
276,106,133739,1,0,0:0:0:0:
276,106,133827,2,0,P|220:122|166:98,1,119.999996337891,2|0,3:2|0:0,0:0:0:0:
366,125,134180,5,2,3:2:0:0:
214,198,134357,1,0,0:0:0:0:
214,198,134445,1,0,0:0:0:0:
214,198,134533,2,0,P|228:140|276:106,1,119.999996337891,0|0,3:0|0:0,0:0:0:0:
304,192,134886,5,8,3:2:0:0:
315,370,135063,1,0,0:0:0:0:
315,370,135151,1,0,0:0:0:0:
315,370,135239,2,0,P|273:329|265:293,1,59.9999981689454,0|0,3:0|0:0,0:0:0:0:
214,198,135415,5,2,0:2:0:0:
201,235,135504,1,2,0:2:0:0:
223,266,135592,2,0,P|263:204|349:200,1,119.999996337891,2|2,3:2|0:2,0:0:0:0:
152,144,135945,2,0,P|113:82|27:78,1,119.999996337891,0|0,3:0|0:0,0:0:0:0:
272,110,136298,2,0,P|312:48|398:44,1,119.999996337891,8|0,3:2|0:0,0:0:0:0:
360,207,136651,6,0,P|321:202|292:176,1,59.9999981689454,0|0,3:0|3:0,0:0:0:0:
416,143,136827,2,0,P|455:148|484:174,1,59.9999981689454,0|0,3:0|0:0,0:0:0:0:
297,341,137004,5,6,3:2:0:0:
235,353,137092,1,0,0:0:0:0:
193,323,137180,2,0,P|179:297|196:226,3,75.0000028610231,0|0|0|0,0:0|0:0|1:0|0:0,0:0:0:0:
304,190,137533,5,2,0:2:0:0:
345,142,137621,1,0,0:0:0:0:
340,90,137709,1,0,3:0:0:0:
308,60,137797,1,0,0:0:0:0:
268,51,137886,1,0,0:0:0:0:
232,65,137974,1,0,0:0:0:0:
207,93,138062,2,0,P|154:105|109:79,3,75.0000028610231,2|0|0|0,1:2|0:0|0:0|0:0,0:0:0:0:
16,18,138415,5,2,3:2:0:0:
57,65,138503,1,0,0:0:0:0:
52,117,138592,2,0,P|32:157|-16:175,3,75.0000028610231,0|0|0|0,0:0|0:0|1:0|0:0,0:0:0:0:
102,256,138944,5,2,0:2:0:0:
149,296,139032,1,0,0:0:0:0:
201,292,139120,1,0,3:0:0:0:
231,259,139210,1,0,0:0:0:0:
240,219,139298,1,0,0:0:0:0:
226,183,139386,1,0,0:0:0:0:
207,162,139474,2,0,P|195:116|238:70,3,75.0000028610231,2|0|0|0,1:2|0:0|0:0|0:0,0:0:0:0:
292,0,139827,2,0,P|303:45|260:91,3,75.0000028610231,2|0|0|0,3:2|0:0|0:0|0:0,0:0:0:0:
378,136,140180,5,2,1:2:0:0:
378,136,140269,1,0,0:0:0:0:
378,136,140357,1,2,0:2:0:0:
396,171,140445,1,0,0:0:0:0:
382,221,140533,2,0,P|353:241|297:231,3,75.0000028610231,0|0|0|0,3:0|0:0|0:0|0:0,0:0:0:0:
179,315,140886,5,2,1:2:0:0:
179,315,140974,1,0,0:0:0:0:
179,315,141063,1,2,0:2:0:0:
182,277,141151,1,0,0:0:0:0:
161,243,141239,1,0,3:0:0:0:
123,214,141327,1,0,0:0:0:0:
93,166,141416,1,0,0:0:0:0:
104,107,141504,1,0,0:0:0:0:
156,60,141592,1,0,1:0:0:0:
227,66,141680,1,0,0:0:0:0:
264,130,141769,1,0,0:0:0:0:
335,159,141857,1,0,0:0:0:0:
409,120,141945,6,0,P|418:72|386:22,1,75.0000028610231,0|0,3:0|0:0,0:0:0:0:
273,195,142121,2,0,P|311:163|370:166,1,75.0000028610231
476,263,142298,2,0,P|430:247|402:195,3,75.0000028610231,2|0|2|0,1:2|0:0|0:2|0:0,0:0:0:0:
356,323,142651,5,2,3:2:0:0:
292,341,142739,1,0,0:0:0:0:
243,320,142827,1,0,0:0:0:0:
218,280,142915,1,0,0:0:0:0:
220,237,143004,1,0,1:0:0:0:
246,207,143092,1,0,0:0:0:0:
273,195,143180,2,0,P|314:198|345:231,5,75.0000028610231,2|0|0|0|0|0,0:2|0:0|3:0|0:0|0:0|0:0,0:0:0:0:
137,309,143710,2,0,P|96:306|65:273,3,75.0000028610231,2|0|0|0,1:2|0:0|0:0|0:0,0:0:0:0:
103,156,144062,5,2,3:2:0:0:
146,89,144150,1,0,0:0:0:0:
207,70,144238,1,0,0:0:0:0:
261,87,144326,1,0,0:0:0:0:
293,129,144415,1,0,1:0:0:0:
292,177,144503,1,0,0:0:0:0:
271,212,144592,2,0,P|226:233|174:217,5,75.0000028610231,2|0|0|0|0|0,0:2|0:0|3:0|0:0|0:0|0:0,0:0:0:0:
382,148,145121,2,0,P|419:148|450:167,3,75.0000028610231,2|0|0|0,1:2|0:0|0:0|0:0,0:0:0:0:
296,348,145474,5,2,3:2:0:0:
251,328,145562,1,0,0:0:0:0:
212,335,145650,1,0,0:0:0:0:
168,356,145738,1,0,0:0:0:0:
114,353,145827,1,0,1:0:0:0:
70,316,145915,1,0,0:0:0:0:
63,256,146003,1,0,0:0:0:0:
100,204,146091,1,0,0:0:0:0:
165,199,146180,1,0,3:0:0:0:
213,245,146268,1,0,0:0:0:0:
277,261,146357,5,2,0:2:0:0:
326,217,146445,1,0,0:0:0:0:
327,149,146533,1,2,1:2:0:0:
277,97,146621,1,0,0:0:0:0:
200,101,146710,2,0,P|163:136|157:170,1,75.0000028610231,2|0,0:2|0:0,0:0:0:0:
215,308,146886,6,0,P|209:336|210:359,1,44.999998626709,0|0,1:0|1:0,0:0:0:0:
284,340,146974,6,0,P|291:366|305:385,1,44.999998626709,0|0,1:0|1:0,0:0:0:0:
360,333,147063,6,0,P|380:352|400:360,1,44.999998626709,0|0,1:0|1:0,0:0:0:0:
419,289,147151,6,0,P|445:293|468:291,1,44.999998626709,0|0,1:0|1:0,0:0:0:0:
447,220,147239,6,0,P|467:212|481:202,1,36.0000008789063,0|0,1:0|1:0,0:0:0:0:
432,149,147327,6,0,P|446:130|452:114,1,36.0000008789063,0|0,1:0|1:0,0:0:0:0:
385,97,147416,6,0,P|388:73|386:56,1,36.0000008789063,0|0,1:0|1:0,0:0:0:0:
322,74,147504,6,0,P|313:51|303:38,1,36.0000008789063,0|0,1:0|1:0,0:0:0:0:
255,86,147592,6,0,P|240:73|228:67,1,27.0000006591797,0|0,1:0|1:0,0:0:0:0:
206,124,147680,6,0,P|187:119|174:121,1,22.4999993133545,0|0,1:0|1:0,0:0:0:0:
186,178,147769,6,0,P|168:183|163:186,1,18.0000004394531,0|0,1:0|1:0,0:0:0:0:
200,229,147857,6,0,P|186:242|184:246,1,13.5000003295899,0|0,1:0|1:0,0:0:0:0:
242,249,147945,5,0,1:0:0:0:
281,253,148033,1,0,1:0:0:0:
318,232,148121,1,0,1:0:0:0:
336,196,148210,1,0,1:0:0:0:
262,178,148298,6,0,P|235:284|337:346,1,225.000008583069,6|0,3:2|0:0,0:0:0:0:
402,223,148651,1,2,1:2:0:0:
431,146,148739,1,0,0:0:0:0:
350,159,148827,2,0,P|313:168|236:78,1,150.000005722046,10|0,0:2|3:0,0:0:0:0:
26,23,149092,5,0,0:0:0:0:
24,102,149180,2,0,P|49:130|85:140,1,75.0000028610231,10|0,0:2|0:0,0:0:0:0:
404,47,149357,1,2,1:2:0:0:
333,7,149445,1,0,0:0:0:0:
254,32,149533,2,0,P|234:72|243:121,1,75.0000028610231,10|0,0:2|0:0,0:0:0:0:
387,289,149710,6,0,P|393:203|324:152,1,150.000005722046,2|8,3:2|0:2,0:0:0:0:
247,304,149974,1,2,0:2:0:0:
326,327,150063,2,0,P|364:314|391:235,1,75.0000028610231,0|0,1:0|0:0,0:0:0:0:
486,173,150239,2,0,P|359:153|322:199,1,150.000005722046,10|0,0:0|3:0,0:0:0:0:
171,337,150504,5,0,0:0:0:0:
160,320,150592,1,10,0:2:0:0:
168,268,150680,1,0,0:0:0:0:
214,226,150769,1,2,1:2:0:0:
241,155,150857,1,0,0:0:0:0:
201,85,150945,1,10,0:2:0:0:
14,238,151121,5,2,3:2:0:0:
36,320,151210,1,0,0:0:0:0:
118,332,151298,1,8,0:2:0:0:
95,29,151474,5,2,1:2:0:0:
34,102,151563,1,0,0:0:0:0:
78,183,151651,1,8,0:2:0:0:
364,41,151827,5,2,3:2:0:0:
270,12,151916,1,0,0:0:0:0:
201,85,152004,1,8,0:2:0:0:
78,183,152180,5,2,1:2:0:0:
34,102,152268,1,0,0:0:0:0:
95,29,152357,1,8,0:2:0:0:
118,332,152533,5,2,3:2:0:0:
36,320,152621,1,0,0:0:0:0:
14,238,152710,1,8,0:2:0:0:
78,183,152798,1,2,0:2:0:0:
78,183,152886,6,0,P|127:184|172:219,1,75.0000028610231,0|0,1:0|0:0,0:0:0:0:
291,47,153062,2,0,P|333:146|265:229,1,225.000008583069,10|0,0:2|0:0,0:0:0:0:
262,336,153416,5,10,0:2:0:0:
334,307,153504,1,2,0:2:0:0:
357,239,153592,1,2,1:2:0:0:
336,171,153680,1,2,0:2:0:0:
280,139,153769,1,10,0:2:0:0:
228,147,153857,1,2,0:2:0:0:
190,172,153945,6,0,P|98:203|102:81,1,225.000008583069,2|0,3:2|0:0,0:0:0:0:
342,199,154298,1,2,1:2:0:0:
424,228,154386,1,0,0:0:0:0:
411,144,154474,2,0,P|373:116|271:150,1,150.000005722046,10|0,0:2|3:0,0:0:0:0:
120,339,154739,5,0,0:0:0:0:
78,271,154827,2,0,P|84:234|110:208,1,75.0000028610231,10|0,0:2|0:0,0:0:0:0:
267,216,155004,1,2,1:2:0:0:
279,138,155092,1,0,0:0:0:0:
221,83,155180,2,0,P|181:63|131:71,1,75.0000028610231,10|0,0:2|0:0,0:0:0:0:
217,288,155357,6,0,P|303:294|354:225,1,150.000005722046,2|8,3:2|0:2,0:0:0:0:
379,51,155621,1,2,0:2:0:0:
357,129,155710,2,0,P|370:167|449:194,1,75.0000028610231,0|0,1:0|0:0,0:0:0:0:
493,374,155886,2,0,P|468:249|412:230,1,150.000005722046,10|0,0:0|3:0,0:0:0:0:
271,70,156151,5,0,0:0:0:0:
254,68,156239,1,10,0:2:0:0:
216,94,156327,1,0,0:0:0:0:
195,144,156416,1,2,1:2:0:0:
143,180,156504,1,0,0:0:0:0:
77,163,156592,2,0,P|53:134|51:82,1,75.0000028610231,10|0,0:2|0:0,0:0:0:0:
282,150,156769,5,2,3:2:0:0:
351,194,156857,1,0,0:0:0:0:
370,273,156945,2,0,P|356:308|316:337,1,75.0000028610231,8|0,0:2|0:0,0:0:0:0:
77,163,157121,1,0,1:0:0:0:
81,81,157209,1,0,0:0:0:0:
144,25,157297,2,0,P|179:19|223:40,1,75.0000028610231,8|0,0:2|0:0,0:0:0:0:
204,232,157474,6,0,P|168:238|122:214,1,75.0000028610231,2|0,3:2|0:0,0:0:0:0:
351,194,157651,1,10,0:2:0:0:
400,179,157739,1,0,0:0:0:0:
418,123,157827,1,2,1:2:0:0:
389,61,157916,1,0,0:0:0:0:
315,62,158004,2,0,P|290:75|267:119,1,75.0000028610231,10|0,0:2|0:0,0:0:0:0:
477,255,158180,6,0,P|384:193|263:256,1,225.000008583069,2|0,3:2|0:0,0:0:0:0:
107,314,158533,1,2,1:2:0:0:
56,269,158621,1,0,0:0:0:0:
48,203,158710,2,0,P|67:161|121:140,1,75.0000028610231,10|0,0:2|0:0,0:0:0:0:
243,287,158886,5,0,3:0:0:0:
285,222,158974,1,0,0:0:0:0:
278,153,159063,1,8,0:2:0:0:
238,114,159151,1,0,0:0:0:0:
189,111,159239,2,0,P|87:100|77:12,1,150.000005722046,0|8,1:0|0:2,0:0:0:0:
491,58,159592,6,0,P|506:177|395:230,1,225.000008583069,6|0,3:2|0:0,0:0:0:0:
275,252,159945,1,2,1:2:0:0:
267,166,160033,1,0,0:0:0:0:
349,200,160121,2,0,P|383:216|384:335,1,150.000005722046,10|0,0:2|3:0,0:0:0:0:
175,360,160386,5,0,0:0:0:0:
96,362,160474,2,0,P|68:337|58:301,1,75.0000028610231,10|0,0:2|0:0,0:0:0:0:
171,165,160651,1,2,1:2:0:0:
216,95,160739,1,0,0:0:0:0:
189,18,160827,2,0,P|149:-2|100:7,1,75.0000028610231,10|0,0:2|0:0,0:0:0:0:
230,228,161004,6,0,P|250:144|191:82,1,150.000005722046,2|8,3:2|0:2,0:0:0:0:
89,218,161268,1,2,0:2:0:0:
163,254,161357,2,0,P|202:247|242:174,1,75.0000028610231,0|0,1:0|0:0,0:0:0:0:
347,61,161533,2,0,P|222:86|203:142,1,150.000005722046,10|0,0:0|3:0,0:0:0:0:
306,384,161798,5,0,0:0:0:0:
348,363,161886,1,10,0:2:0:0:
367,314,161974,1,0,0:0:0:0:
348,255,162063,1,2,1:2:0:0:
360,180,162151,1,0,0:0:0:0:
430,139,162239,1,10,0:2:0:0:
118,369,162415,5,2,3:2:0:0:
57,310,162504,1,0,0:0:0:0:
138,290,162592,1,8,0:2:0:0:
43,190,162768,5,2,1:2:0:0:
67,107,162857,1,0,0:0:0:0:
125,169,162945,1,8,0:2:0:0:
143,0,163121,5,2,3:2:0:0:
236,0,163210,1,0,0:0:0:0:
194,82,163298,1,8,0:2:0:0:
43,190,163474,5,2,1:2:0:0:
67,107,163563,1,0,0:0:0:0:
125,169,163651,1,8,0:2:0:0:
118,369,163827,5,2,3:2:0:0:
57,310,163916,1,0,0:0:0:0:
138,290,164004,1,8,0:2:0:0:
200,351,164092,1,2,0:2:0:0:
200,351,164180,6,0,P|247:367|306:317,1,75.0000028610231,0|0,1:0|0:0,0:0:0:0:
271,98,164357,2,0,P|204:180|287:298,1,225.000008583069,10|0,0:2|0:0,0:0:0:0:
380,365,164710,5,10,0:2:0:0:
449,336,164798,1,2,0:2:0:0:
473,267,164886,1,2,1:2:0:0:
453,200,164974,1,2,0:2:0:0:
395,167,165063,1,10,0:2:0:0:
344,176,165151,1,2,0:2:0:0:
306,201,165239,6,0,P|213:232|134:138,1,225.000008583069,2|0,3:2|0:0,0:0:0:0:
367,264,165592,1,2,1:2:0:0:
396,346,165680,1,0,0:0:0:0:
311,332,165768,2,0,P|283:293|316:191,1,150.000005722046,10|0,0:2|3:0,0:0:0:0:
375,30,166033,5,0,0:0:0:0:
416,97,166121,2,0,P|409:133|383:159,1,75.0000028610231,10|0,0:2|0:0,0:0:0:0:
224,33,166298,1,2,1:2:0:0:
196,110,166386,1,0,0:0:0:0:
235,180,166474,2,0,P|275:200|325:192,1,75.0000028610231,10|0,0:2|0:0,0:0:0:0:
196,110,166651,6,0,P|153:183|201:255,1,150.000005722046,2|8,3:2|0:2,0:0:0:0:
432,260,166915,1,2,0:2:0:0:
375,199,167004,2,0,P|335:189|271:242,1,75.0000028610231,0|0,1:0|0:0,0:0:0:0:
51,296,167180,2,0,P|109:339|181:329,1,150.000005722046,10|0,0:0|3:0,0:0:0:0:
418,304,167445,5,0,0:0:0:0:
429,290,167533,1,10,0:2:0:0:
422,241,167621,1,0,0:0:0:0:
375,199,167710,1,2,1:2:0:0:
347,135,167798,1,0,0:0:0:0:
391,72,167886,2,0,P|425:59|474:75,1,75.0000028610231,10|0,0:2|0:0,0:0:0:0:
93,222,168063,6,0,P|106:325|192:165,1,450.000017166138,6|8,3:2|0:2,0:0:0:0:
143,89,168769,6,0,P|202:96|243:48,1,100,2|10,0:2|0:2,0:0:0:0:
19,22,169121,2,0,P|29:80|87:104,1,100,2|10,0:2|0:2,0:0:0:0:
203,143,169474,6,0,P|261:212|207:330,1,200,14|0,0:2|0:0,0:0:0:0:
155,333,169827,5,2,0:2:0:0:
293,381,170004,2,0,P|233:311|454:317,1,500,2|2,0:2|0:2,0:0:0:0:
256,192,171062,12,0,175121,0:0:0:0:
102,224,175827,5,0,3:0:0:0:
196,309,175944,1,0,3:0:0:0:
77,348,176062,1,0,3:0:0:0:
221,184,176180,5,2,3:2:0:0:
323,341,176298,1,0,3:0:0:0:
415,173,176415,1,0,3:0:0:0:
312,1,176533,6,0,P|294:86|327:122,1,87.500000834465,6|0,3:2|0:0,0:0:0:0:
336,149,176710,1,8,0:2:0:0:
354,233,176798,1,0,0:0:0:0:
434,256,176886,2,0,P|351:229|336:182,1,87.500000834465,0|0,1:0|0:0,0:0:0:0:
209,73,177062,5,8,0:2:0:0:
125,66,177150,1,0,0:0:0:0:
77,132,177239,2,0,P|130:64|179:66,1,87.500000834465,0|0,3:0|0:0,0:0:0:0:
209,73,177415,2,0,P|252:65|292:81,1,87.500000834465,8|0,0:2|0:0,0:0:0:0:
162,250,177592,6,0,P|150:163|107:141,1,87.500000834465,0|0,1:0|0:0,0:0:0:0:
77,132,177768,2,0,P|44:103|1:98,1,87.500000834465,8|0,0:2|0:0,0:0:0:0:
273,213,177945,6,0,P|358:231|394:198,1,87.500000834465,2|0,3:2|0:0,0:0:0:0:
434,256,178121,1,8,0:2:0:0:
500,195,178210,1,0,0:0:0:0:
479,115,178298,2,0,P|497:199|464:235,1,87.500000834465,0|0,1:0|0:0,0:0:0:0:
131,256,178474,5,8,0:2:0:0:
131,256,178562,1,0,0:0:0:0:
131,256,178651,1,0,3:0:0:0:
152,204,178739,1,0,0:0:0:0:
208,185,178827,1,8,0:2:0:0:
272,214,178915,1,0,0:0:0:0:
309,289,179004,2,0,P|280:257|272:214,1,87.500000834465,0|0,1:0|0:0,0:0:0:0:
417,171,179180,5,8,0:2:0:0:
432,254,179268,1,0,0:0:0:0:
512,277,179357,2,0,P|468:277|432:254,1,87.500000834465,2|0,3:2|0:0,0:0:0:0:
448,38,179533,1,8,0:2:0:0:
365,49,179621,1,0,0:0:0:0:
344,129,179710,2,0,P|343:85|366:49,1,87.500000834465,0|0,1:0|0:0,0:0:0:0:
353,218,179886,5,8,0:2:0:0:
309,289,179974,1,0,0:0:0:0:
229,280,180062,2,0,P|259:296|324:276,1,87.500000834465,2|0,3:2|0:0,0:0:0:0:
127,192,180239,2,0,P|120:227|159:282,1,87.500000834465,10|0,0:2|0:0,0:0:0:0:
117,86,180415,6,0,P|147:104|213:86,1,87.500000834465,2|0,1:2|0:0,0:0:0:0:
8,0,180592,2,0,P|-7:65|88:159,1,175.00000166893,10|0,0:2|3:0,0:0:0:0:
479,78,180945,6,0,P|441:57|397:59,1,87.500000834465,10|0,0:2|0:0,0:0:0:0:
512,262,181121,2,0,P|519:219|504:179,1,87.500000834465,2|0,1:2|0:0,0:0:0:0:
360,366,181298,2,0,P|402:360|436:333,1,87.500000834465,10|0,0:2|0:0,0:0:0:0:
150,164,181474,6,0,P|192:156|232:171,1,87.500000834465,2|0,3:2|0:0,0:0:0:0:
61,304,181651,2,0,P|66:261|93:227,1,87.500000834465,10|0,0:2|0:0,0:0:0:0:
360,366,181827,5,2,3:2:0:0:
276,350,181915,1,0,3:0:0:0:
272,269,182004,1,2,3:2:0:0:
346,238,182092,1,0,3:0:0:0:
400,296,182180,2,0,P|350:370|263:329,1,175.00000166893,2|10,3:2|0:2,0:0:0:0:
21,103,182445,5,0,0:0:0:0:
21,73,182533,1,2,1:2:0:0:
55,16,182621,1,2,0:2:0:0:
123,0,182710,1,10,0:2:0:0:
186,43,182798,1,0,0:0:0:0:
161,122,182886,5,2,3:2:0:0:
216,169,182974,1,2,0:2:0:0:
294,159,183063,1,10,0:2:0:0:
336,90,183151,1,0,0:0:0:0:
321,8,183239,5,2,1:2:0:0:
315,56,183327,1,0,0:0:0:0:
336,90,183415,2,0,P|356:104|372:108,1,29.9999990844727,10|0,0:2|3:0,0:0:0:0:
394,0,183768,5,10,0:2:0:0:
391,15,183857,1,0,0:0:0:0:
387,34,183945,5,2,1:2:0:0:
449,56,184033,1,2,0:2:0:0:
484,122,184121,1,10,0:2:0:0:
461,194,184210,1,0,0:0:0:0:
505,256,184298,5,2,3:2:0:0:
439,226,184386,1,2,0:2:0:0:
366,241,184474,1,10,0:2:0:0:
325,308,184562,1,0,0:0:0:0:
349,384,184651,6,0,P|381:368|406:308,1,100,0|0,1:0|0:0,0:0:0:0:
44,295,184827,2,0,B|179:389|174:224|326:308,1,300,10|0,0:2|0:0,0:0:0:0:
267,373,185180,2,0,P|241:330|243:282,1,100,10|0,0:2|0:0,0:0:0:0:
117,237,185357,2,0,P|145:197|192:184,1,100,2|0,1:2|0:0,0:0:0:0:
195,25,185533,2,0,P|241:39|268:80,1,100,10|0,0:2|0:0,0:0:0:0:
324,307,185710,5,2,3:2:0:0:
258,284,185798,1,0,3:0:0:0:
188,256,185886,1,2,3:2:0:0:
113,228,185974,1,0,3:0:0:0:
33,200,186062,1,6,3:2:0:0:
405,318,186327,5,2,3:2:0:0:
103,65,186592,1,4,3:2:0:0:
460,169,186857,5,0,3:0:0:0:
202,348,187121,1,6,3:2:0:0:
313,32,187386,5,0,3:0:0:0:
202,348,187651,1,4,3:2:0:0:
256,192,187827,5,6,0:2:0:0:
168,173,189239,1,2,1:2:0:0:
337,212,190651,1,2,1:2:0:0:
189,297,192062,1,2,1:2:0:0:
318,94,193474,1,2,1:2:0:0:
179,219,194886,1,2,1:2:0:0:
329,171,196298,1,2,1:2:0:0:
255,192,197710,1,2,1:2:0:0:
33,112,199121,6,0,P|135:81|208:158,1,225.000008583069,6|2,0:2|0:2,0:0:0:0:
147,220,199827,1,8,0:2:0:0:
147,220,200004,2,0,P|144:257|156:292,2,75.0000028610231,2|2|2,0:2|0:2|0:2,0:0:0:0:
232,244,200533,6,0,P|305:321|407:290,1,225.000008583069,2|2,1:2|0:2,0:0:0:0:
383,208,201239,1,8,0:2:0:0:
383,208,201416,2,0,P|380:170|392:135,2,75.0000028610231,2|2|2,0:2|0:2|0:2,0:0:0:0:
299,193,201945,6,0,P|234:160|167:193,1,150.000005722046,2|2,1:2|0:2,0:0:0:0:
0,263,202651,2,0,P|65:296|132:263,1,150.000005722046,10|2,0:2|0:2,0:0:0:0:
192,12,203357,6,0,P|157:101|283:199,1,250.000009536744,2|0,1:2|0:0,0:0:0:0:
299,193,204062,2,0,P|362:195|412:283,1,150.000005722046,8|0,0:2|0:0,0:0:0:0:
150,321,204768,6,0,P|252:351|325:274,1,225.000008583069,2|2,1:2|0:2,0:0:0:0:
299,193,205474,1,8,0:2:0:0:
299,193,205651,2,0,P|296:155|308:120,2,75.0000028610231,2|2|2,0:2|0:2|0:2,0:0:0:0:
324,273,206180,6,0,P|222:304|149:227,1,225.000008583069,2|2,1:2|0:2,0:0:0:0:
96,163,206886,1,8,0:2:0:0:
96,163,207063,2,0,P|75:193|68:230,2,75.0000028610231,2|2|2,0:2|0:2|0:2,0:0:0:0:
148,226,207592,6,0,P|214:256|279:224,1,150.000005722046,2|0,1:2|0:0,0:0:0:0:
463,152,208298,2,0,P|397:121|332:154,1,150.000005722046,10|2,0:2|0:2,0:0:0:0:
259,17,209004,6,0,P|257:8|253:0,30,18.7500007152558,6|0|0|0|0|0|0|0|2|0|0|0|2|0|0|0|0|0|0|0|0|0|0|0|0|0|0|0|0|0|0,1:2|1:0|1:0|1:0|1:0|1:0|1:0|1:0|1:2|1:0|1:0|1:0|1:2|1:0|1:0|1:0|1:0|1:0|1:0|1:0|1:0|1:0|1:0|1:0|1:0|1:0|1:0|1:0|1:0|1:0|1:0,0:0:0:0:
253,0,210415,6,0,P|302:89|191:142,1,225.000008583069,6|0,3:2|0:0,0:0:0:0:
57,90,210768,1,2,1:2:0:0:
122,39,210856,1,0,0:0:0:0:
135,119,210944,2,0,P|119:153|0:154,1,150.000005722046,10|0,0:2|3:0,0:0:0:0:
98,353,211209,5,0,0:0:0:0:
136,281,211298,2,0,P|171:269|207:278,1,75.0000028610231,10|0,0:2|0:0,0:0:0:0:
388,281,211474,1,2,1:2:0:0:
432,206,211562,1,0,0:0:0:0:
401,133,211650,2,0,P|360:113|311:122,1,75.0000028610231,10|0,0:2|0:0,0:0:0:0:
310,332,211827,6,0,P|304:246|373:195,1,150.000005722046,2|8,3:2|0:2,0:0:0:0:
449,348,212091,1,2,0:2:0:0:
370,371,212180,2,0,P|332:359|304:279,1,75.0000028610231,0|0,1:0|0:0,0:0:0:0:
214,167,212357,2,0,P|286:158|344:203,1,150.000005722046,10|0,0:0|3:0,0:0:0:0:
203,382,212621,5,0,0:0:0:0:
185,383,212709,1,10,0:2:0:0:
144,350,212797,1,0,0:0:0:0:
131,289,212886,1,2,1:2:0:0:
83,230,212974,1,0,0:0:0:0:
2,230,213062,1,10,0:2:0:0:
144,350,213238,5,2,3:2:0:0:
213,307,213327,1,0,0:0:0:0:
203,224,213415,1,8,0:2:0:0:
363,281,213591,5,2,1:2:0:0:
382,196,213680,1,0,0:0:0:0:
310,142,213768,1,8,0:2:0:0:
465,80,213944,5,2,3:2:0:0:
418,0,214033,1,0,0:0:0:0:
320,0,214121,1,8,0:2:0:0:
363,281,214297,5,2,1:2:0:0:
382,196,214386,1,0,0:0:0:0:
310,142,214474,1,8,0:2:0:0:
144,350,214650,5,2,3:2:0:0:
213,307,214739,1,0,0:0:0:0:
203,224,214827,1,8,0:2:0:0:
135,270,214915,1,2,0:2:0:0:
135,270,215003,6,0,P|97:237|111:161,1,75.0000028610231,0|0,1:0|0:0,0:0:0:0:
256,5,215180,2,0,P|235:109|91:120,1,225.000008583069,10|0,0:2|0:0,0:0:0:0:
56,128,215533,5,10,0:2:0:0:
94,59,215621,1,2,0:2:0:0:
167,48,215709,1,2,1:2:0:0:
230,80,215797,1,2,0:2:0:0:
251,142,215886,1,10,0:2:0:0:
235,191,215974,1,2,0:2:0:0:
203,224,216062,6,0,P|228:331|339:301,1,225.000008583069,2|0,3:2|0:0,0:0:0:0:
422,98,216415,1,2,1:2:0:0:
345,54,216503,1,0,0:0:0:0:
343,140,216591,2,0,P|375:174|481:158,1,150.000005722046,10|0,0:2|3:0,0:0:0:0:
454,311,216856,5,0,0:0:0:0:
386,353,216944,2,0,P|349:347|323:321,1,75.0000028610231,10|0,0:2|0:0,0:0:0:0:
216,183,217121,1,2,1:2:0:0:
228,105,217209,1,0,0:0:0:0:
170,50,217297,2,0,P|130:30|80:38,1,75.0000028610231,10|0,0:2|0:0,0:0:0:0:
6,210,217474,6,0,P|85:245|157:197,1,150.000005722046,2|8,3:2|0:2,0:0:0:0:
361,9,217738,1,2,0:2:0:0:
313,75,217827,2,0,P|313:115|378:167,1,75.0000028610231,0|0,1:0|0:0,0:0:0:0:
386,353,218004,2,0,P|301:257|243:268,1,150.000005722046,10|0,0:0|3:0,0:0:0:0:
6,210,218268,5,0,0:0:0:0:
20,217,218356,1,10,0:2:0:0:
71,195,218444,1,0,0:0:0:0:
96,135,218533,1,2,1:2:0:0:
159,100,218621,1,0,0:0:0:0:
232,119,218709,2,0,P|256:148|262:185,1,75.0000028610231,10|0,0:2|0:0,0:0:0:0:
277,384,218886,5,2,3:2:0:0:
197,366,218974,1,0,0:0:0:0:
152,298,219062,2,0,P|153:260|180:219,1,75.0000028610231,8|0,0:2|0:0,0:0:0:0:
447,140,219238,1,0,1:0:0:0:
402,209,219326,1,0,0:0:0:0:
319,226,219415,2,0,P|285:213|258:173,1,75.0000028610231,8|0,0:2|0:0,0:0:0:0:
173,0,219591,6,0,P|179:36|155:82,1,75.0000028610231,2|0,3:2|0:0,0:0:0:0:
53,132,219768,1,10,0:2:0:0:
17,167,219856,1,0,0:0:0:0:
10,223,219944,1,2,1:2:0:0:
50,274,220033,1,0,0:0:0:0:
119,276,220121,2,0,P|145:266|171:224,1,75.0000028610231,10|0,0:2|0:0,0:0:0:0:
299,26,220297,6,0,P|405:39|446:139,1,225.000008583069,2|0,3:2|0:0,0:0:0:0:
512,268,220650,1,2,1:2:0:0:
467,319,220738,1,0,0:0:0:0:
401,327,220827,2,0,P|359:308|338:254,1,75.0000028610231,10|0,0:2|0:0,0:0:0:0:
304,191,221003,5,0,3:0:0:0:
226,187,221092,1,0,0:0:0:0:
170,227,221180,1,8,0:2:0:0:
156,281,221268,1,0,0:0:0:0:
174,325,221357,2,0,P|259:382|323:321,1,150.000005722046,0|8,1:0|0:2,0:0:0:0:
422,231,221710,6,0,P|449:125|347:63,1,225.000008583069,6|0,3:2|0:0,0:0:0:0:
154,147,222063,1,2,1:2:0:0:
226,187,222151,1,0,0:0:0:0:
224,102,222239,2,0,P|198:73|84:102,1,150.000005722046,10|0,0:2|3:0,0:0:0:0:
40,288,222504,5,0,0:0:0:0:
119,290,222592,2,0,P|147:265|157:229,1,75.0000028610231,10|0,0:2|0:0,0:0:0:0:
301,139,222769,1,2,1:2:0:0:
372,99,222857,1,0,0:0:0:0:
451,123,222945,2,0,P|471:163|462:212,1,75.0000028610231,10|0,0:2|0:0,0:0:0:0:
383,373,223122,6,0,P|334:301|369:222,1,150.000005722046,2|8,3:2|0:2,0:0:0:0:
511,315,223386,1,2,0:2:0:0:
454,375,223475,2,0,P|414:382|351:327,1,75.0000028610231,0|0,1:0|0:0,0:0:0:0:
217,278,223651,2,0,P|275:234|347:244,1,150.000005722046,10|0,0:0|3:0,0:0:0:0:
486,187,223916,5,0,0:0:0:0:
469,192,224004,1,10,0:2:0:0:
422,167,224092,1,0,0:0:0:0:
399,109,224181,1,2,1:2:0:0:
341,59,224269,1,0,0:0:0:0:
262,73,224357,1,10,0:2:0:0:
42,92,224533,5,2,3:2:0:0:
64,10,224622,1,0,0:0:0:0:
120,69,224710,1,8,0:2:0:0:
181,317,224886,5,2,1:2:0:0:
118,258,224975,1,0,0:0:0:0:
199,235,225063,1,8,0:2:0:0:
448,317,225239,5,2,3:2:0:0:
367,363,225328,1,0,0:0:0:0:
370,267,225416,1,8,0:2:0:0:
181,317,225592,5,2,1:2:0:0:
118,258,225681,1,0,0:0:0:0:
199,235,225769,1,8,0:2:0:0:
44,100,225945,5,2,3:2:0:0:
61,19,226034,1,0,0:0:0:0:
121,74,226122,1,8,0:2:0:0:
113,160,226210,1,2,0:2:0:0:
113,160,226298,6,0,P|70:183|13:175,1,75.0000028610231,0|0,1:0|0:0,0:0:0:0:
119,370,226474,2,0,P|167:274|275:273,1,225.000008583069,10|0,0:2|0:0,0:0:0:0:
276,76,226827,5,10,0:2:0:0:
328,18,226915,1,2,0:2:0:0:
400,19,227003,1,2,1:2:0:0:
457,62,227091,1,2,0:2:0:0:
468,126,227180,1,10,0:2:0:0:
442,172,227268,1,2,0:2:0:0:
406,199,227356,6,0,P|352:278|454:373,1,225.000008583069,2|0,3:2|0:0,0:0:0:0:
270,337,227709,1,2,1:2:0:0:
188,322,227797,1,0,0:0:0:0:
242,254,227885,2,0,P|289:249|360:329,1,150.000005722046,10|0,0:2|3:0,0:0:0:0:
469,259,228150,5,0,0:0:0:0:
490,182,228238,2,0,P|475:148|447:126,1,75.0000028610231,10|0,0:2|0:0,0:0:0:0:
345,108,228415,1,2,1:2:0:0:
275,152,228503,1,0,0:0:0:0:
201,117,228591,2,0,P|168:87|159:37,1,75.0000028610231,10|0,0:2|0:0,0:0:0:0:
0,87,228768,6,0,P|42:146|27:217,1,150.000005722046,2|8,3:2|0:2,0:0:0:0:
117,373,229032,1,2,0:2:0:0:
177,323,229121,2,0,P|216:320|273:382,1,75.0000028610231,0|0,1:0|0:0,0:0:0:0:
382,320,229298,2,0,P|338:261|348:189,1,150.000005722046,10|0,0:0|3:0,0:0:0:0:
383,63,229562,5,0,2:0:0:0:
369,75,229650,1,10,2:2:0:0:
313,72,229738,1,0,2:0:0:0:
271,21,229827,1,2,1:2:0:0:
203,1,229915,1,0,2:0:0:0:
141,42,230003,2,0,P|128:75|136:121,1,75.0000028610231,10|0,0:2|0:0,0:0:0:0:
298,219,230180,6,0,P|385:163|318:332,1,450.000017166138,6|8,3:2|0:2,0:0:0:0:
104,279,230886,6,0,P|140:231|119:172,1,100,2|10,0:2|0:2,0:0:0:0:
2,358,231238,2,0,P|58:378|108:340,1,100,2|10,0:2|0:2,0:0:0:0:
224,209,231592,6,0,P|313:193|388:299,1,200,14|0,0:2|0:0,0:0:0:0:
365,346,231944,1,2,0:2:0:0:
476,250,232121,2,0,P|386:267|311:161,1,200,2|0,0:2|0:0,0:0:0:0:
476,250,232651,5,2,0:2:0:0:
380,264,232739,1,2,0:2:0:0:
305,325,232827,1,2,0:2:0:0:
219,282,232915,1,2,0:2:0:0:
114,293,233004,6,0,P|59:269|37:176,1,150.000005722046,6|8,3:2|0:2,0:0:0:0:
34,188,233357,2,0,P|149:103|223:195,1,225.000008583069,2|0,1:2|0:0,0:0:0:0:
276,198,233710,2,0,P|301:128|265:62,1,150.000005722046,0|10,3:0|0:2,0:0:0:0:
86,12,233975,1,0,0:0:0:0:
68,89,234063,2,0,P|81:115|143:144,1,75.0000028610231,0|0,1:0|0:0,0:0:0:0:
386,214,234239,6,0,P|306:187|230:295,1,225.000008583069,10|0,0:2|0:0,0:0:0:0:
356,343,234592,2,0,P|349:314|297:270,1,75.0000028610231,10|0,0:2|0:0,0:0:0:0:
445,157,234768,2,0,P|446:127|297:84,1,225.000008583069,2|0,1:2|0:0,0:0:0:0:
386,214,235121,2,0,P|440:169|433:93,1,150.000005722046,0|8,3:0|0:2,0:0:0:0:
62,338,235474,2,0,P|135:311|202:351,1,150.000005722046,0|10,1:0|0:2,0:0:0:0:
183,11,235828,6,0,P|135:76|143:145,1,150.000005722046,2|8,3:2|0:2,0:0:0:0:
142,142,236180,2,0,P|226:205|328:167,1,225.000008583069,2|0,1:2|0:0,0:0:0:0:
297,83,236534,2,0,P|243:141|257:210,1,150.000005722046,0|10,3:0|0:2,0:0:0:0:
362,303,236799,1,0,0:0:0:0:
376,222,236887,2,0,P|363:194|304:160,1,75.0000028610231,0|0,1:0|0:0,0:0:0:0:
34,372,237063,6,0,P|89:283|225:313,1,225.000008583069,10|0,0:2|0:0,0:0:0:0:
234,371,237416,2,0,P|266:346|281:311,1,75.0000028610231,10|0,0:2|0:0,0:0:0:0:
125,125,237592,2,0,P|153:129|193:293,1,225.000008583069,2|0,1:2|0:0,0:0:0:0:
34,372,237946,2,0,P|27:301|81:237,1,150.000005722046,0|8,3:0|0:2,0:0:0:0:
467,34,238298,5,2,3:2:0:0:
468,134,238387,1,2,3:2:0:0:
391,208,238475,1,2,3:2:0:0:
284,201,238563,1,2,3:2:0:0:
212,123,238651,6,0,P|151:108|77:175,1,150.000005722046,2|8,3:2|0:2,0:0:0:0:
83,155,239004,2,0,P|149:291|240:257,1,225.000008583069,2|0,1:3|0:3,0:3:0:0:
212,123,239357,2,0,P|276:93|349:119,1,150.000005722046,0|10,3:0|0:2,0:0:0:0:
387,297,239622,1,0,0:0:0:0:
314,265,239710,2,0,P|293:242|287:174,1,75.0000028610231,0|0,1:0|0:0,0:0:0:0:
172,42,239887,6,0,P|128:143|209:209,1,225.000008583069,10|0,0:2|0:0,0:0:0:0:
275,156,240240,2,0,P|246:130|210:122,1,75.0000028610231,10|0,0:2|0:0,0:0:0:0:
179,293,240416,2,0,P|279:260|274:155,1,225.000008583069,2|0,1:2|0:0,0:0:0:0:
251,44,240769,2,0,P|307:4|376:38,1,150.000005722046,0|8,3:0|0:2,0:0:0:0:
472,228,241122,2,0,P|407:196|397:125,1,150.000005722046,0|10,1:0|0:2,0:0:0:0:
472,228,241474,6,0,P|448:257|413:268,1,75.0000028610231,2|0,3:2|0:0,0:0:0:0:
272,280,241650,2,0,P|296:251|331:240,1,75.0000028610231,8|0,0:2|0:0,0:0:0:0:
323,354,241827,2,0,P|229:358|182:250,1,225.000008583069,0|0,1:0|0:0,0:0:0:0:
174,5,242180,5,2,3:2:0:0:
74,4,242269,1,2,3:2:0:0:
0,81,242357,1,2,3:2:0:0:
7,188,242445,1,2,3:2:0:0:
85,260,242533,6,0,P|100:321|30:387,1,150.000005722046,6|0,3:2|0:0,0:0:0:0:
47,383,242797,2,0,P|67:348|112:330,1,75.0000028610231,2|0,3:2|0:0,0:0:0:0:
180,199,243062,6,0,P|119:182|97:88,1,150.000005722046,6|0,3:2|0:0,0:0:0:0:
92,105,243326,2,0,P|112:140|105:188,1,75.0000028610231,2|0,3:2|0:0,0:0:0:0:
190,324,243591,6,0,P|235:281|327:309,1,150.000005722046,6|0,3:2|0:0,0:0:0:0:
315,295,243856,2,0,P|274:296|217:199,1,150.000005722046,2|0,3:2|0:0,0:0:0:0:
321,62,244121,6,0,P|317:115|260:165,1,100,6|0,3:2|0:0,0:0:0:0:
120,26,244298,6,0,P|181:44|203:138,1,150.000005722046,6|8,3:2|0:2,0:0:0:0:
209,120,244651,2,0,P|126:262|151:306,1,225.000008583069,2|0,1:2|0:0,0:0:0:0:
192,370,245004,2,0,P|113:379|65:329,1,150.000005722046,0|10,3:0|0:2,0:0:0:0:
1,124,245269,1,0,0:0:0:0:
84,126,245357,2,0,P|119:138|143:165,1,75.0000028610231,0|0,1:0|0:0,0:0:0:0:
220,289,245534,6,0,P|276:226|396:282,1,225.000008583069,10|0,0:2|0:0,0:0:0:0:
329,203,245887,2,0,P|313:178|319:110,1,75.0000028610231,10|0,0:2|0:0,0:0:0:0:
156,45,246063,2,0,P|139:69|239:204,1,225.000008583069,2|0,1:2|0:0,0:0:0:0:
436,116,246416,2,0,P|370:91|308:135,1,150.000005722046,0|8,3:0|0:2,0:0:0:0:
0,220,246768,2,0,P|66:245|128:201,1,150.000005722046,0|10,1:0|0:2,0:0:0:0:
332,355,247122,6,0,P|283:296|210:296,1,150.000005722046,2|8,3:2|0:2,0:0:0:0:
214,296,247475,2,0,P|216:189|308:132,1,225.000008583069,2|0,1:2|0:0,0:0:0:0:
360,201,247828,2,0,P|281:210|233:160,1,150.000005722046,0|10,3:0|0:2,0:0:0:0:
216,26,248093,1,0,0:0:0:0:
290,62,248181,2,0,P|306:87|300:155,1,75.0000028610231,0|0,1:0|0:0,0:0:0:0:
350,319,248357,6,0,P|350:214|450:179,1,225.000008583069,10|0,0:2|0:0,0:0:0:0:
498,255,248710,2,0,P|470:266|402:252,1,75.0000028610231,10|0,0:2|0:0,0:0:0:0:
284,41,248886,2,0,P|312:45|352:209,1,225.000008583069,2|0,1:2|0:0,0:0:0:0:
376,105,249240,2,0,P|440:75|518:105,1,150.000005722046,0|8,3:0|0:2,0:0:0:0:
86,372,249592,5,2,3:2:0:0:
57,276,249681,1,2,3:2:0:0:
107,193,249769,1,2,3:2:0:0:
206,164,249857,1,2,3:2:0:0:
288,215,249945,6,0,P|312:272|254:348,1,150.000005722046,2|8,3:2|0:2,0:0:0:0:
271,342,250298,2,0,P|188:200|213:156,1,225.000008583069,2|0,1:2|0:0,0:0:0:0:
283,125,250651,2,0,P|231:75|160:88,1,150.000005722046,0|10,3:0|0:2,0:0:0:0:
19,165,250916,1,0,0:0:0:0:
10,80,251004,2,0,P|23:53|85:24,1,75.0000028610231,0|0,1:0|0:0,0:0:0:0:
299,23,251181,6,0,P|301:133|200:162,1,225.000008583069,10|0,0:2|0:0,0:0:0:0:
160,89,251534,2,0,P|195:73|232:77,1,75.0000028610231,10|0,0:2|0:0,0:0:0:0:
266,331,251710,2,0,P|285:307|197:164,1,225.000008583069,2|0,1:2|0:0,0:0:0:0:
81,290,252062,2,0,P|150:307|205:257,1,150.000005722046,0|8,3:0|0:2,0:0:0:0:
512,42,252415,2,0,P|440:36|395:92,1,150.000005722046,0|10,1:0|0:2,0:0:0:0:
143,245,252769,6,0,P|110:227|93:194,1,75.0000028610231,2|0,3:2|0:0,0:0:0:0:
59,50,252945,2,0,P|91:69|108:102,1,75.0000028610231,8|0,0:2|0:0,0:0:0:0:
166,327,253122,2,0,P|145:236|244:171,1,225.000008583069,0|0,1:0|0:0,0:0:0:0:
430,228,253474,5,2,3:2:0:0:
442,123,253562,1,2,3:2:0:0:
391,27,253651,1,2,3:2:0:0:
285,3,253739,1,2,3:2:0:0:
178,46,253827,6,0,P|142:123|179:194,1,150.000005722046,6|0,3:2|0:0,0:0:0:0:
163,179,254092,2,0,P|152:123|109:84,1,75.0000028610231,2|0,3:2|0:0,0:0:0:0:
17,325,254357,6,0,P|101:317|144:250,1,150.000005722046,6|0,3:2|0:0,0:0:0:0:
139,270,254622,2,0,P|95:308|83:365,1,75.0000028610231,2|0,3:2|0:0,0:0:0:0:
335,323,254886,6,0,P|286:253|206:249,1,150.000005722046,6|0,3:2|0:0,0:0:0:0:
226,244,255151,2,0,P|280:261|292:187,1,150.000005722046,2|0,3:2|0:0,0:0:0:0:
270,0,255415,6,0,B|20:239|376:533|622:397|694:93|376:-46|297:210|432:240,1,900,6|0,3:2|0:0,0:0:0:0:
397,221,257092,2,0,P|382:196|382:174,2,50
