osu file format v14

[General]
AudioFilename: Shana will believe.mp3
AudioLeadIn: 0
PreviewTime: 3117
Countdown: 0
SampleSet: Soft
StackLeniency: 0.7
Mode: 0
LetterboxInBreaks: 0
WidescreenStoryboard: 1

[Editor]
Bookmarks: 253,3633,7013,10393,13774,17154,20534,23914,27295,30675,34055,37436,89513
DistanceSpacing: 1
BeatDivisor: 4
GridSize: 4
TimelineZoom: 1

[Metadata]
Title:I'll believe (TV size)
TitleUnicode:I'll believe(TVサイズ)
Artist:ALTIMA
ArtistUnicode:ALTIMA
Creator:Nyu-chan
Version:pkhg's Hard
Source:灼眼のシャナⅢ-FINAL-
Tags:shakugan no shana III ending burning-eyed gaia pkhg nya -nya- p_a_n inyuschan
BeatmapID:784311
BeatmapSetID:355195

[Difficulty]
HPDrainRate:5
CircleSize:4
OverallDifficulty:6
ApproachRate:7.5
SliderMultiplier:1.5
SliderTickRate:2

[Events]
//Background and Video events
0,0,"BG.jpg",0,0
Video,-600,"Moe Shana.avi"
//Break Periods
//Storyboard Layer 0 (Background)
//Storyboard Layer 1 (Fail)
//Storyboard Layer 2 (Pass)
//Storyboard Layer 3 (Foreground)
//Storyboard Sound Samples

[TimingPoints]
265,422.535211267606,4,2,1,70,1,0
2166,-100,4,2,0,60,0,0
2800,-100,4,2,0,60,0,0
3222,-100,4,2,0,70,0,0
3434,-100,4,2,1,70,0,0
3645,-100,4,2,1,80,0,0
20546,-100,4,2,1,60,0,0
56039,-100,4,2,1,80,0,0
79701,-100,4,2,1,70,0,0
84877,-100,4,2,0,60,0,0

[Colours]
Combo1 : 235,232,165
Combo2 : 247,168,168
Combo3 : 255,201,147

[HitObjects]
144,317,265,6,0,P|183:310|219:314,1,75,4|0,0:0|0:0,0:0:0:0:
292,353,687,2,0,P|331:360|367:356,1,75,2|0,0:0|0:0,0:0:0:0:
432,305,1110,1,2,0:0:0:0:
396,229,1321,2,0,P|392:193|396:149,1,75,2|2,0:0|0:0,0:0:0:0:
436,81,1743,1,2,0:0:0:0:
436,81,2166,5,0,0:0:0:0:
352,81,2377,2,0,L|276:77,1,75,2|0,0:0|0:0,0:0:0:0:
200,113,2800,2,0,L|124:117,1,75,2|0,0:0|0:0,0:0:0:0:
76,185,3222,2,0,L|80:261,1,75,2|2,0:0|0:0,0:0:0:0:
140,317,3645,6,0,P|176:329|216:325,1,75,4|0,0:0|0:0,0:0:0:0:
228,313,3962,2,0,P|276:289|336:309,1,112.5,0|0,0:0|0:0,0:0:0:0:
384,365,4490,1,2,0:0:0:0:
416,285,4701,1,0,0:0:0:0:
416,285,4807,2,0,L|420:169,1,112.5,0|0,0:0|0:0,0:0:0:0:
472,105,5335,6,0,P|400:89|340:141,1,150,2|8,0:0|0:0,0:0:0:0:
284,185,5969,1,0,0:0:0:0:
284,185,6074,2,0,L|292:61,1,112.5,0|0,0:0|0:0,0:0:0:0:
352,13,6603,2,0,L|432:9,1,75,8|2,0:0|0:0,0:0:0:0:
288,53,7025,6,0,P|232:49|172:45,1,112.5,6|0,0:0|0:0,0:0:0:0:
160,53,7448,2,0,P|120:53|84:57,1,75,8|0,0:0|0:0,0:0:0:0:
72,69,7765,2,0,B|60:93|68:121|68:121|76:149|64:181,1,112.5,0|0,0:0|0:0,0:0:0:0:
0,229,8293,1,8,0:0:0:0:
0,229,8504,1,0,0:0:0:0:
76,265,8715,6,0,P|112:261|164:257,1,75,4|0,0:0|0:0,0:0:0:0:
160,261,9032,1,0,0:0:0:0:
168,265,9138,1,8,0:0:0:0:
236,309,9349,1,0,0:0:0:0:
296,249,9560,2,0,B|300:209|300:209|308:185|308:185|312:137,2,112.5,2|2|2,0:0|0:0|0:0,0:0:0:0:
236,309,10405,6,0,P|296:269|368:297,1,150,4|8,0:0|0:0,0:0:0:0:
428,349,11039,1,0,0:0:0:0:
428,349,11145,2,0,P|420:293|424:229,1,112.5,0|0,0:0|0:0,0:0:0:0:
456,161,11673,2,0,P|453:123|448:86,1,75,8|0,0:0|0:0,0:0:0:0:
389,31,12095,6,0,B|356:15|318:40|318:40|280:64|247:47,1,150,6|8,0:0|0:0,0:0:0:0:
168,25,12729,1,0,0:0:0:0:
168,25,12835,2,0,P|112:17|56:37,1,112.5,0|0,0:0|0:0,0:0:0:0:
32,113,13363,2,0,P|33:150|36:189,1,75,8|2,0:0|0:0,0:0:0:0:
0,265,13786,6,0,P|44:209|123:215,1,150,6|8,0:0|0:0,0:0:0:0:
78,284,14419,2,0,L|196:185,1,150,0|0,0:0|0:0,0:0:0:0:
252,129,15053,1,8,0:0:0:0:
252,129,15265,1,0,0:0:0:0:
276,209,15476,6,0,L|272:293,1,75,6|0,0:0|0:0,0:0:0:0:
332,349,15898,1,8,0:0:0:0:
332,349,16110,1,0,0:0:0:0:
396,297,16321,2,0,P|448:277|504:289,2,112.5,2|2|0,0:0|0:0|0:0,0:0:0:0:
332,349,17166,6,0,P|296:353|256:345,1,75,4|0,0:0|0:0,0:0:0:0:
192,297,17588,2,0,P|156:293|116:301,1,75,8|0,0:0|0:0,0:0:0:0:
44,341,18011,1,2,0:0:0:0:
44,341,18222,1,0,0:0:0:0:
44,257,18434,2,0,L|48:177,1,75,8|0,0:0|0:0,0:0:0:0:
40,101,18856,5,2,0:0:0:0:
40,101,19067,1,2,0:0:0:0:
108,53,19279,1,2,0:0:0:0:
108,53,19490,1,2,0:0:0:0:
180,93,19701,1,2,0:0:0:0:
180,93,19912,1,2,0:0:0:0:
248,45,20124,1,2,0:0:0:0:
248,45,20335,1,2,0:0:0:0:
320,85,20546,6,0,P|372:105|432:93,1,112.5,6|0,0:0|0:0,0:0:0:0:
440,81,20969,1,8,0:0:0:0:
484,153,21180,2,0,P|482:209|480:269,1,112.5,0|0,0:0|0:0,0:0:0:0:
420,321,21708,1,0,0:0:0:0:
420,321,21814,2,0,P|380:319|344:317,1,75,8|0,0:0|0:0,0:0:0:0:
276,269,22236,6,0,P|220:265|164:277,1,112.5,2|0,0:0|0:0,0:0:0:0:
152,289,22659,1,8,0:0:0:0:
92,344,22870,2,0,P|97:290|96:232,1,112.5,0|0,0:0|0:0,0:0:0:0:
64,157,23398,1,0,0:0:0:0:
64,157,23504,2,0,P|61:119|60:77,1,75,8|2,0:0|0:0,0:0:0:0:
13,15,23926,6,0,P|67:24|125:31,1,112.5,6|0,0:0|0:0,0:0:0:0:
145,23,24349,2,0,P|182:19|221:19,1,75,8|0,0:0|0:0,0:0:0:0:
294,55,24772,2,0,L|334:53,1,37.5,2|0,0:0|0:0,0:0:0:0:
404,15,25088,2,0,L|444:17,1,37.5,0|8,0:0|0:0,0:0:0:0:
511,61,25405,1,0,0:0:0:0:
472,133,25617,6,0,P|466:172|463:210,1,75,2|0,0:0|0:0,0:0:0:0:
492,285,26039,1,8,0:0:0:0:
420,325,26250,2,0,P|381:328|340:329,1,75,0|2,0:0|0:0,0:0:0:0:
283,274,26673,2,0,L|272:220,2,37.5,0|2|8,0:0|0:0|0:0,0:0:0:0:
237,342,27095,1,0,0:0:0:0:
163,304,27307,6,0,P|156:229|152:154,1,150,6|2,0:0|0:0,0:0:0:0:
216,102,27941,1,0,0:0:0:0:
284,149,28152,2,0,P|320:153|360:149,1,75,2|0,0:0|0:0,0:0:0:0:
374,140,28469,2,0,P|423:110|480:118,1,112.5,0|0,0:0|0:0,0:0:0:0:
439,190,28997,6,0,P|447:264|454:349,1,150,2|2,0:0|0:0,0:0:0:0:
384,384,29631,1,0,0:0:0:0:
316,340,29842,2,0,P|264:320|208:308,1,112.5,2|0,0:0|0:0,0:0:0:0:
188,312,30265,1,2,0:0:0:0:
148,240,30476,1,2,0:0:0:0:
180,168,30687,6,0,P|248:152|308:208,1,150,2|2,0:0|0:0,0:0:0:0:
336,280,31321,1,0,0:0:0:0:
336,280,31532,2,0,L|346:130,1,150,2|2,0:0|0:0,0:0:0:0:
304,60,32166,1,0,0:0:0:0:
388,60,32377,6,0,P|444:56|515:49,2,112.5,2|0|0,0:0|0:0|0:0,0:0:0:0:
304,60,33222,2,0,P|265:57|224:56,1,75,2|0,0:0|0:0,0:0:0:0:
220,60,33539,1,2,0:0:0:0:
212,64,33645,1,2,0:0:0:0:
144,112,33856,1,2,0:0:0:0:
108,188,34067,6,0,B|124:224|109:262|109:262|144:276|156:320,1,150,6|2,0:0|0:0,0:0:0:0:
216,372,34701,1,0,0:0:0:0:
284,328,34912,2,0,P|316:320|360:324,1,75,2|0,0:0|0:0,0:0:0:0:
368,332,35229,2,0,B|364:275|364:275|368:220,1,112.5,0|0,0:0|0:0,0:0:0:0:
424,156,35757,6,0,P|364:196|296:172,1,150,2|2,0:0|0:0,0:0:0:0:
353,112,36391,1,0,0:0:0:0:
288,164,36603,2,0,B|257:158|221:160|221:160|193:155|169:148,1,112.5,2|0,0:0|0:0,0:0:0:0:
164,138,37025,1,2,0:0:0:0:
128,213,37236,1,2,0:0:0:0:
164,288,37448,6,0,B|204:300|220:336|220:336|256:328|296:324,1,150,6|2,0:0|0:0,0:0:0:0:
368,356,38081,1,0,0:0:0:0:
424,296,38293,2,0,B|436:256|416:224|416:224|396:196|408:152,1,150,6|2,0:0|0:0,0:0:0:0:
456,84,38926,1,0,0:0:0:0:
372,80,39138,6,0,L|296:76,1,75,6|0,0:0|0:0,0:0:0:0:
280,68,39455,2,0,L|168:76,1,112.5,0|0,0:0|0:0,0:0:0:0:
87,53,39983,2,0,P|92:108|100:192,1,112.5,2|2,0:0|0:0,0:0:0:0:
109,177,40405,1,0,0:0:0:0:
80,256,40617,1,2,0:0:0:0:
87,274,40722,1,2,0:0:0:0:
96,288,40828,6,0,P|136:324|228:304,1,150,6|0,0:0|0:0,0:0:0:0:
276,244,41462,1,0,0:0:0:0:
276,244,41567,2,0,P|328:236|388:248,1,112.5,0|0,0:0|0:0,0:0:0:0:
456,296,42095,1,2,0:0:0:0:
456,296,42307,1,0,0:0:0:0:
492,220,42518,6,0,L|484:68,1,150,2|2,0:0|0:0,0:0:0:0:
408,36,43152,1,0,0:0:0:0:
408,36,43257,2,0,B|364:32|364:32|336:36|336:36|296:32,1,112.5
216,24,43786,1,2,0:0:0:0:
216,24,43997,1,2,0:0:0:0:
184,100,44208,6,0,L|192:188,1,75,6|2,0:0|0:0,0:0:0:0:
240,240,44631,2,0,P|276:248|320:240,1,75,6|0,0:0|0:0,0:0:0:0:
328,228,44948,2,0,P|380:216|436:240,1,112.5,6|2,0:0|0:0,0:0:0:0:
464,312,45476,1,4,0:0:0:0:
464,312,45898,6,0,P|425:317|384:320,1,75,6|2,0:0|0:0,0:0:0:0:
308,304,46321,2,0,P|269:298|228:296,1,75,6|2,0:0|0:0,0:0:0:0:
220,304,46638,2,0,B|172:312|172:312|100:280,1,112.5,6|2,0:0|0:0,0:0:0:0:
76,212,47166,1,0,0:0:0:0:
76,212,47377,1,2,0:0:0:0:
116,140,47588,6,0,P|152:132|192:136,1,75,6|0,0:0|0:0,0:0:0:0:
236,204,48011,2,0,P|272:212|312:208,1,75,2|0,0:0|0:0,0:0:0:0:
320,200,48328,2,0,P|368:180|436:192,1,112.5,0|0,0:0|0:0,0:0:0:0:
472,256,48856,2,0,L|476:336,1,75,2|0,0:0|0:0,0:0:0:0:
508,184,49279,6,0,L|512:104,1,75,2|0,0:0|0:0,0:0:0:0:
468,40,49701,2,0,P|432:32|384:36,1,75,2|0,0:0|0:0,0:0:0:0:
380,48,50018,2,0,P|336:80|276:72,1,112.5,0|0,0:0|0:0,0:0:0:0:
208,32,50546,1,2,0:0:0:0:
208,32,50757,1,2,0:0:0:0:
204,116,50969,6,0,L|212:244,1,112.5,6|0,0:0|0:0,0:0:0:0:
216,240,51391,2,0,P|180:232|132:236,1,75,2|0,0:0|0:0,0:0:0:0:
76,280,51814,1,2,0:0:0:0:
76,280,52025,1,0,0:0:0:0:
132,340,52236,2,0,P|168:348|216:344,1,75,2|0,0:0|0:0,0:0:0:0:
276,300,52659,6,0,P|324:276|380:288,1,112.5,2|0,0:0|0:0,0:0:0:0:
388,300,53081,1,2,0:0:0:0:
456,348,53293,1,2,0:0:0:0:
464,268,53504,2,0,L|456:148,1,112.5,2|0,0:0|0:0,0:0:0:0:
456,140,53926,1,2,0:0:0:0:
390,91,54138,1,2,0:0:0:0:
316,124,54349,6,0,P|280:132|232:128,1,75,2|0,0:0|0:0,0:0:0:0:
228,120,54666,2,0,P|192:112|144:116,1,75,2|0,0:0|0:0,0:0:0:0:
136,124,54983,2,0,L|132:208,1,75,2|0,0:0|0:0,0:0:0:0:
140,216,55300,2,0,L|144:300,1,75,2|0,0:0|0:0,0:0:0:0:
152,308,55617,1,2,0:0:0:0:
116,384,55828,1,2,0:0:0:0:
228,356,56039,6,0,P|268:348|312:352,1,75,6|0,0:0|0:0,0:0:0:0:
316,364,56356,2,0,B|312:316|312:316|320:240,1,112.5,0|0,0:0|0:0,0:0:0:0:
380,196,56884,1,2,0:0:0:0:
336,128,57095,1,0,0:0:0:0:
336,128,57201,2,0,P|280:116|224:124,1,112.5,0|0,0:0|0:0,0:0:0:0:
188,196,57729,6,0,L|196:36,1,150,2|8,0:0|0:0,0:0:0:0:
112,60,58363,1,0,0:0:0:0:
112,60,58469,2,0,L|104:184,1,112.5,0|0,0:0|0:0,0:0:0:0:
80,252,58997,2,0,L|4:260,1,75,8|2,0:0|0:0,0:0:0:0:
160,232,59419,6,0,L|236:240,1,75,6|0,0:0|0:0,0:0:0:0:
318,222,59842,1,8,0:0:0:0:
318,222,60053,1,0,0:0:0:0:
258,162,60265,2,0,L|262:78,1,75,2|0,0:0|0:0,0:0:0:0:
318,222,60687,2,0,L|322:306,1,75,8|0,0:0|0:0,0:0:0:0:
258,162,61110,6,0,L|265:33,1,112.5,2|0,0:0|0:0,0:0:0:0:
276,36,61532,2,0,P|312:28|352:32,1,75,8|0,0:0|0:0,0:0:0:0:
213,102,61955,2,0,P|175:105|139:97,1,75,2|0,0:0|0:0,0:0:0:0:
124,93,62272,1,0,0:0:0:0:
109,90,62377,2,0,P|71:87|35:95,1,75,8|2,0:0|0:0,0:0:0:0:
80,160,62800,6,0,L|84:256,1,75,6|0,0:0|0:0,0:0:0:0:
144,292,63222,2,0,P|180:299|217:295,1,75,8|0,0:0|0:0,0:0:0:0:
264,228,63645,2,0,P|320:184|392:200,1,150,2|8,0:0|0:0,0:0:0:0:
420,280,64279,1,0,0:0:0:0:
338,261,64490,6,0,L|302:103,1,150,6|8,0:0|0:0,0:0:0:0:
320,32,65124,1,0,0:0:0:0:
244,60,65335,2,0,P|204:64|160:60,1,75,2|0,0:0|0:0,0:0:0:0:
152,56,65652,2,0,B|164:104|164:104|156:180,1,112.5,0|2,0:0|0:0,0:0:0:0:
100,228,66180,6,0,B|152:200|152:200|240:224,1,150,6|8,0:0|0:0,0:0:0:0:
316,180,66814,1,0,0:0:0:0:
312,264,67025,2,0,L|315:338,1,75,2|0,0:0|0:0,0:0:0:0:
316,180,67448,2,0,L|312:105,1,75,8|0,0:0|0:0,0:0:0:0:
320,24,67870,5,2,0:0:0:0:
320,24,68081,1,2,0:0:0:0:
244,60,68293,1,10,0:0:0:0:
244,60,68504,1,2,0:0:0:0:
164,40,68715,2,0,L|124:44,3,37.5,2|0|2|0,0:0|0:0|0:0|0:0,0:0:0:0:
112,56,69138,2,0,L|86:87,3,37.5,10|0|2|0,0:0|0:0|0:0|0:0,0:0:0:0:
80,108,69560,6,0,L|84:188,1,75,4|0,0:0|0:0,0:0:0:0:
68,204,69877,2,0,B|112:192|112:192|184:204,1,112.5,0|0,0:0|0:0,0:0:0:0:
236,260,70405,1,2,0:0:0:0:
260,180,70617,1,0,0:0:0:0:
260,180,70722,2,0,L|268:68,1,112.5,0|0,0:0|0:0,0:0:0:0:
340,24,71250,6,0,L|188:40,1,150,2|8,0:0|0:0,0:0:0:0:
136,100,71884,1,0,0:0:0:0:
136,100,71990,2,0,B|128:144|128:144|140:220,1,112.5,0|0,0:0|0:0,0:0:0:0:
192,272,72518,1,8,0:0:0:0:
192,272,72729,1,2,0:0:0:0:
260,224,72941,6,0,P|316:176|388:204,1,150,4|8,0:0|0:0,0:0:0:0:
435,262,73574,1,0,0:0:0:0:
435,262,73680,2,0,L|439:150,1,112.5,0|0,0:0|0:0,0:0:0:0:
472,76,74208,1,8,0:0:0:0:
472,76,74419,1,0,0:0:0:0:
388,84,74631,6,0,P|340:88|308:84,1,75,2|0,0:0|0:0,0:0:0:0:
306,81,74948,1,0,0:0:0:0:
298,77,75053,1,8,0:0:0:0:
224,40,75265,1,0,0:0:0:0:
180,108,75476,2,0,B|181:136|172:172|172:172|180:228,2,112.5,2|2|2,0:0|0:0|0:0,0:0:0:0:
224,40,76321,6,0,P|176:92|96:64,1,150,6|8,0:0|0:0,0:0:0:0:
40,24,76955,1,0,0:0:0:0:
40,24,77060,2,0,B|45:78|45:78|44:156,1,112.5,0|0,0:0|0:0,0:0:0:0:
28,216,77588,1,8,0:0:0:0:
28,216,77800,1,0,0:0:0:0:
92,268,78011,6,0,B|132:284|168:264|168:264|220:320,1,150,6|8,0:0|0:0,0:0:0:0:
292,352,78645,1,0,0:0:0:0:
292,352,78750,2,0,L|412:344,1,112.5,0|0,0:0|0:0,0:0:0:0:
468,292,79279,2,0,L|464:208,1,75,8|2,0:0|0:0,0:0:0:0:
456,136,79701,5,4,0:0:0:0:
456,136,80546,2,0,P|420:144|376:136,1,75,4|0,0:0|0:0,0:0:0:0:
372,132,80863,1,2,0:0:0:0:
360,128,80969,2,0,P|324:120|280:128,1,75,0|2,0:0|0:0,0:0:0:0:
256,204,81391,6,0,L|248:40,1,150,6|0,0:0|0:0,0:0:0:0:
168,32,82025,1,0,0:0:0:0:
112,92,82236,2,0,L|108:168,1,75,2|0,0:0|0:0,0:0:0:0:
96,176,82553,2,0,L|104:288,1,112.5,0|2,0:0|0:0,0:0:0:0:
168,340,83081,6,0,L|216:344,3,37.5,2|0|2|0,0:0|0:0|0:0|0:0,0:0:0:0:
228,336,83504,2,0,L|276:332,3,37.5,2|0|2|0,0:0|0:0|0:0|0:0,0:0:0:0:
284,320,83926,2,0,L|332:324,3,37.5,2|0|2|0,0:0|0:0|0:0|0:0,0:0:0:0:
344,332,84349,2,0,L|392:328,3,37.5,2|0|2|0,0:0|0:0|0:0|0:0,0:0:0:0:
404,320,84772,1,4,0:0:0:0:
256,192,84877,12,2,89525,0:0:0:0:
