osu file format v14

[General]
AudioFilename: Shana will believe.mp3
AudioLeadIn: 0
PreviewTime: 3117
Countdown: 0
SampleSet: Soft
StackLeniency: 0.7
Mode: 0
LetterboxInBreaks: 0
WidescreenStoryboard: 0

[Editor]
DistanceSpacing: 1.1
BeatDivisor: 4
GridSize: 4
TimelineZoom: 1

[Metadata]
Title:I'll believe (TV size)
TitleUnicode:I'll believe(TVサイズ)
Artist:ALTIMA
ArtistUnicode:ALTIMA
Creator:Nyu-chan
Version:Light Insane
Source:灼眼のシャナⅢ-FINAL-
Tags:shakugan no shana III ending burning-eyed gaia pkhg nya -nya- p_a_n inyuschan
BeatmapID:784256
BeatmapSetID:355195

[Difficulty]
HPDrainRate:6
CircleSize:4
OverallDifficulty:7
ApproachRate:8.5
SliderMultiplier:1.7
SliderTickRate:2

[Events]
//Background and Video events
0,0,"BG.jpg",0,0
Video,-600,"Moe Shana.avi"
//Break Periods
//Storyboard Layer 0 (Background)
//Storyboard Layer 1 (Fail)
//Storyboard Layer 2 (Pass)
//Storyboard Layer 3 (Foreground)
//Storyboard Sound Samples

[TimingPoints]
265,422.535211267606,4,2,1,70,1,0
2166,-117.647058823529,4,2,0,60,0,0
2800,-105.263157894737,4,2,0,60,0,0
3222,-100,4,2,0,70,0,0
3645,-95.2380952380952,4,2,1,80,0,0
20546,-100,4,2,1,60,0,0
56039,-95.2380952380952,4,2,1,80,0,0
79701,-133.333333333333,4,2,1,70,0,0
81180,-95.2380952380952,4,2,1,70,0,0
84877,-95.2380952380952,4,2,0,60,0,0

[Colours]
Combo1 : 235,232,165
Combo2 : 247,168,168
Combo3 : 255,201,147

[HitObjects]
256,120,265,5,4,0:0:0:0:
312,192,476,1,0,0:0:0:0:
256,268,687,2,0,L|172:328,1,85,2|0,0:0|0:0,0:0:0:0:
312,192,1110,2,0,P|376:192|432:248,1,127.5,0|0,0:0|0:0,0:0:0:0:
452,192,1532,1,2,0:0:0:0:
468,104,1743,1,0,0:0:0:0:
468,104,2166,6,0,L|384:64,1,72.2500013780594,0|2,0:0|0:0,0:0:0:0:
328,44,2588,1,0,0:0:0:0:
256,96,2800,2,0,L|152:44,1,80.7499978437424,2|0,0:0|0:0,0:0:0:0:
140,144,3222,2,0,L|224:188,1,85,2|0,0:0|0:0,0:0:0:0:
300,232,3645,5,4,0:0:0:0:
256,320,3856,1,0,0:0:0:0:
256,320,3962,1,0,0:0:0:0:
256,320,4067,1,8,0:0:0:0:
172,272,4279,1,0,0:0:0:0:
300,232,4490,2,0,P|344:232|420:296,1,133.874995914459,2|0,0:0|0:0,0:0:0:0:
413,283,4912,2,0,L|476:212,1,89.2499972763062,8|0,0:0|0:0,0:0:0:0:
484,120,5335,6,0,P|412:120|360:72,1,133.874995914459,2|0,0:0|0:0,0:0:0:0:
336,44,5757,1,8,0:0:0:0:
256,100,5969,1,0,0:0:0:0:
256,100,6074,1,0,0:0:0:0:
256,100,6180,1,2,0:0:0:0:
176,44,6391,1,0,0:0:0:0:
332,164,6603,1,8,0:0:0:0:
180,164,6814,1,0,0:0:0:0:
256,100,7025,6,0,P|304:68|404:100,1,133.874995914459,4|0,0:0|0:0,0:0:0:0:
416,108,7448,1,8,0:0:0:0:
468,192,7659,1,0,0:0:0:0:
468,192,7765,1,0,0:0:0:0:
468,192,7870,1,2,0:0:0:0:
416,276,8081,2,0,P|372:276|328:312,1,89.2499972763062,0|8,0:0|0:0,0:0:0:0:
256,360,8504,1,0,0:0:0:0:
176,300,8715,6,0,P|139:275|96:276,1,89.2499972763062,4|0,0:0|0:0,0:0:0:0:
56,244,9032,1,0,0:0:0:0:
56,244,9138,2,0,L|100:160,1,89.2499972763062,8|0,0:0|0:0,0:0:0:0:
156,88,9560,2,0,P|204:116|280:116,1,133.874995914459,2|0,0:0|0:0,0:0:0:0:
328,128,9983,1,8,0:0:0:0:
404,192,10194,1,0,0:0:0:0:
336,264,10405,6,0,B|256:304|256:304|176:264,1,178.499994552612,4|8,0:0|0:0,0:0:0:0:
108,192,11039,2,0,L|72:160,2,44.6249986381531,0|0|2,0:0|0:0|0:0,0:0:0:0:
168,116,11462,1,0,0:0:0:0:
168,116,11567,1,0,0:0:0:0:
168,116,11673,2,0,L|96:52,1,89.2499972763062,8|0,0:0|0:0,0:0:0:0:
108,192,12095,6,0,L|174:251,1,89.2499972763062,4|0,0:0|0:0,0:0:0:0:
256,308,12518,1,8,0:0:0:0:
337,251,12729,1,0,0:0:0:0:
337,251,12835,1,0,0:0:0:0:
337,251,12941,2,0,L|404:192,1,89.2499972763062,2|0,0:0|0:0,0:0:0:0:
468,116,13363,1,8,0:0:0:0:
408,40,13574,1,0,0:0:0:0:
336,108,13786,6,0,B|256:68|256:68|176:108,1,178.499994552612,4|8,0:0|0:0,0:0:0:0:
212,200,14419,2,0,P|256:212|300:200,1,89.2499972763062,0|2,0:0|0:0,0:0:0:0:
376,260,14842,1,0,0:0:0:0:
256,344,15053,1,8,0:0:0:0:
136,260,15265,1,0,0:0:0:0:
256,176,15476,6,0,P|292:144|376:144,1,133.874995914459,2|0,0:0|0:0,0:0:0:0:
412,172,15898,1,8,0:0:0:0:
376,260,16110,1,0,0:0:0:0:
448,80,16321,5,2,0:0:0:0:
312,28,16638,1,2,0:0:0:0:
256,164,16955,1,0,0:0:0:0:
256,164,17166,6,0,L|208:240,1,89.2499972763062,4|0,0:0|0:0,0:0:0:0:
292,292,17588,2,0,L|340:216,1,89.2499972763062,8|0,0:0|0:0,0:0:0:0:
232,152,18011,6,0,L|184:228,1,89.2499972763062,2|0,0:0|0:0,0:0:0:0:
316,316,18434,2,0,L|364:240,1,89.2499972763062,8|0,0:0|0:0,0:0:0:0:
384,144,18856,6,0,P|384:112|376:96,3,44.6249986381531,2|0|2|0,0:0|0:0|0:0|0:0,0:0:0:0:
300,160,19279,2,0,P|300:128|308:112,3,44.6249986381531,2|0|2|0,0:0|0:0|0:0|0:0,0:0:0:0:
212,156,19701,2,0,P|212:188|204:204,3,44.6249986381531,2|0|2|0,0:0|0:0|0:0|0:0,0:0:0:0:
128,144,20124,2,0,P|128:112|136:96,3,44.6249986381531,2|0|2|0,0:0|0:0|0:0|0:0,0:0:0:0:
204,40,20546,6,0,L|344:24,2,127.5,4|0|0,0:0|0:0|0:0,0:0:0:0:
128,144,21391,1,0,0:0:0:0:
128,144,21497,2,0,P|100:200|128:256,1,127.5,0|8,0:0|0:0,0:0:0:0:
256,308,22025,1,0,0:0:0:0:
385,254,22236,6,0,P|411:198|384:144,1,127.5,0|0,0:0|0:0,0:0:0:0:
344,120,22659,1,8,0:0:0:0:
256,156,22870,2,0,L|112:144,1,127.5,0|0,0:0|0:0,0:0:0:0:
80,140,23293,1,0,0:0:0:0:
136,64,23504,1,8,0:0:0:0:
224,36,23715,1,0,0:0:0:0:
224,36,23821,1,0,0:0:0:0:
224,36,23926,6,0,B|280:36|280:36|316:36|352:68,2,127.5,4|0|0,0:0|0:0|0:0,0:0:0:0:
136,64,24772,1,0,0:0:0:0:
136,64,24877,2,0,P|108:120|136:176,1,127.5,0|8,0:0|0:0,0:0:0:0:
256,244,25405,1,0,0:0:0:0:
377,174,25617,6,0,P|403:118|376:64,1,127.5,0|0,0:0|0:0,0:0:0:0:
375,63,26039,2,0,L|460:63,1,85,8|0,0:0|0:0,0:0:0:0:
300,120,26462,1,0,0:0:0:0:
300,120,26567,1,0,0:0:0:0:
300,120,26673,1,0,0:0:0:0:
300,120,26779,1,0,0:0:0:0:
300,120,26884,2,0,L|215:119,1,85,8|0,0:0|0:0,0:0:0:0:
156,192,27307,6,0,P|117:263|157:334,1,170,4|0,0:0|0:0,0:0:0:0:
305,264,27941,2,0,L|220:264,1,85,0|2,0:0|0:0,0:0:0:0:
92,120,28363,1,0,0:0:0:0:
92,120,28469,1,0,0:0:0:0:
92,120,28574,1,0,0:0:0:0:
156,192,28786,1,0,0:0:0:0:
156,192,28891,1,0,0:0:0:0:
156,192,28997,6,0,P|195:120|157:49,1,170,2|0,0:0|0:0,0:0:0:0:
92,120,29631,1,0,0:0:0:0:
32,192,29842,1,2,0:0:0:0:
92,264,30053,1,0,0:0:0:0:
92,264,30159,1,0,0:0:0:0:
92,264,30265,1,2,0:0:0:0:
164,324,30476,1,0,0:0:0:0:
164,324,30581,1,0,0:0:0:0:
164,324,30687,6,0,P|248:324|328:264,1,170,2|0,0:0|0:0,0:0:0:0:
356,192,31321,1,0,0:0:0:0:
317,106,31532,2,0,P|247:59|164:60,1,170,2|0,0:0|0:0,0:0:0:0:
96,124,32166,1,0,0:0:0:0:
32,192,32377,6,0,P|4:248|32:304,2,127.5,2|0|0,0:0|0:0|0:0,0:0:0:0:
193,244,33222,2,0,L|108:244,1,85,2|0,0:0|0:0,0:0:0:0:
108,244,33539,1,0,0:0:0:0:
108,244,33645,1,2,0:0:0:0:
32,192,33856,1,0,0:0:0:0:
108,140,34067,6,0,B|192:140|192:140|264:80,1,170,4|0,0:0|0:0,0:0:0:0:
340,128,34701,1,0,0:0:0:0:
408,192,34912,1,2,0:0:0:0:
340,256,35124,1,0,0:0:0:0:
340,256,35229,1,0,0:0:0:0:
340,256,35335,1,0,0:0:0:0:
256,292,35546,1,0,0:0:0:0:
172,252,35757,6,0,P|148:172|172:92,1,170,2|0,0:0|0:0,0:0:0:0:
256,52,36391,2,0,L|356:52,1,85,0|2,0:0|0:0,0:0:0:0:
172,91,36814,1,0,0:0:0:0:
172,91,36919,1,0,0:0:0:0:
172,91,37025,2,0,L|87:91,1,85,2|0,0:0|0:0,0:0:0:0:
40,172,37448,5,4,0:0:0:0:
180,296,37870,1,0,0:0:0:0:
144,112,38293,1,4,0:0:0:0:
64,280,38715,1,0,0:0:0:0:
228,192,39138,6,0,P|296:192|368:252,1,127.5,4|0,0:0|0:0,0:0:0:0:
376,256,39560,1,0,0:0:0:0:
444,192,39772,1,0,0:0:0:0:
376,128,39983,1,2,0:0:0:0:
300,76,40194,1,0,0:0:0:0:
272,68,40300,1,0,0:0:0:0:
244,60,40405,1,0,0:0:0:0:
164,56,40617,1,0,0:0:0:0:
164,56,40722,1,0,0:0:0:0:
164,56,40828,6,0,P|112:56|52:160,1,170,4|2,0:0|0:0,0:0:0:0:
191,222,41462,1,0,0:0:0:0:
191,222,41567,1,0,0:0:0:0:
191,222,41673,2,0,L|144:152,1,85,0|0,0:0|0:0,0:0:0:0:
256,56,42095,2,0,L|303:126,1,85,2|0,0:0|0:0,0:0:0:0:
312,304,42518,6,0,P|256:332|200:304,1,127.5,2|0,0:0|0:0,0:0:0:0:
201,305,42941,2,0,L|188:212,1,85,2|0,0:0|0:0,0:0:0:0:
322,221,43363,2,0,L|310:305,1,85,0|0,0:0|0:0,0:0:0:0:
256,156,43786,1,2,0:0:0:0:
184,96,43997,1,0,0:0:0:0:
328,96,44208,6,0,P|372:96|420:128,1,85,4|0,0:0|0:0,0:0:0:0:
322,221,44631,2,0,L|186:289,2,127.5,4|4|0,0:0|0:0|0:0,0:0:0:0:
407,114,45476,1,4,0:0:0:0:
407,114,45898,6,0,L|328:76,1,85,4|0,0:0|0:0,0:0:0:0:
256,136,46321,1,4,0:0:0:0:
181,77,46532,1,0,0:0:0:0:
181,77,46638,2,0,L|105:114,1,85,0|0,0:0|0:0,0:0:0:0:
64,132,46955,1,2,0:0:0:0:
24,216,47166,1,2,0:0:0:0:
60,304,47377,1,0,0:0:0:0:
140,352,47588,6,0,P|200:352|252:248,1,170,4|2,0:0|0:0,0:0:0:0:
132,227,48222,2,0,L|160:260,2,42.5,0|0|0,0:0|0:0|0:0,0:0:0:0:
152,136,48645,2,0,B|176:100|176:100|176:52,1,85,0|2,0:0|0:0,0:0:0:0:
256,12,49067,1,0,0:0:0:0:
336,58,49279,6,0,B|336:100|336:100|360:136,1,85,2|0,0:0|0:0,0:0:0:0:
432,192,49701,1,2,0:0:0:0:
360,248,49912,1,0,0:0:0:0:
360,248,50018,2,0,L|248:328,1,127.5,0|0,0:0|0:0,0:0:0:0:
180,268,50546,1,2,0:0:0:0:
124,192,50757,1,2,0:0:0:0:
180,116,50969,6,0,P|240:116|300:76,1,127.5,4|0,0:0|0:0,0:0:0:0:
340,96,51391,1,2,0:0:0:0:
428,128,51603,2,0,B|444:176|480:192|480:192|444:208|428:256,1,170,0|0,0:0|0:0,0:0:0:0:
340,288,52236,1,2,0:0:0:0:
256,192,52448,1,0,0:0:0:0:
340,96,52659,5,2,0:0:0:0:
256,192,52765,12,2,53926,0:0:0:0:
256,64,54349,5,2,0:0:0:0:
320,192,54666,1,0,0:0:0:0:
176,128,54983,1,2,0:0:0:0:
340,100,55300,1,0,0:0:0:0:
228,208,55617,1,2,0:0:0:0:
228,208,55722,1,0,0:0:0:0:
228,208,55828,1,2,0:0:0:0:
228,208,55934,1,0,0:0:0:0:
228,208,56039,6,0,L|156:288,1,89.2499972763062,4|0,0:0|0:0,0:0:0:0:
152,292,56356,1,0,0:0:0:0:
152,292,56462,2,0,P|96:292|60:272,1,89.2499972763062,8|0,0:0|0:0,0:0:0:0:
20,192,56884,1,2,0:0:0:0:
67,106,57095,1,0,0:0:0:0:
67,106,57201,1,0,0:0:0:0:
67,106,57307,2,0,P|107:89|152:92,1,89.2499972763062,8|0,0:0|0:0,0:0:0:0:
260,192,57729,6,0,P|324:192|376:132,1,133.874995914459,2|0,0:0|0:0,0:0:0:0:
376,96,58152,1,8,0:0:0:0:
300,36,58363,1,0,0:0:0:0:
300,36,58469,1,0,0:0:0:0:
300,36,58574,2,0,P|256:24|212:36,1,89.2499972763062,2|0,0:0|0:0,0:0:0:0:
376,96,58997,2,0,P|420:108|464:96,1,89.2499972763062,8|0,0:0|0:0,0:0:0:0:
484,192,59419,6,0,L|396:312,1,133.874995914459,4|0,0:0|0:0,0:0:0:0:
372,336,59842,1,8,0:0:0:0:
300,268,60053,2,0,P|256:256|212:268,1,89.2499972763062,0|2,0:0|0:0,0:0:0:0:
172,356,60476,1,0,0:0:0:0:
172,356,60581,1,0,0:0:0:0:
172,356,60687,2,0,P|216:368|260:356,1,89.2499972763062,8|0,0:0|0:0,0:0:0:0:
372,336,61110,6,0,P|388:272|372:208,1,133.874995914459,2|0,0:0|0:0,0:0:0:0:
340,172,61532,1,8,0:0:0:0:
256,120,61743,1,0,0:0:0:0:
256,120,61849,1,0,0:0:0:0:
256,120,61955,1,2,0:0:0:0:
172,172,62166,2,0,L|120:196,2,44.6249986381531,0|0|8,0:0|0:0|0:0,0:0:0:0:
340,172,62588,2,0,L|392:148,1,44.6249986381531,0|0,0:0|0:0,0:0:0:0:
436,176,62800,6,0,P|452:240|436:304,1,133.874995914459,4|0,0:0|0:0,0:0:0:0:
408,348,63222,2,0,P|352:348|316:316,1,89.2499972763062,8|0,0:0|0:0,0:0:0:0:
104,348,63645,2,0,P|160:348|196:316,1,89.2499972763062,2|0,0:0|0:0,0:0:0:0:
256,264,64067,1,8,0:0:0:0:
312,184,64279,1,0,0:0:0:0:
312,184,64384,1,0,0:0:0:0:
312,184,64490,6,0,B|264:132|264:132|192:132,1,133.874995914459,4|0,0:0|0:0,0:0:0:0:
200,132,64912,2,0,P|188:88|200:44,1,89.2499972763062,8|0,0:0|0:0,0:0:0:0:
376,136,65335,2,0,P|386:178|374:221,1,89.2499972763062,2|0,0:0|0:0,0:0:0:0:
374,221,65652,1,0,0:0:0:0:
374,221,65757,1,8,0:0:0:0:
256,308,65969,1,0,0:0:0:0:
256,308,66074,1,0,0:0:0:0:
256,308,66180,6,0,B|184:308|184:308|144:308|128:356,1,133.874995914459,4|0,0:0|0:0,0:0:0:0:
134,339,66603,2,0,L|68:264,1,89.2499972763062,8|0,0:0|0:0,0:0:0:0:
20,192,67025,1,2,0:0:0:0:
75,111,67236,1,0,0:0:0:0:
75,111,67342,1,0,0:0:0:0:
75,111,67448,2,0,L|134:44,1,89.2499972763062,8|0,0:0|0:0,0:0:0:0:
272,16,67870,5,2,0:0:0:0:
164,176,68081,1,2,0:0:0:0:
133,44,68293,1,10,0:0:0:0:
372,104,68504,1,2,0:0:0:0:
133,44,68715,1,2,0:0:0:0:
133,44,68821,1,0,0:0:0:0:
292,212,69032,5,0,0:0:0:0:
296,228,69138,1,10,0:0:0:0:
296,244,69243,1,0,0:0:0:0:
292,260,69349,1,2,0:0:0:0:
280,272,69455,1,0,0:0:0:0:
268,284,69560,6,0,L|192:340,1,89.2499972763062,4|0,0:0|0:0,0:0:0:0:
168,344,69877,1,0,0:0:0:0:
168,344,69983,2,0,P|112:344|76:320,1,89.2499972763062,8|0,0:0|0:0,0:0:0:0:
156,216,70405,1,2,0:0:0:0:
256,136,70617,1,0,0:0:0:0:
256,136,70722,1,0,0:0:0:0:
256,136,70828,1,8,0:0:0:0:
356,216,71039,1,0,0:0:0:0:
356,216,71250,6,0,P|432:216|460:120,1,178.499994552612,2|8,0:0|0:0,0:0:0:0:
388,68,71884,1,0,0:0:0:0:
388,68,71990,1,0,0:0:0:0:
388,68,72095,2,0,P|348:68|296:44,1,89.2499972763062,2|0,0:0|0:0,0:0:0:0:
208,49,72518,2,0,P|168:67|124:68,1,89.2499972763062,8|0,0:0|0:0,0:0:0:0:
47,130,72941,6,0,P|72:210|156:216,1,178.499994552612,4|8,0:0|0:0,0:0:0:0:
297,137,73574,1,0,0:0:0:0:
297,137,73680,1,0,0:0:0:0:
297,137,73786,2,0,P|254:125|212:136,1,89.2499972763062,2|0,0:0|0:0,0:0:0:0:
356,216,74208,2,0,P|398:226|441:214,1,89.2499972763062,8|0,0:0|0:0,0:0:0:0:
480,124,74631,5,2,0:0:0:0:
448,324,74842,2,0,L|456:372,2,44.6249986381531,0|0|8,0:0|0:0|0:0,0:0:0:0:
396,144,75265,1,0,0:0:0:0:
292,272,75476,5,2,0:0:0:0:
236,96,75793,1,0,0:0:0:0:
128,236,76110,1,0,0:0:0:0:
128,236,76321,6,0,P|128:280|256:308,1,178.499994552612,4|8,0:0|0:0,0:0:0:0:
356,216,76955,1,0,0:0:0:0:
356,216,77060,1,0,0:0:0:0:
356,216,77166,2,0,L|260:216,1,89.2499972763062,2|0,0:0|0:0,0:0:0:0:
212,132,77588,2,0,L|301:132,1,89.2499972763062,8|0,0:0|0:0,0:0:0:0:
400,292,78011,6,0,P|352:348|252:348,1,178.499994552612,4|8,0:0|0:0,0:0:0:0:
164,304,78645,1,0,0:0:0:0:
164,304,78750,1,0,0:0:0:0:
164,304,78856,2,0,L|128:216,1,89.2499972763062,2|0,0:0|0:0,0:0:0:0:
381,221,79279,2,0,L|348:304,1,89.2499972763062,8|0,0:0|0:0,0:0:0:0:
256,268,79701,6,0,L|256:68,2,191.250007295609,4|2|0,0:0|0:0|0:0,0:0:0:0:
312,348,81180,1,2,0:0:0:0:
200,348,81391,5,4,0:0:0:0:
80,192,81814,1,2,0:0:0:0:
200,36,82236,2,0,P|256:36|320:96,2,133.874995914459,2|0|2,0:0|0:0|0:0,0:0:0:0:
228,132,83081,5,2,0:0:0:0:
244,164,83187,1,0,0:0:0:0:
260,196,83293,1,2,0:0:0:0:
276,228,83398,1,0,0:0:0:0:
292,260,83504,2,0,L|316:312,3,44.6249986381531,2|0|2|0,0:0|0:0|0:0|0:0,0:0:0:0:
392,260,83926,2,0,L|373:219,3,44.6249986381531,2|0|2|0,0:0|0:0|0:0|0:0,0:0:0:0:
464,192,84349,2,0,L|482:232,3,44.6249986381531,2|0|2|0,0:0|0:0|0:0|0:0,0:0:0:0:
468,328,84772,5,4,0:0:0:0:
256,192,84877,12,2,89525,0:0:0:0:
