osu file format v14

[General]
AudioFilename: audio.mp3
AudioLeadIn: 0
PreviewTime: 62583
Countdown: 0
SampleSet: Soft
StackLeniency: 0.7
Mode: 3
LetterboxInBreaks: 0
SpecialStyle: 0
WidescreenStoryboard: 1

[Editor]
DistanceSpacing: 1.2
BeatDivisor: 4
GridSize: 4
TimelineZoom: 1.2

[Metadata]
Title:Burst The Gravity (TV Size)
TitleUnicode:Burst The Gravity (TV Size)
Artist:ALTIMA
ArtistUnicode:ALTIMA
Creator:Syadow-
Version:Amii's Hard
Source:アクセル・ワールド
Tags:opening op 2 2nd accel world amiichii SAT fripSide 黒崎真音 Kurosaki Maon Motsu ゲラッパー Gerapper 八木沼悟志 Yaginuma Satoshi 1000321905 黒雪姫 Kuroyukihime jpop j-pop anime Japanese pop 3rd CD シングル single 1000321904
BeatmapID:3501422
BeatmapSetID:1712803

[Difficulty]
HPDrainRate:8
CircleSize:4
OverallDifficulty:8
ApproachRate:5
SliderMultiplier:1.4
SliderTickRate:1

[Events]
//Background and Video events
0,0,"kuro.jpg",0,0
Video,0,"burst the gravity.mp4"
//Break Periods
//Storyboard Layer 0 (Background)
//Storyboard Layer 1 (Fail)
//Storyboard Layer 2 (Pass)
//Storyboard Layer 3 (Foreground)
//Storyboard Layer 4 (Overlay)
//Storyboard Sound Samples

[TimingPoints]
962,405.405405405405,4,2,1,70,1,0
62583,-100,4,2,1,70,0,1
85286,-100,4,2,1,70,0,0

[HitObjects]
64,192,962,5,0,0:0:0:0:
448,192,962,128,0,1367:0:0:0:0:
192,192,1164,1,0,0:0:0:0:
320,192,1367,1,0,0:0:0:0:
448,192,1570,1,0,0:0:0:0:
320,192,1671,1,0,0:0:0:0:
192,192,1772,1,0,0:0:0:0:
64,192,1975,1,0,0:0:0:0:
320,192,2178,1,0,0:0:0:0:
192,192,2380,1,0,0:0:0:0:
64,192,2583,128,0,2989:0:0:0:0:
448,192,2583,1,0,0:0:0:0:
320,192,2786,1,0,0:0:0:0:
192,192,2989,1,0,0:0:0:0:
320,192,3191,1,0,0:0:0:0:
192,192,3293,1,0,0:0:0:0:
64,192,3394,1,0,0:0:0:0:
192,192,3597,1,0,0:0:0:0:
320,192,3799,1,0,0:0:0:0:
448,192,4002,1,0,0:0:0:0:
192,192,4205,1,0,0:0:0:0:
320,192,4205,128,0,4610:0:0:0:0:
64,192,4407,1,0,0:0:0:0:
192,192,4610,128,0,5016:0:0:0:0:
448,192,4610,1,0,0:0:0:0:
320,192,4813,1,0,0:0:0:0:
64,192,5016,1,0,0:0:0:0:
448,192,5016,128,0,5421:0:0:0:0:
192,192,5218,1,0,0:0:0:0:
64,192,5421,128,0,5826:0:0:0:0:
320,192,5421,1,0,0:0:0:0:
192,192,5624,1,0,0:0:0:0:
320,192,5826,1,0,0:0:0:0:
448,192,5826,128,0,6434:0:0:0:0:
192,192,6029,1,0,0:0:0:0:
64,192,6232,1,0,0:0:0:0:
320,192,6434,1,0,0:0:0:0:
192,192,6536,1,0,0:0:0:0:
64,192,6637,128,0,7448:0:0:0:0:
448,192,6637,1,0,0:0:0:0:
320,192,6840,128,0,7043:0:0:0:0:
192,192,7043,128,0,7245:0:0:0:0:
320,192,7245,128,0,7448:0:0:0:0:
192,192,7448,1,0,0:0:0:0:
448,192,7448,128,0,8056:0:0:0:0:
320,192,7651,1,0,0:0:0:0:
64,192,7853,1,0,0:0:0:0:
320,192,8056,1,0,0:0:0:0:
192,192,8157,1,0,0:0:0:0:
64,192,8259,128,0,9070:0:0:0:0:
448,192,8259,1,0,0:0:0:0:
320,192,8461,1,0,0:0:0:0:
192,192,8664,1,0,0:0:0:0:
320,192,8867,1,0,0:0:0:0:
192,192,9070,1,0,0:0:0:0:
448,192,9070,128,0,9475:0:0:0:0:
320,192,9272,1,0,0:0:0:0:
64,192,9475,1,0,0:0:0:0:
192,192,9475,128,0,9880:0:0:0:0:
448,192,9678,1,0,0:0:0:0:
64,192,9880,128,0,10691:0:0:0:0:
320,192,9880,1,0,0:0:0:0:
192,192,10083,1,0,0:0:0:0:
320,192,10286,128,0,10489:0:0:0:0:
192,192,10489,128,0,10691:0:0:0:0:
320,192,10691,1,0,0:0:0:0:
448,192,10691,128,0,11502:0:0:0:0:
64,192,10894,1,0,0:0:0:0:
192,192,11097,1,0,0:0:0:0:
320,192,11299,1,0,0:0:0:0:
64,192,11502,1,0,0:0:0:0:
192,192,11502,128,0,11907:0:0:0:0:
320,192,11705,1,0,0:0:0:0:
64,192,11907,128,0,12313:0:0:0:0:
448,192,11907,1,0,0:0:0:0:
192,192,12110,1,0,0:0:0:0:
320,192,12313,128,0,13529:0:0:0:0:
448,192,12313,1,0,0:0:0:0:
192,192,12516,1,0,0:0:0:0:
64,192,12718,1,0,0:0:0:0:
448,192,12921,1,0,0:0:0:0:
192,192,13124,1,0,0:0:0:0:
64,192,13326,1,0,0:0:0:0:
448,192,13529,128,0,13934:0:0:0:0:
192,192,13732,1,0,0:0:0:0:
64,192,13934,1,0,0:0:0:0:
192,192,14036,1,0,0:0:0:0:
320,192,14137,1,0,0:0:0:0:
448,192,14239,1,0,0:0:0:0:
320,192,14340,1,0,0:0:0:0:
192,192,14441,1,0,0:0:0:0:
64,192,14543,1,0,0:0:0:0:
192,192,14644,1,0,0:0:0:0:
320,192,14745,1,0,0:0:0:0:
448,192,14847,1,0,0:0:0:0:
320,192,14948,1,0,0:0:0:0:
192,192,15049,1,0,0:0:0:0:
64,192,15151,128,0,15455:0:0:0:0:
448,192,15151,128,0,15455:0:0:0:0:
320,192,15252,1,0,0:0:0:0:
192,192,15353,1,0,0:0:0:0:
320,192,15455,1,0,0:0:0:0:
64,192,15556,1,4,0:0:0:0:
448,192,15556,1,2,0:0:0:0:
192,192,15759,1,0,0:0:0:0:
64,192,15860,1,0,0:0:0:0:
320,192,15961,1,8,0:0:0:0:
448,192,15961,1,2,0:0:0:0:
64,192,16164,1,0,0:0:0:0:
192,192,16367,1,2,0:0:0:0:
320,192,16367,1,0,0:0:0:0:
448,192,16570,1,0,0:0:0:0:
64,192,16772,1,10,0:0:0:0:
192,192,16772,1,4,0:0:0:0:
320,192,16975,1,0,0:0:0:0:
64,192,17178,128,2,17380:0:0:0:0:
448,192,17178,1,0,0:0:0:0:
320,192,17380,1,0,0:0:0:0:
64,192,17482,128,0,17684:0:0:0:0:
192,192,17583,1,8,0:0:0:0:
448,192,17583,1,2,0:0:0:0:
320,192,17786,128,0,17989:0:0:0:0:
64,192,17989,1,2,0:0:0:0:
448,192,17989,1,0,0:0:0:0:
320,192,18090,128,0,18293:0:0:0:0:
192,192,18191,1,0,0:0:0:0:
64,192,18394,1,8,0:0:0:0:
448,192,18394,1,2,0:0:0:0:
64,192,18597,1,2,0:0:0:0:
320,192,18597,1,0,0:0:0:0:
192,192,18799,1,2,0:0:0:0:
448,192,18799,1,0,0:0:0:0:
64,192,19002,1,0,0:0:0:0:
192,192,19103,1,0,0:0:0:0:
320,192,19205,1,2,0:0:0:0:
448,192,19205,1,8,0:0:0:0:
64,192,19407,1,0,0:0:0:0:
192,192,19610,1,2,0:0:0:0:
448,192,19610,1,0,0:0:0:0:
320,192,19711,1,0,0:0:0:0:
64,192,19813,1,0,0:0:0:0:
192,192,19914,1,0,0:0:0:0:
64,192,20016,1,2,0:0:0:0:
448,192,20016,1,8,0:0:0:0:
192,192,20218,1,2,0:0:0:0:
320,192,20218,1,0,0:0:0:0:
64,192,20421,1,2,0:0:0:0:
448,192,20421,1,0,0:0:0:0:
192,192,20624,1,2,0:0:0:0:
448,192,20624,1,0,0:0:0:0:
64,192,20826,1,2,0:0:0:0:
320,192,20826,1,0,0:0:0:0:
192,192,21029,1,2,0:0:0:0:
448,192,21029,1,0,0:0:0:0:
64,192,21232,1,2,0:0:0:0:
320,192,21232,1,0,0:0:0:0:
192,192,21333,1,2,0:0:0:0:
448,192,21434,1,2,0:0:0:0:
320,192,21536,1,2,0:0:0:0:
192,192,21637,1,2,0:0:0:0:
448,192,21637,1,0,0:0:0:0:
64,192,21840,1,2,0:0:0:0:
192,192,21941,1,2,0:0:0:0:
320,192,22043,1,2,0:0:0:0:
448,192,22043,1,4,0:0:0:0:
64,192,22245,128,0,22448:0:0:0:0:
192,192,22448,1,2,0:0:0:0:
320,192,22448,1,0,0:0:0:0:
448,192,22651,128,0,22853:0:0:0:0:
64,192,22853,1,2,0:0:0:0:
320,192,22853,1,0,0:0:0:0:
192,192,23056,128,0,23259:0:0:0:0:
64,192,23259,1,2,0:0:0:0:
448,192,23259,1,0,0:0:0:0:
320,192,23461,128,0,23664:0:0:0:0:
64,192,23664,1,2,0:0:0:0:
192,192,23664,1,0,0:0:0:0:
448,192,23867,128,0,24070:0:0:0:0:
192,192,24070,1,2,0:0:0:0:
320,192,24070,1,0,0:0:0:0:
64,192,24272,128,0,24475:0:0:0:0:
192,192,24475,1,2,0:0:0:0:
448,192,24475,1,0,0:0:0:0:
320,192,24678,128,0,24880:0:0:0:0:
64,192,24880,1,2,0:0:0:0:
448,192,24880,1,0,0:0:0:0:
192,192,25083,128,0,25286:0:0:0:0:
64,192,25286,1,2,0:0:0:0:
320,192,25286,1,0,0:0:0:0:
448,192,25489,128,0,25691:0:0:0:0:
192,192,25691,1,2,0:0:0:0:
320,192,25691,1,0,0:0:0:0:
64,192,25894,128,0,26097:0:0:0:0:
192,192,26097,1,2,0:0:0:0:
448,192,26097,1,0,0:0:0:0:
320,192,26299,128,0,26502:0:0:0:0:
64,192,26502,1,2,0:0:0:0:
448,192,26502,1,0,0:0:0:0:
192,192,26705,128,0,26907:0:0:0:0:
320,192,26907,1,2,0:0:0:0:
448,192,26907,1,0,0:0:0:0:
64,192,27110,128,0,27313:0:0:0:0:
192,192,27313,1,2,0:0:0:0:
320,192,27313,1,0,0:0:0:0:
448,192,27516,128,0,27718:0:0:0:0:
64,192,27718,1,2,0:0:0:0:
192,192,27718,1,0,0:0:0:0:
448,192,27921,1,0,0:0:0:0:
320,192,28022,1,2,0:0:0:0:
64,192,28124,1,2,0:0:0:0:
192,192,28124,1,0,0:0:0:0:
192,192,28326,1,2,0:0:0:0:
320,192,28326,1,0,0:0:0:0:
64,192,28529,1,2,0:0:0:0:
448,192,28529,1,4,0:0:0:0:
192,192,28732,128,0,28934:0:0:0:0:
64,192,28934,1,2,0:0:0:0:
320,192,28934,1,0,0:0:0:0:
448,192,29137,128,0,29340:0:0:0:0:
192,192,29340,1,2,0:0:0:0:
320,192,29340,1,0,0:0:0:0:
64,192,29543,128,0,29745:0:0:0:0:
192,192,29745,1,2,0:0:0:0:
448,192,29745,1,0,0:0:0:0:
320,192,29948,128,0,30151:0:0:0:0:
192,192,30151,1,2,0:0:0:0:
448,192,30151,1,0,0:0:0:0:
64,192,30353,128,0,30556:0:0:0:0:
192,192,30556,1,2,0:0:0:0:
320,192,30556,1,0,0:0:0:0:
448,192,30759,128,0,30961:0:0:0:0:
64,192,30961,1,2,0:0:0:0:
320,192,30961,1,0,0:0:0:0:
192,192,31164,128,0,31367:0:0:0:0:
320,192,31367,1,2,0:0:0:0:
448,192,31367,1,0,0:0:0:0:
192,192,31570,1,2,0:0:0:0:
320,192,31570,1,0,0:0:0:0:
64,192,31772,1,2,0:0:0:0:
192,192,31772,1,0,0:0:0:0:
448,192,31975,128,0,32178:0:0:0:0:
64,192,32178,1,2,0:0:0:0:
320,192,32178,1,0,0:0:0:0:
192,192,32380,128,0,32583:0:0:0:0:
64,192,32583,1,2,0:0:0:0:
448,192,32583,1,0,0:0:0:0:
320,192,32786,128,0,32989:0:0:0:0:
192,192,32989,1,2,0:0:0:0:
448,192,32989,1,0,0:0:0:0:
192,192,33191,1,2,0:0:0:0:
320,192,33191,1,0,0:0:0:0:
64,192,33394,1,2,0:0:0:0:
448,192,33394,1,0,0:0:0:0:
64,192,33597,1,2,0:0:0:0:
320,192,33597,1,0,0:0:0:0:
192,192,33799,1,2,0:0:0:0:
448,192,33799,1,0,0:0:0:0:
64,192,34002,1,2,0:0:0:0:
448,192,34002,1,0,0:0:0:0:
64,192,34205,1,2,0:0:0:0:
192,192,34306,1,2,0:0:0:0:
448,192,34407,1,2,0:0:0:0:
320,192,34509,1,2,0:0:0:0:
64,192,34610,1,2,0:0:0:0:
192,192,34610,1,0,0:0:0:0:
320,192,34813,1,2,0:0:0:0:
192,192,34914,1,2,0:0:0:0:
64,192,35016,1,2,0:0:0:0:
448,192,35016,128,4,36637:0:0:0:0:
192,192,35218,1,0,0:0:0:0:
64,192,35421,1,2,0:0:0:0:
320,192,35421,1,8,0:0:0:0:
192,192,35624,1,0,0:0:0:0:
64,192,35826,1,2,0:0:0:0:
320,192,36029,1,0,0:0:0:0:
64,192,36232,1,2,0:0:0:0:
192,192,36232,1,8,0:0:0:0:
320,192,36434,1,0,0:0:0:0:
64,192,36637,128,2,37448:0:0:0:0:
192,192,36637,1,0,0:0:0:0:
320,192,36840,1,0,0:0:0:0:
192,192,37043,1,2,0:0:0:0:
448,192,37043,1,8,0:0:0:0:
320,192,37245,1,0,0:0:0:0:
192,192,37448,1,2,0:0:0:0:
448,192,37448,128,0,37651:0:0:0:0:
320,192,37651,128,0,37853:0:0:0:0:
192,192,37853,128,2,38056:0:0:0:0:
448,192,37853,1,8,0:0:0:0:
64,192,38056,128,2,38259:0:0:0:0:
320,192,38056,1,0,0:0:0:0:
192,192,38259,1,2,0:0:0:0:
448,192,38259,128,4,39880:0:0:0:0:
320,192,38461,1,0,0:0:0:0:
64,192,38664,1,2,0:0:0:0:
192,192,38664,1,8,0:0:0:0:
320,192,38867,1,0,0:0:0:0:
192,192,39070,1,2,0:0:0:0:
64,192,39272,1,0,0:0:0:0:
192,192,39475,1,2,0:0:0:0:
320,192,39475,1,8,0:0:0:0:
64,192,39678,1,0,0:0:0:0:
192,192,39880,1,2,0:0:0:0:
320,192,39880,1,0,0:0:0:0:
448,192,40083,1,0,0:0:0:0:
64,192,40286,1,2,0:0:0:0:
192,192,40286,1,8,0:0:0:0:
448,192,40489,128,0,40894:0:0:0:0:
64,192,40691,1,2,0:0:0:0:
320,192,40691,1,0,0:0:0:0:
192,192,40894,128,0,41097:0:0:0:0:
64,192,40995,1,2,0:0:0:0:
320,192,41097,128,2,41299:0:0:0:0:
448,192,41097,1,8,0:0:0:0:
64,192,41299,128,2,41502:0:0:0:0:
192,192,41299,1,0,0:0:0:0:
320,192,41502,128,4,42313:0:0:0:0:
448,192,41502,1,2,0:0:0:0:
192,192,41705,1,0,0:0:0:0:
64,192,41907,1,2,0:0:0:0:
448,192,41907,1,8,0:0:0:0:
192,192,42110,1,0,0:0:0:0:
64,192,42313,1,2,0:0:0:0:
448,192,42313,128,0,42718:0:0:0:0:
320,192,42516,1,0,0:0:0:0:
64,192,42718,1,2,0:0:0:0:
192,192,42718,128,8,43124:0:0:0:0:
320,192,42921,1,0,0:0:0:0:
64,192,43124,128,2,43934:0:0:0:0:
448,192,43124,1,4,0:0:0:0:
320,192,43326,1,0,0:0:0:0:
192,192,43529,1,2,0:0:0:0:
448,192,43529,1,8,0:0:0:0:
320,192,43732,1,0,0:0:0:0:
192,192,43934,1,2,0:0:0:0:
448,192,43934,128,0,44137:0:0:0:0:
320,192,44137,128,0,44340:0:0:0:0:
192,192,44340,128,2,44543:0:0:0:0:
448,192,44340,1,8,0:0:0:0:
64,192,44543,128,2,44745:0:0:0:0:
320,192,44543,1,0,0:0:0:0:
192,192,44745,1,4,0:0:0:0:
448,192,44745,128,2,45556:0:0:0:0:
320,192,44948,1,0,0:0:0:0:
64,192,45151,1,2,0:0:0:0:
192,192,45151,1,8,0:0:0:0:
320,192,45353,1,0,0:0:0:0:
64,192,45556,1,2,0:0:0:0:
192,192,45556,128,0,46367:0:0:0:0:
320,192,45759,1,0,0:0:0:0:
64,192,45860,1,2,0:0:0:0:
448,192,45860,1,0,0:0:0:0:
320,192,45961,1,8,0:0:0:0:
64,192,46164,1,2,0:0:0:0:
448,192,46164,1,0,0:0:0:0:
64,192,46367,1,2,0:0:0:0:
320,192,46367,1,4,0:0:0:0:
320,192,46570,1,2,0:0:0:0:
448,192,46570,1,0,0:0:0:0:
64,192,46772,1,2,0:0:0:0:
192,192,46772,1,8,0:0:0:0:
64,192,46975,1,2,0:0:0:0:
320,192,46975,1,0,0:0:0:0:
192,192,47178,1,2,0:0:0:0:
448,192,47178,1,0,0:0:0:0:
320,192,47279,1,2,0:0:0:0:
64,192,47380,1,2,0:0:0:0:
192,192,47482,1,2,0:0:0:0:
64,192,47583,1,2,0:0:0:0:
448,192,47583,1,8,0:0:0:0:
320,192,47786,1,2,0:0:0:0:
192,192,47887,1,2,0:0:0:0:
320,192,47989,1,2,0:0:0:0:
448,192,47989,1,4,0:0:0:0:
64,192,48191,128,0,48394:0:0:0:0:
320,192,48394,1,0,0:0:0:0:
448,192,48597,128,0,48799:0:0:0:0:
192,192,48799,1,0,0:0:0:0:
64,192,49002,128,0,49205:0:0:0:0:
320,192,49205,1,0,0:0:0:0:
192,192,49407,1,2,0:0:0:0:
448,192,49407,1,0,0:0:0:0:
64,192,49610,1,2,0:0:0:0:
320,192,49610,1,0,0:0:0:0:
192,192,49813,128,0,50016:0:0:0:0:
448,192,50016,1,0,0:0:0:0:
320,192,50218,128,0,50421:0:0:0:0:
64,192,50421,1,0,0:0:0:0:
448,192,50624,128,0,50826:0:0:0:0:
192,192,50826,1,0,0:0:0:0:
64,192,51029,1,2,0:0:0:0:
320,192,51029,1,0,0:0:0:0:
192,192,51232,1,2,0:0:0:0:
448,192,51232,1,4,0:0:0:0:
320,192,51434,1,0,0:0:0:0:
64,192,51637,1,0,0:0:0:0:
320,192,51840,1,2,0:0:0:0:
448,192,51840,1,0,0:0:0:0:
64,192,52043,1,2,0:0:0:0:
192,192,52043,1,0,0:0:0:0:
320,192,52245,1,0,0:0:0:0:
192,192,52448,1,0,0:0:0:0:
320,192,52651,1,2,0:0:0:0:
448,192,52651,1,0,0:0:0:0:
64,192,52853,1,2,0:0:0:0:
192,192,52853,1,0,0:0:0:0:
320,192,53056,1,0,0:0:0:0:
64,192,53157,1,2,0:0:0:0:
448,192,53157,1,0,0:0:0:0:
192,192,53259,1,0,0:0:0:0:
64,192,53461,1,2,0:0:0:0:
448,192,53461,1,0,0:0:0:0:
64,192,53664,1,2,0:0:0:0:
448,192,53664,1,0,0:0:0:0:
192,192,53867,1,2,0:0:0:0:
320,192,53867,1,0,0:0:0:0:
448,192,54070,1,2,0:0:0:0:
64,192,54171,1,2,0:0:0:0:
320,192,54272,1,2,0:0:0:0:
192,192,54374,1,2,0:0:0:0:
320,192,54475,1,2,0:0:0:0:
448,192,54475,1,4,0:0:0:0:
64,192,54678,128,0,54880:0:0:0:0:
192,192,54880,1,2,0:0:0:0:
320,192,54880,1,8,0:0:0:0:
448,192,55083,128,0,55286:0:0:0:0:
64,192,55286,1,2,0:0:0:0:
320,192,55286,1,0,0:0:0:0:
192,192,55489,128,0,55691:0:0:0:0:
64,192,55691,1,2,0:0:0:0:
320,192,55691,1,8,0:0:0:0:
448,192,55894,128,0,56097:0:0:0:0:
192,192,56097,1,2,0:0:0:0:
320,192,56097,1,4,0:0:0:0:
64,192,56299,128,0,56502:0:0:0:0:
192,192,56502,1,2,0:0:0:0:
448,192,56502,1,8,0:0:0:0:
320,192,56705,128,0,56907:0:0:0:0:
64,192,56907,1,2,0:0:0:0:
192,192,56907,1,0,0:0:0:0:
448,192,57110,128,0,57313:0:0:0:0:
64,192,57313,1,2,0:0:0:0:
192,192,57313,1,8,0:0:0:0:
192,192,57516,1,2,0:0:0:0:
320,192,57516,1,0,0:0:0:0:
320,192,57718,1,2,0:0:0:0:
448,192,57718,128,4,57921:0:0:0:0:
64,192,57921,128,0,58124:0:0:0:0:
192,192,58124,1,2,0:0:0:0:
320,192,58124,128,8,58326:0:0:0:0:
448,192,58326,128,0,58529:0:0:0:0:
64,192,58529,128,2,58732:0:0:0:0:
320,192,58529,1,0,0:0:0:0:
192,192,58732,128,0,58934:0:0:0:0:
64,192,58934,1,2,0:0:0:0:
448,192,58934,128,8,59137:0:0:0:0:
192,192,59137,1,2,0:0:0:0:
320,192,59137,128,0,59340:0:0:0:0:
64,192,59340,1,2,0:0:0:0:
448,192,59340,1,4,0:0:0:0:
64,192,59543,1,2,0:0:0:0:
320,192,59543,1,0,0:0:0:0:
192,192,59745,1,2,0:0:0:0:
448,192,59745,1,8,0:0:0:0:
64,192,59948,1,2,0:0:0:0:
192,192,59948,1,0,0:0:0:0:
448,192,60151,1,2,0:0:0:0:
320,192,60252,1,2,0:0:0:0:
64,192,60353,1,2,0:0:0:0:
192,192,60455,1,2,0:0:0:0:
320,192,60556,1,2,0:0:0:0:
448,192,60556,1,8,0:0:0:0:
64,192,60759,1,2,0:0:0:0:
192,192,60860,1,2,0:0:0:0:
448,192,60961,128,0,61367:0:0:0:0:
320,192,61164,128,0,61367:0:0:0:0:
64,192,61367,128,0,61772:0:0:0:0:
192,192,61570,128,0,61772:0:0:0:0:
320,192,61772,128,0,62076:0:0:0:0:
448,192,61772,128,0,62076:0:0:0:0:
64,192,62178,128,0,62482:0:0:0:0:
192,192,62178,128,0,62482:0:0:0:0:
192,192,62583,1,4,0:0:0:0:
320,192,62583,1,2,0:0:0:0:
448,192,62583,128,0,63394:0:0:0:0:
64,192,62786,1,0,0:0:0:0:
192,192,62989,1,8,0:0:0:0:
320,192,62989,1,2,0:0:0:0:
64,192,63191,1,0,0:0:0:0:
192,192,63394,1,2,0:0:0:0:
320,192,63394,128,0,63799:0:0:0:0:
448,192,63597,1,0,0:0:0:0:
64,192,63799,1,8,0:0:0:0:
192,192,63799,128,2,64205:0:0:0:0:
320,192,64002,1,0,0:0:0:0:
64,192,64205,128,2,65016:0:0:0:0:
448,192,64205,1,0,0:0:0:0:
192,192,64407,1,0,0:0:0:0:
320,192,64610,1,8,0:0:0:0:
448,192,64610,1,2,0:0:0:0:
192,192,64813,1,0,0:0:0:0:
320,192,65016,128,2,65421:0:0:0:0:
448,192,65016,1,0,0:0:0:0:
64,192,65218,1,0,0:0:0:0:
192,192,65421,1,8,0:0:0:0:
448,192,65421,1,2,0:0:0:0:
64,192,65624,1,2,0:0:0:0:
320,192,65624,1,0,0:0:0:0:
64,192,65826,1,2,0:0:0:0:
448,192,65826,128,0,66637:0:0:0:0:
320,192,66029,1,0,0:0:0:0:
64,192,66232,1,8,0:0:0:0:
192,192,66232,1,2,0:0:0:0:
320,192,66434,1,0,0:0:0:0:
192,192,66637,1,2,0:0:0:0:
64,192,66637,128,0,67043:0:0:0:0:
448,192,66840,1,0,0:0:0:0:
192,192,67043,1,8,0:0:0:0:
320,192,67043,128,2,67448:0:0:0:0:
64,192,67245,1,0,0:0:0:0:
192,192,67448,1,2,0:0:0:0:
448,192,67448,128,0,68259:0:0:0:0:
320,192,67651,1,0,0:0:0:0:
64,192,67853,1,8,0:0:0:0:
192,192,67853,1,2,0:0:0:0:
320,192,68056,1,0,0:0:0:0:
64,192,68259,1,2,0:0:0:0:
192,192,68259,1,0,0:0:0:0:
448,192,68461,1,0,0:0:0:0:
64,192,68563,1,2,0:0:0:0:
192,192,68563,1,0,0:0:0:0:
320,192,68664,1,10,0:0:0:0:
448,192,68664,1,4,0:0:0:0:
192,192,68867,1,2,0:0:0:0:
320,192,68867,1,0,0:0:0:0:
64,192,69070,128,2,69475:0:0:0:0:
448,192,69070,1,4,0:0:0:0:
320,192,69272,1,0,0:0:0:0:
192,192,69475,128,2,69880:0:0:0:0:
448,192,69475,1,8,0:0:0:0:
64,192,69678,1,0,0:0:0:0:
320,192,69880,128,2,70286:0:0:0:0:
448,192,69880,1,0,0:0:0:0:
192,192,70083,1,0,0:0:0:0:
64,192,70286,1,2,0:0:0:0:
448,192,70286,1,8,0:0:0:0:
320,192,70489,1,0,0:0:0:0:
192,192,70691,1,2,0:0:0:0:
448,192,70691,128,4,71097:0:0:0:0:
64,192,70894,1,0,0:0:0:0:
192,192,71097,1,10,0:0:0:0:
320,192,71097,128,4,71502:0:0:0:0:
448,192,71299,1,0,0:0:0:0:
64,192,71502,1,2,0:0:0:0:
192,192,71502,128,4,71907:0:0:0:0:
320,192,71705,1,0,0:0:0:0:
64,192,71907,1,2,0:0:0:0:
448,192,71907,1,8,0:0:0:0:
192,192,72110,1,2,0:0:0:0:
320,192,72110,1,0,0:0:0:0:
64,192,72313,1,2,0:0:0:0:
448,192,72313,1,4,0:0:0:0:
320,192,72516,1,0,0:0:0:0:
192,192,72617,1,0,0:0:0:0:
64,192,72718,1,2,0:0:0:0:
448,192,72718,1,8,0:0:0:0:
320,192,72921,1,0,0:0:0:0:
64,192,73124,1,2,0:0:0:0:
448,192,73124,1,0,0:0:0:0:
192,192,73326,1,0,0:0:0:0:
320,192,73428,1,0,0:0:0:0:
64,192,73529,1,2,0:0:0:0:
448,192,73529,1,8,0:0:0:0:
192,192,73732,1,2,0:0:0:0:
320,192,73732,1,0,0:0:0:0:
64,192,73934,1,2,0:0:0:0:
192,192,73934,1,0,0:0:0:0:
320,192,74137,1,2,0:0:0:0:
448,192,74137,1,0,0:0:0:0:
64,192,74340,1,2,0:0:0:0:
192,192,74340,1,8,0:0:0:0:
320,192,74543,1,2,0:0:0:0:
448,192,74543,1,0,0:0:0:0:
64,192,74745,1,2,0:0:0:0:
192,192,74847,1,2,0:0:0:0:
320,192,74948,1,2,0:0:0:0:
448,192,75049,1,2,0:0:0:0:
64,192,75151,1,10,0:0:0:0:
192,192,75252,1,2,0:0:0:0:
320,192,75353,1,2,0:0:0:0:
448,192,75455,1,2,0:0:0:0:
64,192,75556,128,4,76367:0:0:0:0:
192,192,75556,1,2,0:0:0:0:
320,192,75759,1,0,0:0:0:0:
192,192,75961,1,8,0:0:0:0:
448,192,75961,1,2,0:0:0:0:
320,192,76164,1,0,0:0:0:0:
192,192,76367,1,2,0:0:0:0:
448,192,76367,128,0,76772:0:0:0:0:
320,192,76570,1,0,0:0:0:0:
64,192,76772,1,8,0:0:0:0:
192,192,76772,128,2,77178:0:0:0:0:
320,192,76975,1,0,0:0:0:0:
64,192,77178,128,2,77989:0:0:0:0:
448,192,77178,1,0,0:0:0:0:
320,192,77380,1,0,0:0:0:0:
192,192,77583,1,8,0:0:0:0:
448,192,77583,1,2,0:0:0:0:
320,192,77786,1,0,0:0:0:0:
192,192,77989,1,2,0:0:0:0:
448,192,77989,1,0,0:0:0:0:
192,192,78191,1,0,0:0:0:0:
64,192,78394,1,8,0:0:0:0:
320,192,78394,1,2,0:0:0:0:
320,192,78597,1,2,0:0:0:0:
64,192,78799,128,2,79610:0:0:0:0:
448,192,78799,1,4,0:0:0:0:
192,192,79002,1,0,0:0:0:0:
320,192,79205,1,8,0:0:0:0:
448,192,79205,1,2,0:0:0:0:
192,192,79407,1,0,0:0:0:0:
320,192,79610,1,2,0:0:0:0:
448,192,79610,128,0,80016:0:0:0:0:
192,192,79813,1,0,0:0:0:0:
64,192,80016,1,8,0:0:0:0:
320,192,80016,128,2,80421:0:0:0:0:
192,192,80218,1,0,0:0:0:0:
64,192,80421,128,2,81232:0:0:0:0:
448,192,80421,1,4,0:0:0:0:
320,192,80624,1,0,0:0:0:0:
192,192,80826,1,8,0:0:0:0:
448,192,80826,1,2,0:0:0:0:
320,192,81029,1,0,0:0:0:0:
192,192,81232,1,2,0:0:0:0:
448,192,81232,1,0,0:0:0:0:
320,192,81434,1,0,0:0:0:0:
64,192,81536,1,2,0:0:0:0:
192,192,81536,1,0,0:0:0:0:
320,192,81637,1,8,0:0:0:0:
448,192,81637,1,2,0:0:0:0:
192,192,81840,1,2,0:0:0:0:
320,192,81941,1,2,0:0:0:0:
64,192,82043,128,2,82448:0:0:0:0:
448,192,82043,1,4,0:0:0:0:
320,192,82245,1,0,0:0:0:0:
192,192,82448,128,2,82853:0:0:0:0:
448,192,82448,1,8,0:0:0:0:
64,192,82651,1,0,0:0:0:0:
320,192,82853,1,2,0:0:0:0:
448,192,82853,128,0,83259:0:0:0:0:
192,192,83056,1,0,0:0:0:0:
64,192,83259,1,2,0:0:0:0:
320,192,83259,1,8,0:0:0:0:
448,192,83461,1,0,0:0:0:0:
64,192,83664,128,2,84070:0:0:0:0:
192,192,83664,1,4,0:0:0:0:
448,192,83867,1,0,0:0:0:0:
192,192,84070,1,10,0:0:0:0:
320,192,84070,128,4,84475:0:0:0:0:
64,192,84272,1,0,0:0:0:0:
192,192,84475,1,2,0:0:0:0:
448,192,84475,128,4,84880:0:0:0:0:
320,192,84678,1,0,0:0:0:0:
64,192,84880,1,2,0:0:0:0:
192,192,84880,1,8,0:0:0:0:
448,192,85083,1,2,0:0:0:0:
192,192,85286,128,2,85894:0:0:0:0:
320,192,85286,1,4,0:0:0:0:
448,192,85489,1,0,0:0:0:0:
64,192,85691,1,8,0:0:0:0:
320,192,85894,1,2,0:0:0:0:
448,192,85894,128,0,86097:0:0:0:0:
64,192,86097,128,2,86401:0:0:0:0:
192,192,86097,1,4,0:0:0:0:
192,192,86401,1,2,0:0:0:0:
448,192,86401,1,0,0:0:0:0:
320,192,86705,1,2,0:0:0:0:
448,192,86705,1,0,0:0:0:0:
64,192,86907,1,2,0:0:0:0:
192,192,86907,1,4,0:0:0:0:
192,192,87110,1,2,0:0:0:0:
320,192,87110,1,0,0:0:0:0:
64,192,87313,1,2,0:0:0:0:
448,192,87313,1,8,0:0:0:0:
192,192,87516,1,2,0:0:0:0:
320,192,87516,1,0,0:0:0:0:
448,192,87617,1,2,0:0:0:0:
64,192,87718,1,2,0:0:0:0:
192,192,87820,1,2,0:0:0:0:
320,192,87921,1,2,0:0:0:0:
448,192,88022,1,2,0:0:0:0:
64,192,88124,1,10,0:0:0:0:
192,192,88225,1,2,0:0:0:0:
320,192,88326,1,2,0:0:0:0:
448,192,88428,1,2,0:0:0:0:
64,192,88529,128,2,90151:0:0:0:0:
192,192,88529,128,4,90151:0:0:0:0:
