osu file format v14

[General]
AudioFilename: audio.mp3
AudioLeadIn: 0
PreviewTime: 72214
Countdown: 0
SampleSet: Soft
StackLeniency: 0.2
Mode: 0
LetterboxInBreaks: 0
WidescreenStoryboard: 0

[Editor]
Bookmarks: 29142,42857,56571,73714,87428,101142,128571,142285,155999,188571,202285
DistanceSpacing: 0.8
BeatDivisor: 4
GridSize: 16
TimelineZoom: 1

[Metadata]
Title:Alstroemeria
TitleUnicode:アルストロメリア
Artist:ALSTROEMERIA
ArtistUnicode:アルストロメリア
Creator:Curisu
Version:Thalia
Source:アイドルマスター シャイニーカラーズ
Tags:_Star nika mika my angel yayoi シャニマス THE IDOLM@STER SHINY COLORS idolmaster imas im@s shinymas shinycolors imassc 大崎甘奈 大崎甜花 桑山千雪 Oosaki Amana Tenka Kuwayama Chiyuki 黒木ほの香 前川涼子 芝崎典子 Kuroki Honoka Maekawa Ryouko Shibasaki Noriko
BeatmapID:1972242
BeatmapSetID:944369

[Difficulty]
HPDrainRate:5
CircleSize:4
OverallDifficulty:7
ApproachRate:8.6
SliderMultiplier:1.6
SliderTickRate:1

[Events]
//Background and Video events
0,0,"bg.png",0,0
//Break Periods
//Storyboard Layer 0 (Background)
//Storyboard Layer 1 (Fail)
//Storyboard Layer 2 (Pass)
//Storyboard Layer 3 (Foreground)
//Storyboard Sound Samples

[TimingPoints]
0,428.571428571429,4,2,0,5,1,0
42857,-90.9090909090909,4,2,0,5,0,0
56571,285.714285714286,3,2,0,5,1,0
56571,-125,3,2,0,5,0,0
66857,428.571428571429,4,2,0,5,1,0
73285,-83.3333333333333,4,2,0,5,0,0

[Colours]
Combo1 : 226,194,146
Combo2 : 227,37,120
Combo3 : 145,105,77
Combo4 : 191,47,94

[HitObjects]
256,192,0,12,0,1500,0:0:0:0:
29,333,1714,5,0,0:0:0:0:
29,333,2142,2,0,L|112:331,1,80
310,277,2571,1,0,0:0:0:0:
310,277,2785,2,0,L|227:279,1,80
67,267,3214,6,0,P|51:216|73:180,1,80
189,117,3642,1,0,0:0:0:0:
298,219,3857,1,0,0:0:0:0:
67,267,4071,6,0,P|51:216|73:180,1,80
189,117,4500,1,0,0:0:0:0:
298,219,4714,2,0,L|379:219,1,80
483,51,5142,5,0,0:0:0:0:
483,51,5570,2,0,L|400:53,1,80
202,107,5999,1,0,0:0:0:0:
202,107,6213,2,0,L|285:105,1,80
380,196,6642,6,0,P|419:223|463:218,1,80
450,80,7071,1,0,0:0:0:0:
318,159,7285,1,0,0:0:0:0:
170,113,7500,6,0,L|84:113,1,80
27,290,7928,5,0,0:0:0:0:
209,343,8142,2,0,P|212:297|212:258,1,80
205,18,8571,5,0,0:0:0:0:
205,18,8892,1,0,0:0:0:0:
195,51,9000,6,0,P|163:85|90:78,1,120
66,60,9428,5,0,0:0:0:0:
155,111,9642,1,0,0:0:0:0:
251,73,9857,1,0,0:0:0:0:
402,156,10071,6,0,P|442:132|450:59,1,120
437,31,10499,5,0,0:0:0:0:
348,82,10714,1,0,0:0:0:0:
252,44,10929,1,0,0:0:0:0:
252,44,11357,5,0,0:0:0:0:
98,58,11571,2,0,P|89:110|81:146,1,80
51,295,12000,5,0,0:0:0:0:
51,295,12320,1,0,0:0:0:0:
74,269,12428,6,0,P|116:250|180:288,1,120
186,317,12857,5,0,0:0:0:0:
275,368,13072,1,0,0:0:0:0:
371,330,13287,1,0,0:0:0:0:
443,68,13500,5,0,0:0:0:0:
443,68,14571,5,0,0:0:0:0:
436,107,14678,1,0,0:0:0:0:
396,112,14785,1,0,0:0:0:0:
378,75,14892,1,0,0:0:0:0:
407,46,15000,5,0,0:0:0:0:
443,68,15107,5,0,0:0:0:0:
465,122,15214,5,0,0:0:0:0:
449,187,15321,5,0,0:0:0:0:
390,240,15428,6,0,P|341:261|273:237,1,120
234,175,15857,6,0,P|235:127|239:91,1,80
332,74,16285,5,0,0:0:0:0:
139,115,16500,1,0,0:0:0:0:
332,156,16714,1,0,0:0:0:0:
195,302,16928,6,0,P|194:254|190:218,1,80
100,187,17357,1,0,0:0:0:0:
69,190,17464,1,0,0:0:0:0:
37,197,17571,5,0,0:0:0:0:
54,237,17678,1,0,0:0:0:0:
37,277,17785,1,0,0:0:0:0:
55,316,17892,2,0,P|75:318|101:316,1,40
117,275,18107,5,0,0:0:0:0:
284,200,18321,1,0,0:0:0:0:
322,260,18428,6,0,P|276:272|239:253,1,80
42,201,18857,6,0,P|91:222|159:198,1,120
198,136,19286,6,0,P|197:88|193:52,1,80
100,35,19714,5,0,0:0:0:0:
293,76,19929,1,0,0:0:0:0:
100,117,20143,1,0,0:0:0:0:
63,309,20357,6,0,P|103:322|150:303,1,80
178,109,20785,1,0,0:0:0:0:
371,150,20999,1,0,0:0:0:0:
408,342,21213,6,0,P|368:355|321:336,1,80
221,261,21642,1,0,0:0:0:0:
221,261,21750,1,0,0:0:0:0:
221,261,21857,6,0,L|241:165,1,80
182,20,22285,6,0,L|156:137,1,120
196,208,22714,6,0,P|237:213|275:209,1,80
322,125,23142,5,0,0:0:0:0:
147,44,23357,1,0,0:0:0:0:
26,195,23571,1,0,0:0:0:0:
146,345,23785,6,0,P|146:284|148:242,1,80
236,225,24214,1,0,0:0:0:0:
267,228,24321,1,0,0:0:0:0:
299,235,24428,5,0,0:0:0:0:
282,275,24535,1,0,0:0:0:0:
299,315,24642,1,0,0:0:0:0:
281,354,24749,2,0,P|261:356|235:354,1,40
219,313,24964,5,0,0:0:0:0:
42,266,25178,1,0,0:0:0:0:
4,326,25285,6,0,P|50:338|87:319,1,80
257,253,25714,6,0,L|278:382,1,120
346,332,26142,2,0,P|394:321|433:336,1,80
504,380,26571,5,0,0:0:0:0:
345,275,26785,1,0,0:0:0:0:
170,352,27000,1,0,0:0:0:0:
47,155,27214,6,0,L|48:293,1,120
56,317,27642,5,0,0:0:0:0:
56,317,27750,1,0,0:0:0:0:
57,348,27857,5,0,0:0:0:0:
185,167,28071,1,0,0:0:0:0:
185,167,28178,1,0,0:0:0:0:
186,198,28285,5,0,0:0:0:0:
187,229,28392,1,0,0:0:0:0:
188,260,28499,1,0,0:0:0:0:
189,291,28606,1,0,0:0:0:0:
190,322,28714,1,0,0:0:0:0:
328,359,28928,1,0,0:0:0:0:
328,359,29035,1,0,0:0:0:0:
322,286,29142,5,0,0:0:0:0:
322,286,29571,6,0,P|337:246|370:223,1,80
448,235,29892,1,0,0:0:0:0:
322,286,30000,6,0,P|337:246|370:223,1,80
448,235,30428,1,0,0:0:0:0:
241,340,30642,6,0,L|118:352,1,120
98,339,31071,1,0,0:0:0:0:
20,336,31285,6,0,P|2:300|12:256,1,80
63,200,31607,1,0,0:0:0:0:
20,336,31714,6,0,P|2:300|12:256,1,80
63,200,32142,1,0,0:0:0:0:
38,48,32357,6,0,B|23:25|23:25|1:114,1,120
14,135,32785,1,0,0:0:0:0:
122,79,33000,6,0,L|203:67,1,80
277,109,33321,1,0,0:0:0:0:
122,79,33428,5,0,0:0:0:0:
201,67,33642,1,0,0:0:0:0:
277,109,33857,1,0,0:0:0:0:
176,172,34071,6,0,P|130:137|122:75,1,120
176,172,34500,6,0,P|168:114|203:65,1,120
176,172,34928,6,0,P|210:125|273:118,1,120
272,222,35357,5,0,0:0:0:0:
365,276,35571,6,0,P|329:229|271:221,1,120
187,334,36000,6,0,L|269:325,1,80
113,282,36428,2,0,P|78:307|37:309,1,80
135,196,36750,1,0,0:0:0:0:
113,282,36857,6,0,P|78:307|37:309,1,80
135,196,37285,1,0,0:0:0:0:
187,334,37500,6,0,P|261:337|237:394,1,160
42,309,38142,1,0,0:0:0:0:
51,221,38357,6,0,B|64:102|64:102|87:145,1,160
246,136,39000,1,0,0:0:0:0:
377,46,39214,1,0,0:0:0:0:
377,46,39642,5,0,0:0:0:0:
246,136,39857,1,0,0:0:0:0:
83,137,40071,1,0,0:0:0:0:
83,137,40500,5,0,0:0:0:0:
377,46,40714,1,0,0:0:0:0:
246,136,40928,2,0,P|221:90|235:26,1,120
246,136,41357,6,0,P|275:173|276:214,1,80
247,284,41785,1,0,0:0:0:0:
247,284,42214,5,0,0:0:0:0:
246,136,42428,2,0,P|275:173|276:214,1,80
200,313,42857,6,0,P|262:335|277:275,1,132.00000402832
340,202,43285,2,0,P|283:233|219:221,1,132.00000402832
264,64,43714,2,0,L|271:151,1,88.000002685547
175,147,44142,1,0,0:0:0:0:
356,90,44357,6,0,B|425:88|461:139|461:139|405:175,1,176.000005371094
361,248,45000,2,0,P|356:288|432:269,1,132.00000402832
274,253,45428,2,0,L|382:248,2,88.000002685547
221,344,46071,6,0,P|243:299|201:170,1,176.000005371094
100,222,46714,2,0,B|62:277|62:277|156:266,1,132.00000402832
101,143,47142,2,0,P|158:165|172:189,1,88.000002685547
162,51,47571,1,0,0:0:0:0:
260,38,47785,6,0,L|173:35,1,88.000002685547
355,122,48214,2,0,L|267:125,1,88.000002685547
445,36,48642,2,0,L|440:141,1,88.000002685547
455,235,49071,2,0,B|513:184|472:108|472:108|425:131,1,176.000005371094
360,211,49714,6,0,P|312:222|274:211,1,88.000002685547
170,174,50142,2,0,P|141:190|198:223,1,132.00000402832
169,86,50571,2,0,L|169:173,1,88.000002685547
262,131,51000,1,0,0:0:0:0:
66,95,51214,6,0,P|50:140|72:195,1,88.000002685547
138,286,51642,2,0,P|160:243|216:223,1,88.000002685547
309,239,52071,2,0,B|359:259|359:259|306:279,1,88.000002685547
228,330,52500,1,0,0:0:0:0:
325,355,52714,2,0,L|421:353,1,88.000002685547
309,239,53142,6,0,P|272:199|291:146,1,88.000002685547
326,88,53571,1,0,0:0:0:0:
326,88,53785,2,0,L|231:89,1,88.000002685547
94,175,54214,2,0,L|189:174,1,88.000002685547
41,252,54642,6,0,B|1:178|66:140|66:140|97:157|97:197,1,176.000005371094
11,330,55285,2,0,P|69:327|103:300,1,88.000002685547
121,290,55607,1,0,0:0:0:0:
149,269,55714,2,0,L|205:265,2,44.0000013427735
93,174,56142,1,0,0:0:0:0:
93,174,56571,6,0,P|79:115|78:28,1,128
76,47,57047,1,0,0:0:0:0:
61,78,57142,2,0,P|92:112|118:148,1,85.3333333333333
44,161,57428,5,0,0:0:0:0:
256,112,57713,1,0,0:0:0:0:
39,85,57999,1,0,0:0:0:0:
0,354,58285,6,0,P|65:324|137:351,1,128
117,336,58856,6,0,P|112:298|115:274,2,42.6666666666667
187,355,59142,2,0,P|257:367|257:224,1,256
192,194,59856,6,0,L|164:194,3,16
159,196,59999,6,0,P|151:268|139:338,1,128
141,322,60475,1,0,0:0:0:0:
169,304,60571,2,0,P|145:258|135:222,1,85.3333333333333
142,153,60856,5,0,0:0:0:0:
89,364,61142,1,0,0:0:0:0:
67,147,61428,1,0,0:0:0:0:
314,252,61713,6,0,P|374:276|438:236,1,128
427,250,62285,1,0,0:0:0:0:
443,191,62428,2,0,L|447:161,3,16
447,164,62571,6,0,P|464:215|495:246,1,85.3333333333333
443,297,62856,2,0,P|390:286|347:297,1,85.3333333333333
310,346,63142,2,0,P|268:352|227:341,1,85.3333333333333
194,275,63428,6,0,P|204:219|203:147,1,128
203,148,63999,1,0,0:0:0:0:
37,289,64285,5,0,0:0:0:0:
256,272,64571,1,0,0:0:0:0:
475,289,64856,1,0,0:0:0:0:
315,329,65142,6,0,P|256:349|196:331,1,128
195,330,65713,1,0,0:0:0:0:
67,164,65999,5,0,0:0:0:0:
445,220,66428,1,0,0:0:0:0:
281,19,66857,6,0,P|272:83|262:178,1,160
262,177,67714,1,0,0:0:0:0:
454,105,68035,1,0,0:0:0:0:
250,101,68357,1,0,0:0:0:0:
208,305,68571,6,0,P|199:241|189:146,1,160
189,146,69428,1,0,0:0:0:0:
381,218,69749,1,0,0:0:0:0:
177,222,70071,1,0,0:0:0:0:
126,13,70285,6,0,L|114:173,1,160
118,176,71035,1,0,0:0:0:0:
118,176,71142,1,0,0:0:0:0:
37,223,71357,2,0,L|35:134,1,80
192,201,71785,6,0,P|229:213|273:192,1,80
331,127,72214,1,0,0:0:0:0:
335,95,72321,1,0,0:0:0:0:
339,63,72428,1,0,0:0:0:0:
412,179,72642,1,0,0:0:0:0:
408,211,72749,1,0,0:0:0:0:
408,211,73071,1,0,0:0:0:0:
404,243,73178,1,0,0:0:0:0:
446,302,73285,6,0,P|396:319|349:288,1,95.9999970703126
