osu file format v14

[General]
AudioFilename: audio.mp3
AudioLeadIn: 0
PreviewTime: 64232
Countdown: 0
SampleSet: Soft
StackLeniency: 0.7
Mode: 0
LetterboxInBreaks: 0
WidescreenStoryboard: 0

[Editor]
Bookmarks: 7382,21594,23815,35807,62012,69118,73115,87772
DistanceSpacing: 2
BeatDivisor: 4
GridSize: 4
TimelineZoom: 1

[Metadata]
Title:Fading Nightcore
TitleUnicode:Fading Nightcore
Artist:ALLE FARBEN & ILIRA
ArtistUnicode:ALLE FARBEN & ILIRA
Creator:Zonsa
Version:Normal
Source:
Tags:
BeatmapID:2005705
BeatmapSetID:957919

[Difficulty]
HPDrainRate:7
CircleSize:4
OverallDifficulty:6
ApproachRate:8
SliderMultiplier:1.4
SliderTickRate:1

[Events]
//Background and Video events
0,0,"anime_anime_girls_Vocaloid-285765.jpg",0,0
//Break Periods
//Storyboard Layer 0 (Background)
//Storyboard Layer 1 (Fail)
//Storyboard Layer 2 (Pass)
//Storyboard Layer 3 (Foreground)
//Storyboard Sound Samples

[TimingPoints]
276,444.144444444444,4,2,0,50,1,0
276,-100,4,2,0,20,0,0
7382,-83.3333333333333,4,2,0,50,0,0
36029,-76.9230769230769,4,2,0,50,0,0
57348,-76.9230769230769,4,2,0,20,0,0
62456,-66.6666666666667,4,2,0,50,0,0
78445,-83.3333333333333,4,2,0,50,0,0
92880,-76.9230769230769,4,2,0,50,0,0
114199,-76.9230769230769,4,2,0,20,0,0
120194,-66.6666666666667,4,2,0,50,0,0

[HitObjects]
356,67,276,5,0,2:0:0:0:
286,73,498,2,0,P|245:82|200:102,1,70,0|0,2:0|2:0,2:0:0:0:
240,158,942,1,0,2:0:0:0:
171,172,1164,2,0,P|148:207|130:253,1,70,0|0,2:0|2:0,2:0:0:0:
198,264,1608,2,0,P|207:304|227:349,1,70,0|0,2:0|2:0,2:0:0:0:
341,266,2052,5,0,2:0:0:0:
375,205,2274,2,0,P|356:165|308:136,1,70,0|0,2:0|2:0,2:0:0:0:
390,103,2718,1,0,2:0:0:0:
329,69,2940,2,0,P|289:88|260:136,1,70,0|0,2:0|2:0,2:0:0:0:
193,115,3385,2,0,P|212:155|260:184,1,70,0|0,2:0|2:0,2:0:0:0:
350,245,3829,6,0,P|307:244|266:255,1,70,0|0,2:0|2:0,2:0:0:0:
235,301,4273,1,0,2:0:0:0:
212,236,4495,1,0,2:0:0:0:
168,290,4717,2,0,P|136:260|115:223,1,70,0|0,2:0|2:0,2:0:0:0:
126,169,5161,1,0,2:0:0:0:
64,198,5383,1,0,2:0:0:0:
138,79,5605,6,0,P|181:78|229:64,1,70,0|0,2:0|2:0,2:0:0:0:
282,106,6049,1,0,2:0:0:0:
282,106,6271,1,0,2:0:0:0:
260,191,6494,2,0,P|217:192|169:206,1,70,0|0,2:0|2:0,2:0:0:0:
116,164,6938,1,0,2:0:0:0:
116,164,7160,1,0,2:0:0:0:
116,164,7382,6,0,B|145:195|145:195|198:201,1,83.9999974365235,0|0,2:0|2:0,2:0:0:0:
345,204,7826,1,0,2:0:0:0:
163,271,8048,1,0,2:0:0:0:
323,279,8270,2,0,B|294:310|294:310|241:316,1,83.9999974365235,0|0,2:0|2:0,2:0:0:0:
106,335,8714,1,0,2:0:0:0:
255,229,8936,1,0,2:0:0:0:
73,189,9158,6,0,P|126:186|176:161,1,83.9999974365235,0|0,2:0|2:0,2:0:0:0:
298,148,9603,2,0,P|245:145|195:120,1,83.9999974365235,0|0,2:0|2:0,2:0:0:0:
174,55,10047,2,0,P|227:58|277:83,1,83.9999974365235,0|0,2:0|2:0,2:0:0:0:
415,132,10491,1,0,2:0:0:0:
298,148,10713,1,0,2:0:0:0:
456,217,10935,5,0,2:0:0:0:
348,76,11157,1,0,2:0:0:0:
336,260,11379,1,0,2:0:0:0:
255,75,11601,1,0,2:0:0:0:
416,251,11823,1,0,2:0:0:0:
242,185,12045,1,0,2:0:0:0:
336,260,12267,2,0,P|366:301|371:340,1,83.9999974365235,0|0,2:0|2:0,2:0:0:0:
203,316,12712,6,0,P|173:275|168:236,1,83.9999974365235,0|0,2:0|2:0,2:0:0:0:
198,81,13156,1,0,2:0:0:0:
120,156,13378,1,0,2:0:0:0:
276,136,13600,2,0,P|326:135|361:154,1,83.9999974365235,0|0,2:0|2:0,2:0:0:0:
451,253,14044,1,0,2:0:0:0:
301,209,14266,1,0,2:0:0:0:
337,344,14488,5,0,2:0:0:0:
337,38,14710,1,0,2:0:0:0:
157,285,14932,1,0,2:0:0:0:
448,191,15154,1,0,2:0:0:0:
157,96,15376,1,0,2:0:0:0:
337,344,15598,1,0,2:0:0:0:
337,38,15820,1,0,2:0:0:0:
157,285,16042,1,0,2:0:0:0:
448,191,16265,6,0,P|505:154|508:124,1,83.9999974365235,0|0,2:0|2:0,2:0:0:0:
337,38,16709,2,0,P|297:50|277:85,1,83.9999974365235,0|0,2:0|2:0,2:0:0:0:
216,227,17153,1,0,2:0:0:0:
348,160,17375,1,0,2:0:0:0:
146,161,17597,2,0,P|102:155|70:130,1,83.9999974365235,0|0,2:0|2:0,2:0:0:0:
131,90,18041,6,0,P|175:96|207:121,1,83.9999974365235,0|0,2:0|2:0,2:0:0:0:
274,102,18485,2,0,P|274:143|250:177,1,83.9999974365235,0|0,2:0|2:0,2:0:0:0:
229,244,18930,2,0,P|270:244|306:222,1,83.9999974365235,0|0,2:0|2:0,2:0:0:0:
400,99,19374,1,0,2:0:0:0:
387,209,19596,2,0,P|359:266|268:315,1,167.999994873047,0|0,2:0|2:0,2:0:0:0:
154,321,20262,1,0,2:0:0:0:
154,321,20484,1,0,2:0:0:0:
154,321,20706,5,0,2:0:0:0:
117,233,20928,2,0,L|70:214,2,41.9999987182618,0|0|0,2:0|2:0|2:0,2:0:0:0:
276,262,21372,1,0,2:0:0:0:
131,125,21594,6,0,P|157:149|230:155,1,83.9999974365235,0|0,2:0|2:0,2:0:0:0:
376,117,22039,2,0,P|342:127|301:187,1,83.9999974365235,0|0,2:0|2:0,2:0:0:0:
260,333,22483,2,0,P|268:299|236:233,1,83.9999974365235,0|0,2:0|2:0,2:0:0:0:
131,125,22927,1,0,2:0:0:0:
146,295,23149,1,0,2:0:0:0:
58,104,23371,6,0,P|64:157|105:202,1,83.9999974365235,0|0,2:0|2:0,2:0:0:0:
255,253,23815,1,0,2:0:0:0:
131,125,24037,1,0,2:0:0:0:
328,274,24259,2,0,P|322:221|281:176,1,83.9999974365235,0|0,2:0|2:0,2:0:0:0:
209,204,24703,2,0,P|230:155|217:95,1,83.9999974365235,0|0,2:0|2:0,2:0:0:0:
162,73,25148,2,0,P|209:49|238:-4,1,83.9999974365235,0|0,2:0|2:0,2:0:0:0:
340,44,25592,6,0,P|292:67|263:121,2,83.9999974365235,0|0|0,2:0|2:0|2:0,2:0:0:0:
503,73,26258,1,0,2:0:0:0:
305,195,26480,1,0,2:0:0:0:
437,216,26702,1,0,2:0:0:0:
244,83,26924,2,0,P|204:72|136:78,1,83.9999974365235,0|0,2:0|2:0,2:0:0:0:
64,116,27368,1,0,2:0:0:0:
64,116,27590,1,0,2:0:0:0:
64,116,27812,5,0,2:0:0:0:
103,216,28034,2,0,L|147:242,2,41.9999987182618,0|0|0,2:0|2:0|2:0,2:0:0:0:
34,41,28478,1,0,2:0:0:0:
131,125,28700,6,0,P|157:149|230:155,1,83.9999974365235,0|0,2:0|2:0,2:0:0:0:
264,43,29145,2,0,P|230:53|188:113,1,83.9999974365235,8|0,2:0|2:0,2:0:0:0:
268,199,29589,2,0,P|275:164|244:98,1,83.9999974365235,0|0,2:0|2:0,2:0:0:0:
167,19,30033,1,8,2:0:0:0:
103,216,30255,1,0,2:0:0:0:
240,38,30477,6,0,P|207:80|149:97,1,83.9999974365235,0|0,2:0|2:0,2:0:0:0:
8,190,30921,1,8,2:0:0:0:
293,118,31143,1,0,2:0:0:0:
26,101,31366,2,0,P|57:134|120:145,1,83.9999974365235,0|0,2:0|2:0,2:0:0:0:
169,261,31810,2,0,P|138:228|75:217,1,83.9999974365235,8|0,2:0|2:0,2:0:0:0:
97,291,32254,6,0,P|128:324|191:335,1,83.9999974365235,0|0,2:0|2:0,2:0:0:0:
275,290,32698,2,0,L|220:309,1,41.9999987182618,8|0,2:0|2:0,2:0:0:0:
275,290,32920,1,0,2:0:0:0:
446,263,33142,1,0,2:0:0:0:
218,179,33364,1,0,2:0:0:0:
479,159,33586,2,0,B|447:169|447:169|409:164|409:164|376:174,1,83.9999974365235,8|0,2:0|2:0,2:0:0:0:
218,179,34030,5,0,2:0:0:0:
324,205,34253,1,0,2:0:0:0:
210,80,34475,1,8,2:0:0:0:
250,270,34697,1,0,2:0:0:0:
328,85,34919,1,0,2:0:0:0:
346,301,35141,1,0,2:0:0:0:
115,93,35363,2,0,B|169:121|169:121|161:143|161:143|182:134|182:134|221:182,1,167.999994873047,0|4,2:0|2:0,2:0:0:0:
250,270,36029,5,0,2:0:0:0:
326,330,36251,2,0,P|375:268|379:233,1,90.9999958343508,8|0,2:0|2:0,2:0:0:0:
318,96,36695,1,0,2:0:0:0:
456,235,36917,2,0,P|422:182|422:140,1,90.9999958343508,0|8,2:0|2:0,2:0:0:0:
281,175,37362,2,0,P|315:122|315:80,1,90.9999958343508,0|0,2:0|2:0,2:0:0:0:
386,29,37806,5,0,2:0:0:0:
193,89,38028,1,8,2:0:0:0:
419,155,38250,2,0,P|357:117|320:112,1,90.9999958343508,0|0,2:0|2:0,2:0:0:0:
193,89,38694,1,0,2:0:0:0:
347,192,38916,1,8,2:0:0:0:
64,96,39138,1,0,2:0:0:0:
225,179,39360,6,0,P|181:214|127:225,1,90.9999958343508,0|0,2:0|2:0,2:0:0:0:
113,295,39804,2,0,P|78:251|67:197,1,90.9999958343508,8|0,2:0|2:0,2:0:0:0:
64,96,40248,1,0,2:0:0:0:
212,304,40471,1,0,2:0:0:0:
171,88,40693,1,8,2:0:0:0:
319,296,40916,1,0,2:0:0:0:
302,108,41137,2,0,P|242:141|232:171,1,90.9999958343508,0|0,2:0|2:0,2:0:0:0:
163,159,41581,2,0,P|196:219|226:229,1,90.9999958343508,8|0,2:0|2:0,2:0:0:0:
214,298,42025,2,0,P|274:265|284:235,1,90.9999958343508,0|0,2:0|2:0,2:0:0:0:
302,179,42469,6,0,P|339:204|353:247,1,90.9999958343508,8|0,2:0|2:0,2:0:0:0:
354,317,42913,2,0,P|396:303|421:266,1,90.9999958343508,0|0,2:0|2:0,2:0:0:0:
366,49,43358,1,8,2:0:0:0:
467,167,43580,1,0,2:0:0:0:
256,49,43802,2,0,P|204:30|150:35,1,90.9999958343508,0|0,2:0|2:0,2:0:0:0:
10,83,44246,5,8,2:0:0:0:
145,137,44468,1,0,2:0:0:0:
99,62,44690,1,0,2:0:0:0:
141,255,44912,1,0,2:0:0:0:
190,61,45134,1,8,2:0:0:0:
48,310,45356,1,0,2:0:0:0:
264,113,45578,2,0,P|321:82|379:89,1,90.9999958343508,0|0,2:0|2:0,2:0:0:0:
490,98,46022,1,8,2:0:0:0:
376,169,46244,1,0,2:0:0:0:
486,184,46467,6,0,P|433:222|415:278,1,90.9999958343508,0|0,2:0|2:0,2:0:0:0:
356,351,46911,1,8,2:0:0:0:
500,263,47133,1,0,2:0:0:0:
325,260,47355,2,0,P|269:259|207:234,1,90.9999958343508,0|0,2:0|2:0,2:0:0:0:
111,90,47799,1,8,2:0:0:0:
381,71,48021,1,0,2:0:0:0:
132,212,48243,6,0,B|168:205|168:205|184:198|184:198|191:189|191:189|201:192|201:192|221:188|221:188|236:178,2,90.9999958343508,0|0|8,2:0|2:0|2:0,2:0:0:0:
43,302,48909,1,0,2:0:0:0:
189,283,49131,1,0,2:0:0:0:
15,203,49353,1,0,2:0:0:0:
129,342,49576,1,0,2:0:0:0:
37,98,49798,1,0,2:0:0:0:
230,338,50020,6,0,P|279:305|309:263,1,90.9999958343508,0|0,2:0|2:0,2:0:0:0:
342,345,50464,2,0,P|367:291|372:240,1,90.9999958343508,0|0,2:0|2:0,2:0:0:0:
442,295,50908,2,0,P|437:236|416:189,1,90.9999958343508,0|0,2:0|2:0,2:0:0:0:
372,260,51352,6,0,P|318:234|267:229,1,90.9999958343508,0|0,2:0|2:0,2:0:0:0:
322,159,51796,2,0,P|263:163|216:184,1,90.9999958343508,0|0,2:0|2:0,2:0:0:0:
228,98,52240,2,0,P|178:130|148:172,1,90.9999958343508,0|0,2:0|2:0,2:0:0:0:
25,187,52685,6,0,P|136:241|183:220,1,181.999991668702,0|0,2:0|2:0,2:0:0:0:
48,64,53351,1,0,2:0:0:0:
88,313,53573,2,0,P|149:346|197:264,1,181.999991668702,0|0,2:0|2:0,2:0:0:0:
464,64,54239,1,0,2:0:0:0:
424,313,54461,2,0,P|363:346|315:264,1,181.999991668702,0|0,2:0|2:0,2:0:0:0:
85,168,55127,5,0,2:0:0:0:
468,202,55349,2,0,P|433:174|389:172,1,90.9999958343508,0|0,2:0|2:0,2:0:0:0:
290,138,55794,2,0,P|327:222|421:237,1,181.999991668702,0|0,2:0|2:0,2:0:0:0:
256,192,56349,12,0,57126,2:0:0:0:
117,263,57348,5,2,2:0:0:0:
273,214,57570,1,2,2:0:0:0:
169,341,57792,5,2,2:0:0:0:
178,177,58014,1,2,2:0:0:0:
269,312,58236,5,2,2:0:0:0:
243,150,58458,1,2,2:0:0:0:
352,271,58680,5,2,2:0:0:0:
189,246,58903,1,2,2:0:0:0:
338,178,59125,5,2,2:0:0:0:
174,173,59347,1,2,2:0:0:0:
266,308,59569,5,2,2:0:0:0:
403,218,59791,1,2,2:0:0:0:
260,138,60013,5,2,2:0:0:0:
343,278,60235,1,2,2:0:0:0:
179,268,60457,5,2,2:0:0:0:
326,195,60679,1,2,2:0:0:0:
164,170,60901,5,2,2:0:0:0:
261,302,61123,1,2,2:0:0:0:
260,138,61345,5,2,2:0:0:0:
385,228,61567,1,2,2:0:0:0:
220,221,61790,5,2,2:0:0:0:
357,131,62012,1,2,2:0:0:0:
364,113,63344,5,0,2:0:0:0:
288,204,63566,1,0,2:0:0:0:
288,204,63677,1,0,2:0:0:0:
288,204,63788,1,0,2:0:0:0:
98,80,64010,1,0,2:0:0:0:
327,294,64232,5,4,2:0:0:0:
253,52,64454,1,0,2:0:0:0:
133,345,64676,2,0,P|179:304|247:274,1,105.000004005432,8|0,2:0|2:0,2:0:0:0:
428,123,65121,1,0,2:0:0:0:
75,242,65343,1,0,2:0:0:0:
390,323,65565,2,0,P|344:297|305:261,1,105.000004005432,8|0,2:0|2:0,2:0:0:0:
302,10,66009,6,0,P|303:62|291:113,1,105.000004005432,0|0,2:0|2:0,2:0:0:0:
75,242,66453,2,0,P|120:215|170:200,1,105.000004005432,8|0,2:0|2:0,2:0:0:0:
412,163,66897,1,0,2:0:0:0:
495,214,67119,1,0,2:0:0:0:
101,117,67341,1,8,2:0:0:0:
191,158,67563,1,0,2:0:0:0:
434,50,67785,5,0,2:0:0:0:
153,282,68008,1,0,2:0:0:0:
497,124,68230,1,8,2:0:0:0:
36,88,68452,1,0,2:0:0:0:
358,273,68674,1,0,2:0:0:0:
175,10,68896,1,0,2:0:0:0:
358,273,69118,2,0,P|441:287|491:277,1,105.000004005432,8|0,2:0|2:0,2:0:0:0:
458,339,69562,5,0,2:0:0:0:
340,310,69784,1,0,2:0:0:0:
54,45,70006,1,8,2:0:0:0:
172,74,70228,1,0,2:0:0:0:
54,339,70450,1,0,2:0:0:0:
172,310,70672,1,0,2:0:0:0:
458,45,70894,1,8,2:0:0:0:
340,74,71116,1,0,2:0:0:0:
179,363,71339,5,0,2:0:0:0:
271,18,71561,1,0,2:0:0:0:
53,144,71783,1,8,2:0:0:0:
397,237,72005,1,0,2:0:0:0:
149,352,72227,1,0,2:0:0:0:
300,28,72449,1,0,2:0:0:0:
63,114,72671,1,8,2:0:0:0:
386,266,72893,1,0,2:0:0:0:
122,336,73115,6,0,P|45:305|84:186,2,210.000008010865,0|8|0,2:0|2:0|2:0,2:0:0:0:
282,322,74226,1,0,2:0:0:0:
432,130,74448,1,8,2:0:0:0:
126,266,74670,1,0,2:0:0:0:
390,336,74892,6,0,P|467:305|428:186,2,210.000008010865,0|8|0,2:0|2:0|2:0,2:0:0:0:
222,263,76002,1,0,2:0:0:0:
92,203,76224,1,8,2:0:0:0:
227,68,76446,1,0,2:0:0:0:
351,193,76668,6,0,P|294:202|225:189,1,105.000004005432,0|0,2:0|2:0,2:0:0:0:
126,115,77112,1,8,2:0:0:0:
295,128,77335,1,0,2:0:0:0:
145,32,77557,1,0,2:0:0:0:
207,167,77779,1,0,2:0:0:0:
245,43,78001,1,0,2:0:0:0:
126,115,78223,1,0,2:0:0:0:
418,92,78445,6,0,P|360:100|305:122,1,83.9999974365235,0|0,2:0|2:0,2:0:0:0:
290,187,78889,2,0,P|348:179|397:159,1,83.9999974365235,0|0,2:0|2:0,2:0:0:0:
473,158,79333,1,0,0:0:0:0:
435,238,79555,1,0,0:0:0:0:
296,260,79777,2,0,P|375:280|392:311,1,83.9999974365235
320,327,80221,6,0,L|233:332,1,83.9999974365235
60,286,80666,1,0,0:0:0:0:
195,255,80888,1,0,0:0:0:0:
41,97,81110,2,0,P|66:145|111:176,1,83.9999974365235
234,167,81554,1,0,0:0:0:0:
133,93,81776,1,0,0:0:0:0:
330,113,81998,6,0,P|366:140|388:177,1,83.9999974365235
317,212,82442,2,0,P|342:256|363:266,1,41.9999987182618
352,327,82664,2,0,P|316:288|261:255,1,83.9999974365235
133,204,83108,1,0,0:0:0:0:
208,328,83331,1,0,0:0:0:0:
214,160,83553,1,0,0:0:0:0:
127,291,83775,5,0,0:0:0:0:
144,129,83997,1,0,0:0:0:0:
215,243,84219,1,0,0:0:0:0:
72,158,84441,1,0,0:0:0:0:
203,317,84663,1,0,0:0:0:0:
27,228,84885,1,0,0:0:0:0:
27,228,84996,1,0,0:0:0:0:
27,228,85107,1,0,0:0:0:0:
64,76,85329,1,0,0:0:0:0:
158,146,85551,6,0,P|252:143|267:127,1,83.9999974365235
404,77,85995,2,0,P|306:85|295:96,1,83.9999974365235
360,228,86440,2,0,P|354:133|341:119,1,83.9999974365235,0|0,2:0|2:0,2:0:0:0:
158,146,86884,2,0,P|252:143|267:127,1,83.9999974365235
203,82,87328,6,0,P|108:88|94:101,1,83.9999974365235
75,155,87772,1,0,0:0:0:0:
116,226,87994,1,0,0:0:0:0:
116,81,88216,1,0,0:0:0:0:
38,225,88438,1,0,0:0:0:0:
158,146,88660,1,0,0:0:0:0:
37,129,88882,1,0,0:0:0:0:
241,294,89104,5,0,0:0:0:0:
116,226,89326,1,0,0:0:0:0:
354,324,89549,2,0,L|328:284,1,41.9999987182618
344,200,89771,2,0,P|368:275|390:292,1,83.9999974365235
447,337,90215,1,0,0:0:0:0:
417,218,90437,1,0,0:0:0:0:
352,374,90659,1,0,0:0:0:0:
489,241,90881,6,0,P|484:184|448:148,1,83.9999974365235
372,82,91325,1,0,0:0:0:0:
298,230,91547,1,0,0:0:0:0:
241,27,91769,1,0,0:0:0:0:
192,141,91991,1,0,0:0:0:0:
192,141,92102,1,0,0:0:0:0:
192,141,92213,2,0,B|246:169|246:169|238:191|238:191|259:182|259:182|298:230,1,167.999994873047,0|4,2:0|2:0,2:0:0:0:
150,218,92879,5,0,2:0:0:0:
153,350,93101,2,0,P|202:288|206:253,1,90.9999958343508,8|0,2:0|2:0,2:0:0:0:
307,91,93545,1,0,2:0:0:0:
395,280,93767,2,0,P|361:227|361:185,1,90.9999958343508,0|8,2:0|2:0,2:0:0:0:
270,170,94212,2,0,P|304:117|304:75,1,90.9999958343508,0|0,2:0|2:0,2:0:0:0:
406,27,94656,5,0,2:0:0:0:
186,52,94878,1,8,2:0:0:0:
385,131,95100,2,0,P|323:93|286:88,1,90.9999958343508,0|0,2:0|2:0,2:0:0:0:
186,52,95544,1,0,2:0:0:0:
314,168,95766,1,8,2:0:0:0:
91,119,95988,1,0,2:0:0:0:
385,208,96210,6,0,P|341:243|287:254,1,90.9999958343508,0|0,2:0|2:0,2:0:0:0:
113,295,96654,2,0,P|78:251|67:197,1,90.9999958343508,8|0,2:0|2:0,2:0:0:0:
67,96,97098,1,0,2:0:0:0:
208,244,97321,1,0,2:0:0:0:
150,54,97543,1,8,2:0:0:0:
283,276,97766,1,0,2:0:0:0:
311,100,97987,2,0,P|251:133|241:163,1,90.9999958343508,0|0,2:0|2:0,2:0:0:0:
314,172,98431,2,0,P|351:197|365:240,1,90.9999958343508,8|0,2:0|2:0,2:0:0:0:
366,310,98875,2,0,P|426:277|436:247,1,90.9999958343508,0|0,2:0|2:0,2:0:0:0:
314,172,99319,6,0,P|351:197|365:240,1,90.9999958343508,8|0,2:0|2:0,2:0:0:0:
227,292,99763,2,0,P|269:278|294:241,1,90.9999958343508,0|0,2:0|2:0,2:0:0:0:
354,70,100208,1,8,2:0:0:0:
433,259,100430,1,0,2:0:0:0:
327,147,100652,2,0,P|275:128|221:133,1,90.9999958343508,0|0,2:0|2:0,2:0:0:0:
41,201,101096,5,8,2:0:0:0:
190,61,101318,1,0,2:0:0:0:
47,108,101540,1,0,2:0:0:0:
147,271,101762,1,0,2:0:0:0:
190,61,101984,1,8,2:0:0:0:
48,310,102206,1,0,2:0:0:0:
235,178,102428,2,0,P|292:147|350:154,1,90.9999958343508,0|0,2:0|2:0,2:0:0:0:
451,102,102872,1,8,2:0:0:0:
305,220,103094,1,0,2:0:0:0:
470,186,103317,6,0,P|417:224|399:280,1,90.9999958343508,0|0,2:0|2:0,2:0:0:0:
354,352,103761,1,8,2:0:0:0:
485,263,103983,1,0,2:0:0:0:
305,220,104205,2,0,P|249:219|187:194,1,90.9999958343508,0|0,2:0|2:0,2:0:0:0:
100,113,104649,1,8,2:0:0:0:
326,46,104871,1,0,2:0:0:0:
132,212,105093,6,0,B|168:205|168:205|184:198|184:198|191:189|191:189|201:192|201:192|221:188|221:188|239:185|239:185|242:177|242:177|255:177|255:177|266:186|266:186|276:178|276:178|314:162,1,181.999991668702,0|0,2:0|2:0,2:0:0:0:
41,299,105759,1,0,2:0:0:0:
251,261,105981,1,0,2:0:0:0:
132,212,106203,1,0,2:0:0:0:
157,334,106426,1,0,2:0:0:0:
32,110,106648,1,0,2:0:0:0:
230,338,106870,6,0,P|279:305|309:263,1,90.9999958343508,0|0,2:0|2:0,2:0:0:0:
371,260,107314,2,0,P|362:304|342:345,1,90.9999958343508,0|0,2:0|2:0,2:0:0:0:
442,295,107758,2,0,P|437:236|416:189,1,90.9999958343508,0|0,2:0|2:0,2:0:0:0:
287,229,108202,6,0,P|332:238|372:260,1,90.9999958343508,0|0,2:0|2:0,2:0:0:0:
322,159,108646,2,0,P|263:163|216:184,1,90.9999958343508,0|0,2:0|2:0,2:0:0:0:
158,154,109090,2,0,P|188:120|228:98,1,90.9999958343508,0|0,2:0|2:0,2:0:0:0:
181,221,109535,6,0,P|95:240|25:187,1,181.999991668702,0|0,2:0|2:0,2:0:0:0:
48,64,110201,1,0,2:0:0:0:
88,313,110423,2,0,P|149:346|197:264,1,181.999991668702,0|0,2:0|2:0,2:0:0:0:
464,64,111089,1,0,2:0:0:0:
424,313,111311,2,0,P|363:346|315:264,1,181.999991668702,0|0,2:0|2:0,2:0:0:0:
85,168,111977,5,0,2:0:0:0:
468,202,112199,2,0,P|433:174|389:172,1,90.9999958343508,0|0,2:0|2:0,2:0:0:0:
290,138,112644,2,0,P|327:222|421:237,1,181.999991668702,0|0,2:0|2:0,2:0:0:0:
256,192,113199,12,0,113976,2:0:0:0:
382,319,114198,5,2,2:0:0:0:
244,214,114420,1,2,2:0:0:0:
357,217,114642,5,2,2:0:0:0:
156,148,114864,1,2,2:0:0:0:
282,311,115086,5,2,2:0:0:0:
257,127,115308,1,2,2:0:0:0:
382,319,115530,5,2,2:0:0:0:
189,246,115753,1,2,2:0:0:0:
429,253,115975,5,2,2:0:0:0:
179,163,116197,1,2,2:0:0:0:
254,323,116419,5,2,2:0:0:0:
351,174,116641,1,2,2:0:0:0:
260,138,116863,5,2,2:0:0:0:
343,278,117085,1,2,2:0:0:0:
179,268,117307,5,2,2:0:0:0:
326,195,117529,1,2,2:0:0:0:
164,170,117751,5,2,2:0:0:0:
261,302,117973,1,2,2:0:0:0:
260,138,118195,5,2,2:0:0:0:
385,228,118417,1,2,2:0:0:0:
220,221,118640,5,2,2:0:0:0:
357,131,118862,1,2,2:0:0:0:
299,290,119084,5,0,0:0:0:0:
261,128,119306,1,0,0:0:0:0:
364,113,120194,5,0,2:0:0:0:
288,204,120416,1,0,2:0:0:0:
288,204,120527,1,0,2:0:0:0:
288,204,120638,1,0,2:0:0:0:
98,80,120860,1,0,2:0:0:0:
406,330,121082,5,4,2:0:0:0:
223,117,121304,1,0,2:0:0:0:
180,348,121526,2,0,P|226:307|294:277,1,105.000004005432,8|0,2:0|2:0,2:0:0:0:
430,37,121971,1,0,2:0:0:0:
46,231,122193,1,0,2:0:0:0:
364,257,122415,2,0,P|318:231|279:195,1,105.000004005432,8|0,2:0|2:0,2:0:0:0:
287,21,122859,6,0,P|288:73|276:124,1,105.000004005432,0|0,2:0|2:0,2:0:0:0:
116,210,123303,2,0,P|161:183|211:168,1,105.000004005432,8|0,2:0|2:0,2:0:0:0:
430,188,123747,1,0,2:0:0:0:
430,188,123969,1,0,2:0:0:0:
101,117,124191,1,8,2:0:0:0:
101,117,124413,1,0,2:0:0:0:
352,101,124635,5,0,2:0:0:0:
68,232,124858,1,0,2:0:0:0:
465,129,125080,1,8,2:0:0:0:
101,117,125302,1,0,2:0:0:0:
444,205,125524,1,0,2:0:0:0:
215,63,125746,1,0,2:0:0:0:
384,264,125968,2,0,P|467:278|517:268,1,105.000004005432,8|0,2:0|2:0,2:0:0:0:
470,352,126413,5,0,2:0:0:0:
298,271,126634,1,0,2:0:0:0:
42,32,126857,1,0,2:0:0:0:
214,113,127078,1,0,2:0:0:0:
42,352,127301,1,0,2:0:0:0:
214,271,127522,1,0,2:0:0:0:
470,32,127745,1,0,2:0:0:0:
298,113,127966,1,0,2:0:0:0:
45,293,128189,5,0,0:0:0:0:
374,103,128411,1,0,0:0:0:0:
26,149,128633,1,0,0:0:0:0:
393,247,128855,1,0,0:0:0:0:
114,33,129077,1,0,0:0:0:0:
305,363,129299,1,0,0:0:0:0:
259,14,129522,1,0,0:0:0:0:
160,382,129744,1,0,0:0:0:0:
252,189,129965,6,0,P|345:161|392:246,2,210.000008010865,0|8|0,2:0|2:0|2:0,2:0:0:0:
318,338,131076,1,0,2:0:0:0:
465,197,131298,1,8,2:0:0:0:
335,60,131520,1,0,2:0:0:0:
315,228,131742,6,0,P|221:255|174:170,2,210.000008010865,0|8|0,2:0|2:0|2:0,2:0:0:0:
262,339,132852,1,0,2:0:0:0:
84,191,133074,1,8,2:0:0:0:
239,70,133296,1,0,2:0:0:0:
351,193,133518,6,0,P|294:202|225:189,1,105.000004005432,0|0,2:0|2:0,2:0:0:0:
86,100,133962,1,8,2:0:0:0:
302,135,134185,1,0,2:0:0:0:
175,53,134407,1,0,2:0:0:0:
172,220,134629,1,0,2:0:0:0:
266,58,134851,1,0,2:0:0:0:
98,179,135073,1,0,2:0:0:0:
380,326,135295,5,4,2:0:0:0:
221,159,135517,1,0,2:0:0:0:
175,279,135739,2,0,P|231:269|268:223,1,105.000004005432,8|0,2:0|2:0,2:0:0:0:
256,347,136184,1,0,0:0:0:0:
256,36,136406,1,0,0:0:0:0:
100,191,136628,1,0,0:0:0:0:
411,192,136850,1,0,0:0:0:0:
86,339,137072,6,0,P|129:273|176:266,1,105.000004005432
372,93,137516,2,0,P|329:159|282:166,1,105.000004005432
430,188,137960,1,0,2:0:0:0:
430,188,138182,1,0,2:0:0:0:
101,117,138404,1,8,2:0:0:0:
101,117,138626,1,0,2:0:0:0:
288,25,138848,5,0,2:0:0:0:
83,320,139071,1,0,2:0:0:0:
469,207,139293,1,8,2:0:0:0:
70,39,139515,1,0,2:0:0:0:
410,346,139737,1,0,2:0:0:0:
184,26,139959,1,0,2:0:0:0:
384,264,140181,2,0,P|467:278|517:268,1,105.000004005432,8|0,2:0|2:0,2:0:0:0:
154,293,140625,5,0,0:0:0:0:
493,183,140847,1,0,0:0:0:0:
154,73,141069,1,8,0:0:0:0:
364,362,141291,1,0,0:0:0:0:
364,5,141513,1,0,0:0:0:0:
154,293,141736,1,0,0:0:0:0:
493,183,141958,1,8,0:0:0:0:
154,73,142180,1,0,0:0:0:0:
45,293,142402,5,0,0:0:0:0:
374,103,142624,1,0,0:0:0:0:
26,149,142846,1,8,0:0:0:0:
393,247,143068,1,0,0:0:0:0:
114,33,143290,1,0,0:0:0:0:
305,363,143512,1,0,0:0:0:0:
259,14,143735,1,8,0:0:0:0:
160,382,143957,1,0,0:0:0:0:
252,189,144178,6,0,P|345:161|392:246,2,210.000008010865,0|8|0,2:0|2:0|2:0,2:0:0:0:
318,338,145289,1,0,2:0:0:0:
465,197,145511,1,8,2:0:0:0:
335,60,145733,1,0,2:0:0:0:
315,228,145955,6,0,P|221:255|174:170,2,210.000008010865,0|8|0,2:0|2:0|2:0,2:0:0:0:
262,339,147065,1,0,2:0:0:0:
84,191,147287,1,8,2:0:0:0:
239,70,147509,1,0,2:0:0:0:
351,193,147731,6,0,P|294:202|225:189,1,105.000004005432,0|0,2:0|2:0,2:0:0:0:
66,70,148175,1,8,2:0:0:0:
431,241,148398,1,0,2:0:0:0:
323,32,148620,1,0,2:0:0:0:
151,319,148842,1,0,2:0:0:0:
196,17,149064,1,0,2:0:0:0:
55,215,149286,1,0,2:0:0:0:
428,112,149508,1,4,0:0:0:0:
