osu file format v14

[General]
AudioFilename: audio.mp3
AudioLeadIn: 0
PreviewTime: 54298
Countdown: 1
SampleSet: Soft
StackLeniency: 0.7
Mode: 0
LetterboxInBreaks: 0
WidescreenStoryboard: 1

[Editor]
DistanceSpacing: 3.5
BeatDivisor: 4
GridSize: 4
TimelineZoom: 1.9

[Metadata]
Title:Refrain Boy -TV Size-
TitleUnicode:リフレインボーイ -TV Size-
Artist:ALL OFF
ArtistUnicode:ALL OFF
Creator:Vanilla Vat
Version:Refrain
Source:モブサイコ100
Tags:mob psycho 100 ed TV Size chenwu Vanilla vat
BeatmapID:1353458
BeatmapSetID:511417

[Difficulty]
HPDrainRate:7
CircleSize:4
OverallDifficulty:8
ApproachRate:9.2
SliderMultiplier:1.6
SliderTickRate:1

[Events]
//Background and Video events
0,0,"CoLYN574aVYAAt3kN.png",0,0
Video,0,"RB.avi"
//Break Periods
//Storyboard Layer 0 (Background)
//Storyboard Layer 1 (Fail)
//Storyboard Layer 2 (Pass)
//Storyboard Layer 3 (Foreground)
//Storyboard Sound Samples

[TimingPoints]
-21,315.789473684211,4,2,0,40,1,0
1242,-166.666666666667,4,2,0,30,0,0
8189,-111.111111111111,4,2,0,30,0,0
10715,-166.666666666666,4,2,0,30,0,0
11347,-100,4,2,0,30,0,0
21452,-166.666666666667,4,2,0,10,0,0
30452,-142.857142857143,4,2,0,15,0,0
30768,-125,4,2,0,20,0,0
31084,-111.111111111111,4,2,0,25,0,0
31400,-100,4,2,0,30,0,0
55557,-90.9090909090909,4,2,0,40,0,1
76400,-90.9090909090909,4,2,0,5,0,0
77031,-100,4,2,0,30,0,0
87136,-166.666666666667,4,2,0,5,0,0
87610,-100,4,2,0,30,0,0

[HitObjects]
72,44,1084,5,0,0:0:0:0:
76,48,1163,1,0,0:0:0:0:
76,48,1242,2,0,L|136:340,1,287.999991210938
216,252,2347,5,0,0:0:0:0:
216,252,2426,1,0,0:0:0:0:
216,252,2505,2,0,P|311:306|428:184,1,287.999991210938
404,56,3610,5,0,0:0:0:0:
404,56,3689,1,0,0:0:0:0:
404,56,3768,2,0,P|344:148|184:92,1,287.999991210938
141,15,4873,5,0,0:0:0:0:
141,15,4952,1,0,0:0:0:0:
141,15,5031,2,0,P|209:51|300:16,1,167.999994873047
312,12,5663,5,0,0:0:0:0:
336,4,5742,1,0,0:0:0:0:
364,8,5821,1,0,0:0:0:0:
396,24,5900,1,0,0:0:0:0:
428,60,5979,1,0,0:0:0:0:
428,112,6057,1,0,0:0:0:0:
392,160,6136,1,10,0:0:0:0:
324,176,6215,1,10,0:0:0:0:
248,164,6294,2,0,L|212:156,1,23.9999992675781,10|10,0:0|0:0,0:0:0:0:
80,120,6452,5,8,0:0:0:0:
224,260,6610,1,2,0:0:0:0:
40,316,6768,1,8,0:0:0:0:
272,76,6926,1,2,0:0:0:0:
336,296,7084,1,8,0:0:0:0:
112,224,7242,1,2,0:0:0:0:
500,152,7400,1,2,0:0:0:0:
500,152,7479,1,2,0:0:0:0:
500,152,7557,1,2,0:0:0:0:
60,112,8189,5,2,0:0:0:0:
84,128,8268,1,2,0:0:0:0:
120,136,8347,1,2,0:0:0:0:
164,128,8426,1,2,0:0:0:0:
208,104,8505,1,2,0:0:0:0:
260,84,8584,1,2,0:0:0:0:
320,84,8663,1,2,0:0:0:0:
384,100,8742,1,2,0:0:0:0:
432,148,8821,2,0,P|444:232|368:252,1,143.999995605469
260,84,9452,5,8,0:0:0:0:
296,148,9531,1,8,0:0:0:0:
300,212,9610,1,8,0:0:0:0:
284,268,9689,1,8,0:0:0:0:
256,308,9768,1,8,0:0:0:0:
220,332,9847,1,8,0:0:0:0:
184,340,9926,1,8,0:0:0:0:
156,340,10005,1,8,0:0:0:0:
132,336,10084,5,2,0:0:0:0:
132,336,10400,1,2,0:0:0:0:
96,136,10715,2,0,L|116:244,1,95.9999970703126,8|8,0:0|0:0,0:0:0:0:
264,60,11347,6,0,L|252:168,1,80,2|0,0:0|0:0,0:0:0:0:
112,232,11663,2,0,L|128:320,1,80,8|0,0:0|0:0,0:0:0:0:
440,188,11979,1,2,0:0:0:0:
440,188,12136,2,0,L|424:292,1,80,8|0,0:0|0:0,0:0:0:0:
308,96,12452,5,2,0:0:0:0:
228,240,12610,2,8,L|306:225,1,80,8|0,0:0|0:0,0:0:0:0:
164,72,12926,2,0,L|68:88,1,80,8|0,0:0|0:0,0:0:0:0:
300,324,13242,5,2,0:0:0:0:
85,85,13400,1,8,0:0:0:0:
126,310,13557,5,2,0:0:0:0:
264,60,13715,1,8,0:0:0:0:
440,188,13873,6,0,L|344:204,1,80,2|0,0:0|0:0,0:0:0:0:
128,304,14189,2,0,L|224:288,1,80,8|0,0:0|0:0,0:0:0:0:
264,60,14505,1,2,0:0:0:0:
264,60,14663,2,0,L|185:73,1,80,8|0,0:0|0:0,0:0:0:0:
344,252,14979,5,2,0:0:0:0:
198,152,15136,2,0,L|184:73,1,80,8|0,0:0|0:0,0:0:0:0:
114,225,15452,2,0,L|127:303,1,80,8|0,0:0|0:0,0:0:0:0:
198,152,15768,5,2,0:0:0:0:
240,108,15847,1,2,0:0:0:0:
300,100,15926,1,2,0:0:0:0:
352,128,16005,1,2,0:0:0:0:
344,152,16084,1,2,0:0:0:0:
344,176,16163,1,2,0:0:0:0:
348,200,16242,1,2,0:0:0:0:
360,220,16321,1,2,0:0:0:0:
380,236,16400,6,0,P|328:232|284:256,1,80,2|0,0:0|0:0,0:0:0:0:
80,128,16715,2,0,P|132:132|176:108,1,80,8|0,0:0|0:0,0:0:0:0:
412,52,17031,1,2,0:0:0:0:
412,52,17189,2,0,P|360:48|316:72,1,80,8|0,0:0|0:0,0:0:0:0:
156,120,17505,5,2,0:0:0:0:
254,361,17663,2,0,P|258:309|234:265,1,80,8|0,0:0|0:0,0:0:0:0:
334,57,17979,2,0,P|330:109|354:153,1,80,8|0,0:0|0:0,0:0:0:0:
388,196,18294,5,2,0:0:0:0:
356,172,18373,1,2,0:0:0:0:
320,156,18452,1,2,0:0:0:0:
280,152,18531,1,2,0:0:0:0:
240,156,18610,1,2,0:0:0:0:
204,172,18689,1,2,0:0:0:0:
172,196,18768,1,2,0:0:0:0:
152,232,18847,1,2,0:0:0:0:
144,272,18926,6,0,L|104:176,1,80,2|0,0:0|0:0,0:0:0:0:
289,82,19242,2,0,L|329:178,1,80,8|0,0:0|0:0,0:0:0:0:
201,295,19557,5,2,0:0:0:0:
230,56,19715,1,8,0:0:0:0:
262,354,19873,5,2,0:0:0:0:
130,46,20031,1,8,0:0:0:0:
108,176,20189,6,0,P|151:146|201:145,1,80,2|0,0:0|0:0,0:0:0:0:
216,140,20426,1,8,0:0:0:0:
252,161,20505,1,8,0:0:0:0:
332,112,20663,5,2,0:0:0:0:
360,138,20742,1,2,0:0:0:0:
371,178,20821,1,8,0:0:0:0:
412,296,20979,5,8,0:0:0:0:
380,260,21057,1,8,0:0:0:0:
328,236,21136,1,8,0:0:0:0:
268,220,21215,1,8,0:0:0:0:
196,216,21294,1,8,0:0:0:0:
120,236,21373,1,8,0:0:0:0:
52,292,21452,5,2,0:0:0:0:
52,292,21768,1,0,0:0:0:0:
140,156,22084,1,2,0:0:0:0:
140,156,22400,1,0,0:0:0:0:
280,244,22715,5,2,0:0:0:0:
280,244,23031,1,0,0:0:0:0:
368,108,23347,1,2,0:0:0:0:
368,108,23663,1,2,0:0:0:0:
392,208,23821,1,2,0:0:0:0:
152,56,23979,6,0,L|172:168,1,95.9999970703126,2|0,0:0|0:0,0:0:0:0:
312,152,24610,2,0,L|288:260,1,95.9999970703126,2|0,0:0|0:0,0:0:0:0:
144,288,25242,2,0,L|172:180,1,95.9999970703126,2|0,0:0|0:0,0:0:0:0:
339,26,25873,2,0,L|312:136,1,95.9999970703126,2|0,0:0|0:0,0:0:0:0:
409,304,26347,5,2,0:0:0:0:
409,304,26426,1,2,0:0:0:0:
409,304,26505,2,0,L|340:296,1,47.9999985351563,2|0,0:0|0:0,0:0:0:0:
228,192,26821,2,0,L|292:204,1,47.9999985351563,2|0,0:0|0:0,0:0:0:0:
168,104,27136,2,0,L|104:92,1,47.9999985351563,2|0,0:0|0:0,0:0:0:0:
64,220,27452,2,0,L|120:212,1,47.9999985351563,2|0,0:0|0:0,0:0:0:0:
228,192,27768,5,2,0:0:0:0:
308,116,27926,1,0,0:0:0:0:
472,284,28084,5,2,0:0:0:0:
392,208,28242,1,0,0:0:0:0:
228,192,28400,5,2,0:0:0:0:
228,192,28557,1,2,0:0:0:0:
104,92,28715,1,2,0:0:0:0:
104,92,28873,1,2,0:0:0:0:
104,92,29031,6,0,L|168:72,1,47.9999985351563,2|0,0:0|0:0,0:0:0:0:
344,72,29347,2,0,L|276:92,1,47.9999985351563,2|0,0:0|0:0,0:0:0:0:
192,224,29663,5,2,0:0:0:0:
336,312,29821,1,0,0:0:0:0:
348,144,29979,5,2,0:0:0:0:
256,284,30136,1,0,0:0:0:0:
256,112,30294,1,0,0:0:0:0:
256,112,30452,2,0,L|288:212,1,83.9999974365235,8|0,0:0|0:0,0:0:0:0:
369,307,30768,6,0,L|334:200,1,96,8|0,0:0|0:0,0:0:0:0:
196,64,31084,6,0,L|228:172,1,107.999996704102,8|0,0:0|0:0,0:0:0:0:
128,228,31400,5,8,0:0:0:0:
128,228,31479,1,8,0:0:0:0:
128,228,31557,2,0,L|200:292,1,80,8|0,0:0|0:0,0:0:0:0:
288,192,31873,5,2,0:0:0:0:
404,280,32031,1,8,0:0:0:0:
128,228,32189,5,2,0:0:0:0:
352,96,32347,1,8,0:0:0:0:
352,96,32426,1,8,0:0:0:0:
352,96,32505,1,8,0:0:0:0:
180,72,32663,1,2,0:0:0:0:
180,72,32821,2,0,L|216:156,1,80,8|0,0:0|0:0,0:0:0:0:
392,200,33136,6,0,L|356:284,1,80,8|0,0:0|0:0,0:0:0:0:
296,356,33452,1,2,0:0:0:0:
56,216,33610,1,8,0:0:0:0:
252,252,33768,5,2,0:0:0:0:
180,72,33926,1,8,0:0:0:0:
412,112,34084,6,0,L|332:180,1,80,2|8,0:0|0:0,0:0:0:0:
56,216,34400,2,0,L|136:148,1,80,2|8,0:0|0:0,0:0:0:0:
408,120,34715,5,2,0:0:0:0:
240,328,34873,1,8,0:0:0:0:
240,328,34952,1,8,0:0:0:0:
240,328,35031,1,8,0:0:0:0:
116,164,35189,1,2,0:0:0:0:
408,120,35347,5,2,0:0:0:0:
408,120,35505,2,0,L|324:156,1,80,8|0,0:0|0:0,0:0:0:0:
240,328,35821,6,0,L|188:300,1,40,2|0,0:0|0:0,0:0:0:0:
128,264,35979,1,8,0:0:0:0:
144,48,36136,5,8,0:0:0:0:
271,259,36294,1,8,0:0:0:0:
144,48,36452,1,8,0:0:0:0:
312,100,36610,6,0,P|364:104|408:79,1,80,2|0,0:0|0:0,0:0:0:0:
252,196,36926,6,0,P|200:192|156:216,1,80,8|0,0:0|0:0,0:0:0:0:
40,308,37242,6,0,P|92:312|136:287,1,80,2|0,0:0|0:0,0:0:0:0:
208,40,37557,5,2,0:0:0:0:
252,196,37715,1,0,0:0:0:0:
364,88,37873,2,0,L|276:108,1,80,8|0,0:0|0:0,0:0:0:0:
72,20,38189,5,2,0:0:0:0:
168,136,38347,1,0,0:0:0:0:
84,276,38505,2,0,L|40:196,1,80,8|0,0:0|0:0,0:0:0:0:
72,20,38821,2,0,L|112:108,1,80,2|0,0:0|0:0,0:0:0:0:
271,65,39136,5,2,0:0:0:0:
252,196,39294,1,0,0:0:0:0:
375,145,39452,1,8,0:0:0:0:
104,180,39610,5,2,2:0:0:0:
170,300,39768,1,0,2:0:0:0:
252,196,39926,1,8,2:0:0:0:
356,276,40084,5,2,2:0:0:0:
375,145,40242,1,8,2:0:0:0:
248,192,40400,5,2,2:0:0:0:
228,60,40558,1,8,2:0:0:0:
328,208,40715,5,2,0:0:0:0:
152,48,40873,1,8,0:0:0:0:
52,96,41031,5,2,0:0:0:0:
92,140,41110,1,2,0:0:0:0:
108,196,41189,1,2,0:0:0:0:
96,256,41268,1,2,0:0:0:0:
52,300,41347,1,10,0:0:0:0:
88,280,41426,1,10,0:0:0:0:
128,280,41505,1,8,0:0:0:0:
168,284,41584,1,8,0:0:0:0:
204,300,41663,6,0,P|255:290|291:255,1,80,8|8,0:0|0:0,0:0:0:0:
396,124,41979,5,2,0:0:0:0:
396,124,42136,1,2,0:0:0:0:
396,124,42294,2,8,P|344:133|308:168,1,80
284,280,42610,5,2,0:0:0:0:
284,280,42767,1,2,0:0:0:0:
284,280,42926,2,8,P|250:240|201:226,1,80
56,100,43242,5,2,0:0:0:0:
100,124,43400,1,2,0:0:0:0:
144,136,43557,2,8,P|183:137|220:121,1,80
416,44,43873,5,2,0:0:0:0:
388,76,43952,1,2,0:0:0:0:
376,128,44031,1,2,0:0:0:0:
384,192,44110,1,2,0:0:0:0:
416,260,44189,5,8,0:0:0:0:
416,260,44268,1,8,0:0:0:0:
416,260,44347,2,0,L|324:288,1,80,8|0,0:0|0:0,0:0:0:0:
40,192,44663,1,2,0:0:0:0:
172,236,44821,2,0,L|265:209,1,80,8|0,0:0|0:0,0:0:0:0:
40,192,45136,5,2,0:0:0:0:
328,96,45294,1,8,0:0:0:0:
248,213,45452,5,2,0:0:0:0:
248,213,45531,1,2,0:0:0:0:
248,213,45610,1,2,0:0:0:0:
248,213,45689,1,2,0:0:0:0:
248,213,45768,2,0,L|156:168,1,80,2|0,0:0|0:0,0:0:0:0:
92,76,46084,5,2,0:0:0:0:
232,72,46242,2,0,L|324:27,1,80,8|0,0:0|0:0,0:0:0:0:
472,76,46557,5,2,0:0:0:0:
472,76,46715,2,8,L|384:128,1,80
328,236,47031,5,2,0:0:0:0:
176,180,47189,1,2,0:0:0:0:
20,196,47347,2,8,L|92:116,1,80
360,92,47663,5,2,0:0:0:0:
249,210,47821,1,2,0:0:0:0:
103,267,47979,2,8,L|203:305,1,80
148,165,48294,2,8,L|47:126,1,80
232,72,48610,2,0,L|272:88,1,40,2|0,0:0|0:0,0:0:0:0:
424,44,48768,5,2,0:0:0:0:
396,76,48847,1,2,0:0:0:0:
372,120,48926,1,2,0:0:0:0:
360,176,49005,1,2,0:0:0:0:
368,240,49084,1,2,0:0:0:0:
400,308,49163,1,2,0:0:0:0:
472,352,49242,5,8,0:0:0:0:
472,352,49321,1,8,0:0:0:0:
472,352,49400,2,0,L|364:344,1,80,8|0,0:0|0:0,0:0:0:0:
96,248,49715,1,2,0:0:0:0:
240,296,49873,2,8,L|320:260,1,80
144,320,50189,5,2,0:0:0:0:
359,137,50347,1,8,0:0:0:0:
248,24,50505,5,2,0:0:0:0:
252,56,50584,1,2,0:0:0:0:
248,88,50663,1,2,0:0:0:0:
232,116,50742,1,2,0:0:0:0:
208,132,50821,2,0,P|169:143|130:137,1,80,2|8,0:0|0:0,0:0:0:0:
312,263,51136,5,8,0:0:0:0:
130,137,51294,2,0,L|40:112,2,80,8|8|8,0:0|0:0|0:0,0:0:0:0:
316,24,51768,5,2,0:0:0:0:
288,52,51847,1,2,0:0:0:0:
276,92,51926,1,2,0:0:0:0:
280,132,52005,1,2,0:0:0:0:
308,160,52084,1,2,0:0:0:0:
344,172,52163,1,2,0:0:0:0:
380,192,52242,1,2,0:0:0:0:
400,224,52321,1,2,0:0:0:0:
416,260,52400,5,2,0:0:0:0:
380,236,52479,1,2,0:0:0:0:
336,216,52557,1,2,0:0:0:0:
288,200,52636,1,2,0:0:0:0:
232,192,52715,1,2,0:0:0:0:
172,204,52794,1,2,0:0:0:0:
120,240,52873,1,10,0:0:0:0:
84,300,52952,1,10,0:0:0:0:
76,372,53031,2,0,L|180:336,1,80,10|0,0:0|0:0,0:0:0:0:
336,216,53347,5,8,0:0:0:0:
240,256,53505,1,8,0:0:0:0:
344,172,53663,5,8,0:0:0:0:
120,196,53821,1,8,0:0:0:0:
352,124,53979,5,8,0:0:0:0:
28,69,54137,5,8,0:0:0:0:
368,24,54452,5,8,0:0:0:0:
252,332,54768,6,0,P|248:256|172:216,1,160,2|2,0:0|0:0,0:0:0:0:
100,216,55242,1,2,0:0:0:0:
300,136,55400,1,2,0:0:0:0:
476,260,55557,6,0,L|360:224,1,88.000002685547,2|0,0:0|0:0,0:0:0:0:
164,300,55873,5,8,0:0:0:0:
204,80,56031,1,8,0:0:0:0:
476,124,56189,2,0,L|360:160,1,88.000002685547,2|0,0:0|0:0,0:0:0:0:
280,276,56505,5,8,0:0:0:0:
100,208,56663,1,8,0:0:0:0:
100,208,56821,2,0,L|64:300,1,88.000002685547,2|8,0:0|0:0,0:0:0:0:
204,80,57136,2,0,L|240:172,1,88.000002685547,2|8,0:0|0:0,0:0:0:0:
280,276,57452,5,2,0:0:0:0:
424,88,57610,1,2,0:0:0:0:
392,272,57768,5,2,0:0:0:0:
284,32,57926,1,2,0:0:0:0:
154,194,58084,6,0,L|246:158,1,88.000002685547,2|0,0:0|0:0,0:0:0:0:
16,120,58400,1,8,0:0:0:0:
92,316,58557,1,8,0:0:0:0:
220,60,58715,5,2,0:0:0:0:
154,194,58873,1,2,0:0:0:0:
320,172,59031,1,8,0:0:0:0:
320,172,59189,2,0,L|424:152,1,88.000002685547,8|0,0:0|0:0,0:0:0:0:
112,264,59505,2,0,L|216:280,1,88.000002685547,8|0,0:0|0:0,0:0:0:0:
180,128,59821,1,2,0:0:0:0:
180,128,59900,1,2,0:0:0:0:
180,128,59979,2,0,L|256:52,1,88.000002685547,2|8,0:0|0:0,0:0:0:0:
200,276,60294,1,8,0:0:0:0:
406,155,60452,5,2,0:0:0:0:
406,155,60531,1,2,0:0:0:0:
406,155,60610,2,0,L|330:231,1,88.000002685547,2|8,0:0|0:0,0:0:0:0:
240,68,60926,1,2,0:0:0:0:
60,88,61084,1,8,0:0:0:0:
60,88,61163,1,8,0:0:0:0:
60,88,61242,2,0,L|140:168,1,88.000002685547,8|8,0:0|0:0,0:0:0:0:
120,312,61557,5,2,0:0:0:0:
120,312,61715,2,0,L|216:264,1,88.000002685547,8|8,0:0|0:0,0:0:0:0:
344,232,62031,1,2,0:0:0:0:
344,232,62189,2,0,L|472:248,1,88.000002685547,8|8,0:0|0:0,0:0:0:0:
200,56,62505,1,2,0:0:0:0:
200,56,62663,2,0,L|248:168,1,88.000002685547,8|8,0:0|0:0,0:0:0:0:
344,232,62979,1,2,0:0:0:0:
488,92,63136,5,2,0:0:0:0:
424,320,63294,1,8,0:0:0:0:
229,26,63452,5,2,0:0:0:0:
344,232,63610,1,8,0:0:0:0:
8,120,63768,5,2,0:0:0:0:
234,184,63926,1,8,0:0:0:0:
76,320,64084,5,2,0:0:0:0:
139,94,64242,1,8,0:0:0:0:
234,184,64400,5,2,0:0:0:0:
272,160,64479,1,2,0:0:0:0:
316,164,64557,1,2,0:0:0:0:
352,192,64636,1,2,0:0:0:0:
396,212,64715,1,2,0:0:0:0:
448,212,64794,1,2,0:0:0:0:
488,172,64873,1,10,0:0:0:0:
488,112,64952,1,10,0:0:0:0:
440,68,65031,2,0,L|388:64,1,44.0000013427735,10|10,0:0|0:0,0:0:0:0:
304,88,65189,5,8,0:0:0:0:
256,112,65268,1,8,0:0:0:0:
200,112,65347,1,8,0:0:0:0:
140,100,65426,1,8,0:0:0:0:
100,48,65505,2,0,L|160:32,1,44.0000013427735,8|8,0:0|0:0,0:0:0:0:
160,160,65663,6,0,L|72:184,1,88.000002685547,2|0,0:0|0:0,0:0:0:0:
24,300,65979,1,8,0:0:0:0:
200,256,66136,1,8,0:0:0:0:
452,328,66294,2,0,L|340:296,1,88.000002685547,2|0,0:0|0:0,0:0:0:0:
48,116,66610,5,8,0:0:0:0:
168,164,66768,1,2,0:0:0:0:
168,164,66926,2,0,L|268:124,1,88.000002685547,8|0,0:0|0:0,0:0:0:0:
424,256,67242,5,2,0:0:0:0:
242,333,67400,1,8,0:0:0:0:
242,333,67479,1,8,0:0:0:0:
242,333,67557,2,0,L|193:243,1,88.000002685547,8|0,0:0|0:0,0:0:0:0:
207,54,67873,2,0,L|256:144,1,88.000002685547,2|0,0:0|0:0,0:0:0:0:
376,352,68189,6,0,L|280:192,1,176.000005371094,2|0,0:0|0:0,0:0:0:0:
111,103,68663,1,2,0:0:0:0:
111,103,68821,2,0,L|199:255,1,176.000005371094,8|0,0:0|0:0,0:0:0:0:
248,348,69294,1,8,0:0:0:0:
380,168,69452,5,2,0:0:0:0:
199,255,69610,1,2,0:0:0:0:
212,72,69768,5,2,0:0:0:0:
248,348,69926,1,2,0:0:0:0:
72,200,70084,6,0,L|176:168,1,88.000002685547,2|0,0:0|0:0,0:0:0:0:
356,112,70400,1,8,0:0:0:0:
320,284,70557,1,2,0:0:0:0:
320,284,70636,1,2,0:0:0:0:
320,284,70715,1,2,0:0:0:0:
212,72,70873,1,8,0:0:0:0:
488,144,71031,1,0,0:0:0:0:
156,174,71189,1,8,0:0:0:0:
356,112,71347,6,0,L|332:216,1,88.000002685547,2|0,0:0|0:0,0:0:0:0:
300,360,71663,1,8,0:0:0:0:
172,252,71821,1,2,0:0:0:0:
172,252,71900,1,2,0:0:0:0:
172,252,71979,1,2,0:0:0:0:
456,280,72136,1,8,0:0:0:0:
64,240,72294,1,0,0:0:0:0:
464,148,72452,1,8,0:0:0:0:
204,40,72610,6,0,L|268:128,1,88.000002685547,2|0,0:0|0:0,0:0:0:0:
172,252,72926,1,8,0:0:0:0:
88,124,73084,1,2,0:0:0:0:
88,124,73163,1,2,0:0:0:0:
88,124,73242,1,2,0:0:0:0:
292,216,73400,1,8,0:0:0:0:
416,48,73557,1,8,0:0:0:0:
255,111,73715,1,8,0:0:0:0:
172,252,73873,5,2,0:0:0:0:
416,184,74031,1,8,0:0:0:0:
96,220,74189,5,2,0:0:0:0:
456,108,74347,1,8,0:0:0:0:
111,71,74505,5,2,0:0:0:0:
151,103,74584,1,2,0:0:0:0:
203,119,74663,1,2,0:0:0:0:
255,111,74742,1,2,0:0:0:0:
299,83,74821,1,2,0:0:0:0:
348,68,74900,1,2,0:0:0:0:
400,72,74979,1,2,0:0:0:0:
448,92,75057,1,2,0:0:0:0:
480,132,75136,2,0,P|485:157|479:183,1,44.0000013427735,2|2,0:0|0:0,0:0:0:0:
452,220,75294,5,10,0:0:0:0:
396,192,75373,1,10,0:0:0:0:
336,184,75452,1,10,0:0:0:0:
276,196,75531,1,10,0:0:0:0:
228,232,75610,1,10,0:0:0:0:
204,288,75689,1,10,0:0:0:0:
216,340,75768,5,8,0:0:0:0:
136,44,75926,1,8,0:0:0:0:
456,124,76084,1,8,0:0:0:0:
456,124,76400,6,0,P|460:52|384:80,1,176.000005371094,2|0,0:0|0:0,0:0:0:0:
320,176,77031,6,0,P|276:192|220:184,1,80,2|0,0:0|0:0,0:0:0:0:
64,160,77347,1,8,0:0:0:0:
152,332,77505,1,2,0:0:0:0:
152,332,77584,1,2,0:0:0:0:
152,332,77663,2,0,P|196:348|252:340,1,80,2|0,0:0|0:0,0:0:0:0:
384,280,77979,1,8,0:0:0:0:
206,119,78136,5,2,0:0:0:0:
206,119,78215,1,2,0:0:0:0:
206,119,78294,2,0,L|247:199,1,80,2|0,0:0|0:0,0:0:0:0:
400,36,78610,2,0,L|380:136,1,80,8|0,0:0|0:0,0:0:0:0:
228,347,78926,5,2,0:0:0:0:
248,44,79084,1,8,0:0:0:0:
384,280,79242,5,2,0:0:0:0:
104,100,79400,1,8,0:0:0:0:
24,280,79557,6,0,L|116:232,1,80,2|0,0:0|0:0,0:0:0:0:
224,180,79873,1,8,0:0:0:0:
429,224,80031,1,2,0:0:0:0:
429,224,80110,1,2,0:0:0:0:
429,224,80189,2,0,L|345:272,1,80,2|0,0:0|0:0,0:0:0:0:
108,104,80505,5,2,0:0:0:0:
108,104,80663,2,0,L|204:52,1,80,8|0,0:0|0:0,0:0:0:0:
328,96,80979,1,2,0:0:0:0:
180,180,81136,2,0,L|221:189,1,40,8|0,0:0|0:0,0:0:0:0:
496,168,81294,2,0,L|456:152,1,40,2|0,0:0|0:0,0:0:0:0:
328,96,81452,5,2,0:0:0:0:
360,132,81531,1,2,0:0:0:0:
372,184,81610,1,2,0:0:0:0:
360,240,81689,1,2,0:0:0:0:
316,280,81768,5,10,0:0:0:0:
272,232,81847,1,10,0:0:0:0:
204,216,81926,1,10,0:0:0:0:
136,236,82005,1,10,0:0:0:0:
92,296,82084,6,0,L|184:280,1,80,2|0,0:0|0:0,0:0:0:0:
332,152,82400,2,0,L|240:168,1,80,8|0,0:0|0:0,0:0:0:0:
60,108,82715,1,2,0:0:0:0:
60,108,82873,2,0,P|104:116|152:96,1,80,8|8,0:0|0:0,0:0:0:0:
248,32,83189,1,8,0:0:0:0:
400,152,83347,6,0,P|408:108|388:60,1,80,2|8,0:0|0:0,0:0:0:0:
284,156,83663,2,0,P|276:200|296:248,1,80,2|8,0:0|0:0,0:0:0:0:
428,284,83979,5,2,0:0:0:0:
360,240,84057,1,2,0:0:0:0:
285,233,84136,1,2,0:0:0:0:
236,276,84215,1,2,0:0:0:0:
204,320,84294,1,2,0:0:0:0:
156,324,84373,1,2,0:0:0:0:
116,312,84452,1,2,0:0:0:0:
92,288,84531,1,2,0:0:0:0:
80,268,84610,6,0,L|172:212,1,80,2|0,0:0|0:0,0:0:0:0:
228,32,84926,2,0,L|140:80,1,80,8|0,0:0|0:0,0:0:0:0:
28,136,85242,1,2,0:0:0:0:
256,156,85400,1,8,0:0:0:0:
125,344,85557,5,2,0:0:0:0:
256,156,85715,1,8,0:0:0:0:
125,344,85873,5,2,0:0:0:0:
152,316,85952,1,2,0:0:0:0:
192,308,86031,1,2,0:0:0:0:
232,312,86110,1,2,0:0:0:0:
280,320,86189,5,2,0:0:0:0:
332,316,86268,1,2,0:0:0:0:
380,292,86347,1,2,0:0:0:0:
408,244,86426,1,2,0:0:0:0:
404,180,86505,5,10,0:0:0:0:
352,216,86584,1,10,0:0:0:0:
288,220,86663,1,10,0:0:0:0:
228,200,86742,1,10,0:0:0:0:
180,144,86821,5,8,0:0:0:0:
184,72,86900,1,8,0:0:0:0:
232,20,86979,1,8,0:0:0:0:
304,12,87057,1,8,0:0:0:0:
372,52,87136,2,0,P|296:76|296:140,1,143.999995605469,8|0,0:0|0:0,0:0:0:0:
356,208,87768,5,2,0:0:0:0:
316,164,87847,1,2,0:0:0:0:
264,136,87926,1,2,0:0:0:0:
204,132,88005,1,2,0:0:0:0:
148,152,88084,1,2,0:0:0:0:
108,200,88163,1,2,0:0:0:0:
96,260,88242,1,10,0:0:0:0:
104,320,88321,1,10,0:0:0:0:
140,368,88400,2,0,L|292:276,1,160,10|4,0:0|0:0,0:0:0:0:
