osu file format v14

[General]
AudioFilename: audio.mp3
AudioLeadIn: 0
PreviewTime: 54298
Countdown: 1
SampleSet: Soft
StackLeniency: 0.7
Mode: 0
LetterboxInBreaks: 0
WidescreenStoryboard: 1

[Editor]
DistanceSpacing: 0.5
BeatDivisor: 4
GridSize: 4
TimelineZoom: 1.9

[Metadata]
Title:Refrain Boy -TV Size-
TitleUnicode:リフレインボーイ -TV Size-
Artist:ALL OFF
ArtistUnicode:ALL OFF
Creator:Vanilla Vat
Version:Insane
Source:モブサイコ100
Tags:mob psycho 100 ed TV Size chenwu Vanilla vat
BeatmapID:1087163
BeatmapSetID:511417

[Difficulty]
HPDrainRate:6
CircleSize:4
OverallDifficulty:8
ApproachRate:9
SliderMultiplier:1.4
SliderTickRate:1

[Events]
//Background and Video events
0,0,"CoLYN574aVYAAt3kN.png",0,0
Video,0,"RB.avi"
//Break Periods
//Storyboard Layer 0 (Background)
//Storyboard Layer 1 (Fail)
//Storyboard Layer 2 (Pass)
//Storyboard Layer 3 (Foreground)
//Storyboard Sound Samples

[TimingPoints]
-21,315.789473684211,4,1,0,100,1,0
1242,-100,4,2,0,20,0,0
5031,-100,4,2,0,20,0,0
11347,-100,4,2,0,30,0,0
21452,-111.111111111111,4,2,0,10,0,0
30452,-100,4,2,0,20,0,0
31557,-100,4,2,0,30,0,0
41663,-83.3333333333333,4,2,0,30,0,0
43715,-100,4,2,0,30,0,0
46715,-83.3333333333333,4,2,0,30,0,0
49242,-100,4,2,0,30,0,0
50505,-90.9090909090909,4,2,0,30,0,0
54294,-100,4,2,0,20,0,0
55557,-83.3333333333333,4,2,0,40,0,1
76084,-111.111111111111,4,2,0,10,0,0
77031,-100,4,2,0,30,0,0

[HitObjects]
256,192,1242,5,0,0:0:0:0:
256,192,2505,5,0,0:0:0:0:
256,192,3768,5,0,0:0:0:0:
256,192,5031,5,0,0:0:0:0:
180,256,5663,1,2,0:0:0:0:
200,284,5742,1,2,0:0:0:0:
232,300,5821,1,10,0:0:0:0:
268,304,5900,1,10,0:0:0:0:
300,296,5979,2,10,L|344:272,3,35
396,204,6294,6,0,L|472:248,1,70,2|0,0:0|0:0,0:0:0:0:
464,128,6610,2,0,L|392:88,1,70,8|0,0:0|0:0,0:0:0:0:
312,48,6926,1,2,0:0:0:0:
224,60,7084,1,8,0:0:0:0:
256,216,7242,1,2,0:0:0:0:
280,128,7400,1,8,0:0:0:0:
184,156,7557,1,2,0:0:0:0:
92,176,8189,6,2,L|108:140,3,35
140,156,8505,1,8,0:0:0:0:
164,180,8584,1,8,0:0:0:0:
180,212,8663,1,8,0:0:0:0:
180,248,8742,1,8,0:0:0:0:
168,280,8821,2,0,B|208:248|240:276|268:300|312:268,1,140,8|0,0:0|0:0,0:0:0:0:
416,196,9452,5,8,0:0:0:0:
408,228,9531,1,8,0:0:0:0:
412,264,9610,1,8,0:0:0:0:
424,296,9689,1,8,0:0:0:0:
440,328,9768,2,0,L|384:316,1,35,8|0,0:0|0:0,0:0:0:0:
332,292,9926,2,0,L|280:304,1,35,8|0,0:0|0:0,0:0:0:0:
216,324,10084,5,2,0:0:0:0:
216,324,10400,1,2,0:0:0:0:
216,324,10715,2,0,L|120:212,1,140,8|0,0:0|0:0,0:0:0:0:
72,108,11347,6,0,P|108:128|152:123,1,70,2|0,0:0|0:0,0:0:0:0:
228,52,11663,1,8,0:0:0:0:
344,112,11821,5,2,0:0:0:0:
344,112,11979,2,0,P|384:117|425:97,1,70,2|0,0:0|0:0,0:0:0:0:
328,224,12294,2,0,P|287:218|246:238,1,70,8|0,0:0|0:0,0:0:0:0:
176,308,12610,5,2,0:0:0:0:
152,192,12768,1,0,0:0:0:0:
248,104,12926,2,0,L|320:116,1,70
260,227,13242,5,2,0:0:0:0:
380,216,13400,1,2,0:0:0:0:
444,328,13557,2,0,L|355:332,1,70,8|0,0:0|0:0,0:0:0:0:
194,230,13873,6,0,L|288:227,1,70,2|0,0:0|0:0,0:0:0:0:
384,136,14189,1,8,0:0:0:0:
244,72,14347,5,2,0:0:0:0:
244,72,14505,2,0,L|216:156,1,70,2|0,0:0|0:0,0:0:0:0:
96,224,14821,2,0,L|124:140,1,70,8|0,0:0|0:0,0:0:0:0:
180,300,15136,5,2,0:0:0:0:
284,248,15294,1,8,0:0:0:0:
340,120,15452,5,2,0:0:0:0:
396,228,15610,1,8,0:0:0:0:
368,352,15768,5,2,0:0:0:0:
340,332,15847,1,2,0:0:0:0:
304,324,15926,1,2,0:0:0:0:
272,332,16005,1,2,0:0:0:0:
240,344,16084,2,0,L|200:320,1,35,8|0,0:0|0:0,0:0:0:0:
132,324,16242,2,0,L|104:280,1,35,8|0,0:0|0:0,0:0:0:0:
64,160,16400,6,0,L|140:208,1,70,2|0,0:0|0:0,0:0:0:0:
272,208,16715,2,0,L|208:160,1,70,8|0,0:0|0:0,0:0:0:0:
208,24,17031,5,2,0:0:0:0:
208,24,17189,2,0,L|284:82,1,70,2|0,0:0|0:0,0:0:0:0:
404,76,17505,1,2,0:0:0:0:
328,180,17663,6,0,P|322:214|332:247,1,70,8|2,0:0|0:0,0:0:0:0:
216,166,17979,2,0,P|221:131|211:98,1,70,8|2,0:0|0:0,0:0:0:0:
96,64,18294,5,2,0:0:0:0:
116,92,18373,1,2,0:0:0:0:
124,128,18452,1,2,0:0:0:0:
120,164,18531,1,2,0:0:0:0:
104,196,18610,1,2,0:0:0:0:
20,288,18768,1,8,0:0:0:0:
168,304,18926,6,0,L|243:315,1,70,2|0,0:0|0:0,0:0:0:0:
434,251,19242,2,0,L|346:237,1,70,8|0,0:0|0:0,0:0:0:0:
205,58,19557,2,0,L|262:124,1,70,2|0,0:0|0:0,0:0:0:0:
368,240,19873,1,8,0:0:0:0:
408,80,20031,1,8,0:0:0:0:
228,280,20189,5,2,0:0:0:0:
268,140,20347,1,2,0:0:0:0:
268,140,20426,1,2,0:0:0:0:
272,144,20505,2,0,L|288:100,1,35,2|0,0:0|0:0,0:0:0:0:
216,24,20663,2,0,L|196:74,1,35,8|0,0:0|0:0,0:0:0:0:
128,216,20821,5,2,0:0:0:0:
100,52,20979,1,2,0:0:0:0:
224,160,21136,1,2,0:0:0:0:
52,144,21294,1,2,0:0:0:0:
128,216,21452,6,0,P|160:264|144:328,1,125.999996154785,2|0,0:0|0:0,0:0:0:0:
224,160,22084,2,0,P|208:100|240:49,1,125.999996154785,2|0,0:0|0:0,0:0:0:0:
460,132,22715,2,0,L|328:120,1,125.999996154785,2|0,0:0|0:0,0:0:0:0:
52,252,23347,2,0,L|184:264,1,125.999996154785,2|0,0:0|0:0,0:0:0:0:
224,160,23821,1,2,0:0:0:0:
284,336,23979,6,0,P|316:285|301:226,1,125.999996154785,2|0,0:0|0:0,0:0:0:0:
120,56,24610,2,0,P|87:107|103:166,1,125.999996154785,2|0,0:0|0:0,0:0:0:0:
184,272,25242,2,0,L|314:252,1,125.999996154785,2|0,0:0|0:0,0:0:0:0:
412,172,25715,1,8,0:0:0:0:
260,20,25873,2,0,L|288:164,1,125.999996154785,2|0,0:0|0:0,0:0:0:0:
304,252,26347,1,2,0:0:0:0:
464,324,26505,6,0,P|442:266|385:243,1,125.999996154785,2|0,0:0|0:0,0:0:0:0:
232,288,26979,1,2,0:0:0:0:
104,232,27136,2,0,L|120:156,1,62.9999980773926,2|0,0:0|0:0,0:0:0:0:
212,156,27452,1,8,0:0:0:0:
156,84,27610,2,0,L|116:24,1,62.9999980773926,2|0,0:0|0:0,0:0:0:0:
264,72,27926,2,0,L|307:137,1,62.9999980773926,2|0,0:0|0:0,0:0:0:0:
268,280,28242,2,0,L|296:223,1,62.9999980773926,2|0,0:0|0:0,0:0:0:0:
456,168,28557,2,0,L|393:171,1,62.9999980773926,2|0,0:0|0:0,0:0:0:0:
236,128,28873,1,8,0:0:0:0:
328,112,29031,6,0,P|378:77|388:17,1,125.999996154785,2|0,0:0|0:0,0:0:0:0:
184,272,29663,6,0,P|133:306|123:366,1,125.999996154785,2|0,0:0|0:0,0:0:0:0:
123,366,30136,1,2,0:0:0:0:
72,256,30294,1,8,0:0:0:0:
160,164,30452,2,0,L|216:68,1,105,8|2,0:0|0:0,0:0:0:0:
296,84,30768,2,0,L|412:28,1,105,8|2,0:0|0:0,0:0:0:0:
424,56,31084,1,8,0:0:0:0:
384,180,31242,1,8,0:0:0:0:
352,196,31321,1,8,0:0:0:0:
332,228,31400,6,0,L|264:180,1,70,2|0,0:0|0:0,0:0:0:0:
124,144,31715,1,8,0:0:0:0:
248,52,31873,1,2,0:0:0:0:
176,256,32031,2,0,L|148:336,1,70,8|0,0:0|0:0,0:0:0:0:
72,272,32347,5,2,0:0:0:0:
284,240,32505,1,8,0:0:0:0:
152,80,32663,1,2,0:0:0:0:
176,184,32821,1,8,0:0:0:0:
256,116,32979,1,2,0:0:0:0:
196,128,33136,5,8,0:0:0:0:
296,240,33294,1,2,0:0:0:0:
360,100,33452,2,0,L|296:148,1,70,2|0,0:0|0:0,0:0:0:0:
144,264,33768,1,8,0:0:0:0:
300,304,33926,1,2,0:0:0:0:
216,200,34084,2,0,L|156:128,1,70,2|0,0:0|0:0,0:0:0:0:
116,136,34400,1,8,0:0:0:0:
72,300,34557,6,0,L|128:228,1,70,2|0,0:0|0:0,0:0:0:0:
236,80,34873,1,2,0:0:0:0:
272,84,35031,1,2,0:0:0:0:
328,116,35189,1,2,0:0:0:0:
424,116,35347,1,2,0:0:0:0:
496,32,35505,1,2,0:0:0:0:
468,24,35663,2,0,L|428:112,1,70,2|0,0:0|0:0,0:0:0:0:
224,240,35979,5,2,0:0:0:0:
224,240,36136,2,0,L|264:168,1,70,2|0,0:0|0:0,0:0:0:0:
288,48,36452,1,8,0:0:0:0:
144,92,36610,5,2,0:0:0:0:
228,104,36768,1,8,0:0:0:0:
176,172,36926,5,2,0:0:0:0:
300,152,37084,1,8,0:0:0:0:
216,248,37242,5,2,0:0:0:0:
304,68,37400,1,8,0:0:0:0:
336,228,37557,5,2,0:0:0:0:
236,24,37715,1,8,0:0:0:0:
108,192,37873,2,0,L|199:162,1,70,2|0,0:0|0:0,0:0:0:0:
328,104,38189,5,2,0:0:0:0:
243,314,38347,1,8,0:0:0:0:
453,297,38505,2,0,L|369:249,1,70,2|0,0:0|0:0,0:0:0:0:
174,170,38821,2,0,L|257:122,1,70,8|0,0:0|0:0,0:0:0:0:
252,256,39136,5,2,0:0:0:0:
112,96,39294,1,2,0:0:0:0:
324,56,39452,1,8,0:0:0:0:
252,256,39610,1,2,0:0:0:0:
234,134,39768,1,2,0:0:0:0:
364,188,39926,1,8,0:0:0:0:
288,188,40084,5,2,0:0:0:0:
344,52,40242,1,8,0:0:0:0:
428,232,40400,5,2,0:0:0:0:
316,124,40558,1,8,0:0:0:0:
340,216,40715,1,2,0:0:0:0:
348,236,40794,1,2,0:0:0:0:
348,264,40873,1,2,0:0:0:0:
340,300,40952,1,2,0:0:0:0:
312,332,41031,2,0,L|268:336,1,35,8|0,0:0|0:0,0:0:0:0:
196,316,41189,2,0,L|160:324,1,35,8|0,0:0|0:0,0:0:0:0:
84,352,41347,1,2,0:0:0:0:
104,232,41505,1,8,0:0:0:0:
208,208,41663,6,0,P|185:153|146:133,1,83.9999974365235,2|8,0:0|0:0,0:0:0:0:
56,128,41979,1,2,0:0:0:0:
164,260,42136,1,8,0:0:0:0:
336,256,42294,6,0,P|390:233|410:194,1,83.9999974365235,2|8,0:0|0:0,0:0:0:0:
415,103,42610,1,2,0:0:0:0:
282,211,42767,1,8,0:0:0:0:
316,92,42926,6,0,P|293:37|254:17,1,83.9999974365235,2|8,0:0|0:0,0:0:0:0:
163,13,43242,1,2,0:0:0:0:
271,146,43399,1,10,0:0:0:0:
164,140,43557,6,2,P|109:162|89:201,1,83.9999974365235
88,216,43794,1,2,0:0:0:0:
88,252,43873,1,2,0:0:0:0:
108,280,43952,1,2,0:0:0:0:
140,296,44031,1,10,0:0:0:0:
176,300,44110,1,10,0:0:0:0:
212,292,44189,6,0,L|312:248,1,105,10|0,0:0|0:0,0:0:0:0:
248,176,44505,2,0,L|360:164,1,105,2|0,0:0|0:0,0:0:0:0:
424,220,44821,2,0,L|469:117,1,105,8|0,0:0|0:0,0:0:0:0:
480,88,45136,1,2,0:0:0:0:
320,104,45294,1,2,0:0:0:0:
324,216,45452,5,2,0:0:0:0:
318,230,45531,1,2,0:0:0:0:
312,245,45610,1,2,0:0:0:0:
306,260,45689,1,2,0:0:0:0:
301,275,45768,2,0,L|242:248,1,35,2|0,0:0|0:0,0:0:0:0:
185,197,45926,2,0,L|125:195,1,35,8|0,0:0|0:0,0:0:0:0:
59,213,46084,1,8,0:0:0:0:
116,76,46242,1,8,0:0:0:0:
224,284,46400,1,8,0:0:0:0:
133,166,46558,1,8,0:0:0:0:
276,156,46715,6,0,P|330:133|350:94,1,83.9999974365235,2|2,0:0|0:0,0:0:0:0:
240,40,47031,1,8,0:0:0:0:
176,224,47189,1,8,0:0:0:0:
332,348,47347,6,2,P|390:355|426:331,1,83.9999974365235
358,229,47663,1,8,0:0:0:0:
211,356,47821,1,8,0:0:0:0:
280,160,47979,6,0,P|272:101|239:72,1,83.9999974365235,2|0,0:0|0:0,0:0:0:0:
176,224,48294,6,0,P|175:265|198:300,1,83.9999974365235,8|0,0:0|0:0,0:0:0:0:
316,336,48610,1,2,0:0:0:0:
400,256,48768,1,8,0:0:0:0:
408,236,48847,1,8,0:0:0:0:
416,216,48926,1,8,0:0:0:0:
424,196,49005,1,8,0:0:0:0:
432,176,49084,1,8,0:0:0:0:
440,156,49163,1,8,0:0:0:0:
448,136,49242,6,0,P|423:102|376:80,1,70,2|0,0:0|0:0,0:0:0:0:
264,72,49557,1,8,0:0:0:0:
272,228,49715,1,2,0:0:0:0:
332,148,49873,1,0,0:0:0:0:
112,152,50031,1,8,0:0:0:0:
188,192,50189,1,8,0:0:0:0:
184,104,50347,1,8,0:0:0:0:
152,272,50505,6,0,L|260:264,1,77.0000023498536,2|0,0:0|0:0,0:0:0:0:
472,320,50821,6,0,L|395:325,1,77.0000023498536,8|0,0:0|0:0,0:0:0:0:
272,200,51136,1,2,0:0:0:0:
324,52,51294,1,8,0:0:0:0:
416,172,51452,1,8,0:0:0:0:
176,88,51610,1,8,0:0:0:0:
268,196,51768,5,2,0:0:0:0:
168,312,51926,1,8,0:0:0:0:
172,80,52084,5,2,0:0:0:0:
216,252,52242,1,8,0:0:0:0:
116,188,52400,5,2,0:0:0:0:
148,168,52479,1,2,0:0:0:0:
184,160,52557,1,2,0:0:0:0:
220,168,52636,1,2,0:0:0:0:
256,184,52715,1,2,0:0:0:0:
296,188,52794,1,2,0:0:0:0:
336,184,52873,1,10,0:0:0:0:
368,164,52952,1,10,0:0:0:0:
388,132,53031,2,0,P|322:105|218:138,1,154.000004699707,10|2,0:0|0:0,0:0:0:0:
152,196,53505,5,8,0:0:0:0:
176,32,53663,1,8,0:0:0:0:
252,216,53821,5,8,0:0:0:0:
56,180,53979,1,8,0:0:0:0:
132,348,54136,5,2,0:0:0:0:
448,212,54452,1,2,0:0:0:0:
176,32,54768,1,4,0:0:0:0:
176,32,55242,5,2,0:0:0:0:
272,124,55557,6,0,L|376:136,1,83.9999974365235,2|0,0:0|0:0,0:0:0:0:
472,236,55873,6,0,L|388:226,1,83.9999974365235,8|0,0:0|0:0,0:0:0:0:
256,216,56189,1,2,0:0:0:0:
148,268,56347,1,2,0:0:0:0:
244,320,56505,1,8,0:0:0:0:
156,156,56663,1,8,0:0:0:0:
256,100,56821,6,0,L|308:24,1,83.9999974365235,2|0,0:0|0:0,0:0:0:0:
208,20,57136,1,8,0:0:0:0:
356,112,57294,1,8,0:0:0:0:
384,216,57452,6,0,L|336:292,1,83.9999974365235,2|0,0:0|0:0,0:0:0:0:
436,296,57768,1,8,0:0:0:0:
284,208,57926,1,8,0:0:0:0:
104,200,58084,6,0,L|196:148,1,83.9999974365235,2|0,0:0|0:0,0:0:0:0:
200,124,58321,1,8,0:0:0:0:
192,84,58400,1,8,0:0:0:0:
84,112,58557,1,2,0:0:0:0:
192,244,58715,1,8,0:0:0:0:
324,156,58873,1,2,0:0:0:0:
364,156,58952,1,2,0:0:0:0:
400,176,59031,1,2,0:0:0:0:
416,216,59110,1,2,0:0:0:0:
416,260,59189,2,0,L|352:280,1,41.9999987182618,2|0,0:0|0:0,0:0:0:0:
280,280,59347,5,8,0:0:0:0:
208,88,59505,1,2,0:0:0:0:
188,204,59663,5,8,0:0:0:0:
320,76,59821,1,2,0:0:0:0:
328,240,59979,5,8,0:0:0:0:
260,160,60136,1,8,0:0:0:0:
220,252,60294,1,8,0:0:0:0:
156,324,60452,5,2,0:0:0:0:
156,324,60531,1,2,0:0:0:0:
156,324,60610,2,0,P|192:348|244:344,1,83.9999974365235,2|0,0:0|0:0,0:0:0:0:
308,296,60926,1,8,0:0:0:0:
424,224,61084,5,2,0:0:0:0:
424,224,61163,1,2,0:0:0:0:
424,223,61242,2,0,P|389:199|348:198,1,83.9999974365235,2|0,0:0|0:0,0:0:0:0:
224,216,61557,2,0,P|182:214|148:191,1,83.9999974365235,8|0,0:0|0:0,0:0:0:0:
72,40,61873,6,0,L|144:88,1,83.9999974365235,2|0,0:0|0:0,0:0:0:0:
248,172,62189,1,8,0:0:0:0:
180,296,62347,1,8,0:0:0:0:
148,191,62505,6,0,L|204:115,1,83.9999974365235,2|0,0:0|0:0,0:0:0:0:
197,123,62742,1,8,0:0:0:0:
197,123,62821,1,8,0:0:0:0:
308,92,62979,1,2,0:0:0:0:
396,160,63136,5,2,0:0:0:0:
376,264,63294,1,8,0:0:0:0:
288,200,63452,5,2,0:0:0:0:
208,268,63610,1,8,0:0:0:0:
176,160,63768,5,2,0:0:0:0:
72,144,63926,1,8,0:0:0:0:
244,76,64084,5,2,0:0:0:0:
140,60,64242,1,8,0:0:0:0:
72,144,64400,5,2,0:0:0:0:
80,164,64479,1,2,0:0:0:0:
88,184,64557,1,2,0:0:0:0:
96,204,64636,1,2,0:0:0:0:
104,224,64715,1,2,0:0:0:0:
112,244,64794,1,2,0:0:0:0:
120,264,64873,1,2,0:0:0:0:
128,284,64952,1,2,0:0:0:0:
136,304,65031,6,0,L|196:288,1,41.9999987182618,8|0,0:0|0:0,0:0:0:0:
268,288,65189,2,0,L|328:308,1,41.9999987182618,8|0,0:0|0:0,0:0:0:0:
408,308,65347,2,0,L|452:288,1,41.9999987182618,8|0,0:0|0:0,0:0:0:0:
464,188,65505,2,0,L|404:208,1,41.9999987182618,8|0,0:0|0:0,0:0:0:0:
328,224,65663,5,2,0:0:0:0:
328,56,65821,1,8,0:0:0:0:
192,160,65979,2,0,L|284:140,1,83.9999974365235,2|8,0:0|0:0,0:0:0:0:
212,64,66294,1,2,0:0:0:0:
100,176,66452,1,8,0:0:0:0:
240,232,66610,1,2,0:0:0:0:
280,244,66689,1,2,0:0:0:0:
312,272,66768,1,2,0:0:0:0:
328,312,66847,1,2,0:0:0:0:
316,352,66926,6,0,L|416:332,1,83.9999974365235,2|0,0:0|0:0,0:0:0:0:
446,159,67242,2,0,L|336:184,1,83.9999974365235,2|0,0:0|0:0,0:0:0:0:
365,178,67479,1,8,0:0:0:0:
365,178,67557,1,8,0:0:0:0:
184,104,67715,1,2,0:0:0:0:
312,68,67873,1,8,0:0:0:0:
244,220,68031,1,2,0:0:0:0:
80,248,68189,1,2,0:0:0:0:
100,212,68268,1,2,0:0:0:0:
104,172,68347,1,2,0:0:0:0:
92,132,68426,1,2,0:0:0:0:
64,100,68505,6,0,L|152:60,1,83.9999974365235,2|0,0:0|0:0,0:0:0:0:
264,24,68821,1,8,0:0:0:0:
432,80,68979,1,2,0:0:0:0:
432,80,69057,1,2,0:0:0:0:
432,80,69136,2,0,L|344:120,1,83.9999974365235,2|0,0:0|0:0,0:0:0:0:
232,176,69452,1,8,0:0:0:0:
352,264,69610,1,2,0:0:0:0:
316,188,69768,1,8,0:0:0:0:
224,304,69926,1,2,0:0:0:0:
400,196,70084,5,8,0:0:0:0:
268,116,70242,2,0,L|176:140,1,83.9999974365235,2|0,0:0|0:0,0:0:0:0:
76,60,70557,1,8,0:0:0:0:
52,192,70715,2,0,L|-12:280,1,83.9999974365235,2|0,0:0|0:0,0:0:0:0:
112,348,71031,2,0,L|161:280,1,83.9999974365235,2|0,0:0|0:0,0:0:0:0:
176,136,71347,5,8,0:0:0:0:
308,212,71505,2,0,L|400:188,1,83.9999974365235,2|0,0:0|0:0,0:0:0:0:
448,72,71820,1,8,0:0:0:0:
296,44,71979,2,0,L|324:132,1,83.9999974365235,2|0,0:0|0:0,0:0:0:0:
400,348,72294,2,0,L|374:267,1,83.9999974365235,2|0,0:0|0:0,0:0:0:0:
284,220,72610,5,2,0:0:0:0:
184,204,72768,1,2,0:0:0:0:
144,112,72926,1,2,0:0:0:0:
200,28,73084,1,2,0:0:0:0:
296,56,73242,2,0,L|232:144,1,83.9999974365235,2|0,0:0|0:0,0:0:0:0:
184,204,73557,1,8,0:0:0:0:
244,296,73715,6,0,L|303:210,1,83.9999974365235,2|0,0:0|0:0,0:0:0:0:
356,148,74031,1,8,0:0:0:0:
392,244,74189,1,2,0:0:0:0:
246,123,74347,1,8,0:0:0:0:
428,60,74505,5,2,0:0:0:0:
344,92,74663,1,8,0:0:0:0:
420,148,74821,5,2,0:0:0:0:
272,44,74979,1,8,0:0:0:0:
316,260,75136,5,2,0:0:0:0:
264,120,75294,1,8,0:0:0:0:
216,272,75452,5,2,0:0:0:0:
352,100,75610,1,8,0:0:0:0:
120,160,75768,5,2,0:0:0:0:
328,176,75926,1,2,0:0:0:0:
424,336,76084,1,4,0:0:0:0:
440,276,77031,6,0,P|404:256|360:261,1,70,2|0,0:0|0:0,0:0:0:0:
284,332,77347,1,8,0:0:0:0:
168,272,77505,5,2,0:0:0:0:
168,272,77584,1,2,0:0:0:0:
168,272,77663,2,0,P|128:267|87:287,1,70,2|0,0:0|0:0,0:0:0:0:
184,160,77978,2,0,P|225:166|266:146,1,70,8|0,0:0|0:0,0:0:0:0:
336,76,78294,5,2,0:0:0:0:
360,192,78452,1,2,0:0:0:0:
264,280,78610,2,0,L|192:268,1,70,8|0,0:0|0:0,0:0:0:0:
252,157,78926,5,2,0:0:0:0:
132,168,79084,1,2,0:0:0:0:
68,56,79242,2,0,L|157:52,1,70,8|0,0:0|0:0,0:0:0:0:
318,154,79557,6,0,L|224:157,1,70,2|0,0:0|0:0,0:0:0:0:
128,248,79873,1,8,0:0:0:0:
268,312,80031,5,2,0:0:0:0:
268,312,80110,1,2,0:0:0:0:
268,312,80189,2,0,L|296:228,1,70,2|0,0:0|0:0,0:0:0:0:
416,160,80505,2,0,L|388:244,1,70,8|0,0:0|0:0,0:0:0:0:
332,84,80820,5,2,0:0:0:0:
228,136,80978,1,8,0:0:0:0:
172,264,81136,5,2,0:0:0:0:
116,156,81294,1,8,0:0:0:0:
144,32,81452,5,8,0:0:0:0:
172,52,81531,1,8,0:0:0:0:
208,60,81610,1,8,0:0:0:0:
240,52,81689,1,8,0:0:0:0:
272,40,81768,2,0,L|312:64,1,35,8|0,0:0|0:0,0:0:0:0:
380,60,81926,2,0,L|408:104,1,35,8|0,0:0|0:0,0:0:0:0:
448,224,82084,6,0,L|372:176,1,70,2|0,0:0|0:0,0:0:0:0:
240,176,82399,2,0,L|304:224,1,70,8|0,0:0|0:0,0:0:0:0:
296,218,82636,1,2,0:0:0:0:
296,218,82715,1,2,0:0:0:0:
304,360,82873,6,0,L|228:302,1,70,8|0,0:0|0:0,0:0:0:0:
108,308,83189,1,2,0:0:0:0:
184,204,83347,6,0,P|190:170|180:137,1,70,2|0,0:0|0:0,0:0:0:0:
296,218,83663,2,0,P|291:253|301:286,1,70,8|0,0:0|0:0,0:0:0:0:
416,320,83978,5,2,0:0:0:0:
396,292,84057,1,2,0:0:0:0:
388,256,84136,1,2,0:0:0:0:
392,220,84215,1,2,0:0:0:0:
408,188,84294,1,2,0:0:0:0:
492,96,84452,1,8,0:0:0:0:
344,80,84610,6,0,L|269:69,1,70,2|0,0:0|0:0,0:0:0:0:
78,133,84926,2,0,L|166:147,1,70,8|0,0:0|0:0,0:0:0:0:
307,326,85242,2,0,L|250:260,1,70,2|0,0:0|0:0,0:0:0:0:
144,144,85557,1,8,0:0:0:0:
104,304,85715,1,8,0:0:0:0:
284,104,85873,5,2,0:0:0:0:
244,244,86031,1,8,0:0:0:0:
244,244,86110,1,8,0:0:0:0:
244,244,86189,2,0,L|228:288,1,35,8|0,0:0|0:0,0:0:0:0:
296,360,86347,2,0,L|316:310,1,35,8|0,0:0|0:0,0:0:0:0:
384,168,86505,5,2,0:0:0:0:
412,332,86663,1,8,0:0:0:0:
424,64,86820,5,2,0:0:0:0:
348,256,86978,1,8,0:0:0:0:
240,108,87136,2,0,P|188:72|80:152,1,210,2|0,0:0|0:0,0:0:0:0:
96,152,87689,1,8,0:0:0:0:
108,164,87768,1,8,0:0:0:0:
120,180,87847,1,8,0:0:0:0:
128,196,87926,1,8,0:0:0:0:
132,212,88005,1,8,0:0:0:0:
132,228,88084,1,8,0:0:0:0:
132,244,88163,1,8,0:0:0:0:
128,260,88242,1,8,0:0:0:0:
120,276,88321,1,8,0:0:0:0:
108,292,88400,2,0,P|164:240|252:228,1,140,10|4,0:0|0:0,0:0:0:0:
