osu file format v14

[General]
AudioFilename: audio.mp3
AudioLeadIn: 0
PreviewTime: 54298
Countdown: 1
SampleSet: Soft
StackLeniency: 0.7
Mode: 0
LetterboxInBreaks: 0
WidescreenStoryboard: 1

[Editor]
Bookmarks: 64084
DistanceSpacing: 2
BeatDivisor: 4
GridSize: 4
TimelineZoom: 1.2

[Metadata]
Title:Refrain Boy -TV Size-
TitleUnicode:リフレインボーイ -TV Size-
Artist:ALL OFF
ArtistUnicode:ALL OFF
Creator:Vanilla Vat
Version:Hard
Source:モブサイコ100
Tags:mob psycho 100 ed TV Size chenwu Vanilla vat
BeatmapID:1087162
BeatmapSetID:511417

[Difficulty]
HPDrainRate:5
CircleSize:4
OverallDifficulty:6
ApproachRate:8
SliderMultiplier:1
SliderTickRate:1

[Events]
//Background and Video events
0,0,"CoLYN574aVYAAt3kN.png",0,0
Video,0,"RB.avi"
//Break Periods
2,21652,29544
//Storyboard Layer 0 (Background)
//Storyboard Layer 1 (Fail)
//Storyboard Layer 2 (Pass)
//Storyboard Layer 3 (Foreground)
//Storyboard Sound Samples

[TimingPoints]
-21,315.789473684211,4,1,0,100,1,0
1242,-133.333333333333,4,2,0,10,0,0
5031,-100,4,2,0,20,0,0
21452,-111.111111111111,4,2,0,30,0,0
30452,-100,4,2,0,30,0,0
55557,-90.9090909090909,4,2,0,40,0,1
77031,-100,4,2,0,30,0,0

[HitObjects]
108,84,1242,6,0,P|108:180|228:200,1,225.000008583069
400,296,2505,2,0,P|400:200|280:180,1,225.000008583069
217,206,3768,2,0,P|217:302|337:322,1,225.000008583069
304,244,5031,2,0,L|388:168,1,100
392,84,5663,5,0,0:0:0:0:
392,84,5821,1,0,0:0:0:0:
392,84,5979,2,0,L|328:84,1,50
244,60,6294,2,0,L|188:36,1,50
112,92,6610,2,0,L|164:116,1,50
224,188,6926,2,0,L|256:236,1,50
252,332,7242,2,0,L|308:316,1,50
396,284,7557,1,0,0:0:0:0:
392,284,8821,6,0,P|424:224|324:220,1,200
292,304,9768,1,0,0:0:0:0:
196,308,10084,2,0,P|168:276|180:212,1,100
228,28,10715,6,0,P|256:60|244:124,1,100
68,196,11347,6,0,L|132:208,1,50
216,204,11663,1,0,0:0:0:0:
216,204,11821,2,0,L|276:184,1,50
364,192,12136,2,0,L|428:204,1,50
372,292,12452,1,0,0:0:0:0:
284,340,12610,6,0,L|264:280,1,50
172,268,12926,2,0,L|196:336,1,50
88,320,13242,1,0,0:0:0:0:
56,224,13400,2,0,L|84:160,1,50
156,120,13715,1,0,0:0:0:0:
264,140,13873,6,0,L|328:116,1,50
412,128,14189,1,0,0:0:0:0:
412,128,14347,2,0,L|476:152,1,50
464,248,14663,2,0,L|417:230,1,50
324,192,14979,1,0,0:0:0:0:
280,104,15136,2,0,L|332:60,1,50
224,36,15452,2,0,L|185:68,1,50
128,152,15768,1,0,0:0:0:0:
140,252,15926,2,0,L|184:308,1,50
264,328,16241,1,0,0:0:0:0:
356,284,16400,6,0,L|328:220,1,50
316,140,16715,1,0,0:0:0:0:
316,140,16873,2,0,L|344:76,1,50
268,20,17189,2,0,L|247:65,1,50
204,156,17505,1,0,0:0:0:0:
124,216,17663,6,0,L|64:252,1,50
164,300,17979,2,0,L|206:274,1,50
304,256,18294,1,0,0:0:0:0:
396,292,18452,1,0,0:0:0:0:
384,192,18610,2,0,L|440:148,1,50
428,60,18926,6,0,L|368:100,1,50
288,112,19242,2,0,L|224:116,1,50
144,80,19557,1,0,0:0:0:0:
144,80,19715,2,0,L|164:140,1,50
144,228,20031,1,0,0:0:0:0:
184,320,20189,6,0,L|228:272,1,50
316,312,20505,2,0,L|312:244,1,50
412,240,20821,2,0,L|368:192,1,50
432,120,21136,2,0,L|364:120,1,50
300,80,21452,1,0,0:0:0:0:
68,56,30294,5,0,0:0:0:0:
68,56,30452,2,0,L|116:152,1,100
76,344,31084,1,0,0:0:0:0:
268,288,31400,5,0,0:0:0:0:
268,288,31558,2,0,L|332:308,1,50
412,272,31873,2,0,L|436:204,1,50
332,192,32189,2,0,L|308:124,1,50
360,52,32505,1,0,0:0:0:0:
260,72,32663,2,0,P|212:76|152:56,1,100
72,24,33136,2,0,L|84:92,1,50
128,152,33452,5,0,0:0:0:0:
216,200,33610,2,0,L|266:200,2,50
156,280,34084,2,0,L|228:280,1,50
272,356,34400,2,0,L|204:356,1,50
284,276,34715,1,0,0:0:0:0:
336,192,34873,2,0,L|288:144,1,50
316,56,35189,1,0,0:0:0:0:
162,59,35663,6,0,P|133:105|81:132,1,100
63,42,36136,1,0,0:0:0:0:
95,128,36294,1,0,0:0:0:0:
58,222,36452,1,0,0:0:0:0:
108,308,36610,6,0,L|160:288,1,50
232,224,36926,2,0,L|260:160,1,50
280,56,37242,2,0,L|312:112,1,50
356,184,37557,2,0,L|412:152,1,50
400,60,37873,5,0,0:0:0:0:
488,108,38031,1,0,0:0:0:0:
488,208,38189,2,0,L|440:236,1,50
368,300,38505,1,0,0:0:0:0:
344,204,38663,1,0,0:0:0:0:
248,228,38821,2,0,L|280:284,1,50
224,360,39136,5,0,0:0:0:0:
168,276,39294,1,0,0:0:0:0:
112,192,39452,2,0,L|168:156,1,50
244,120,39768,1,0,0:0:0:0:
244,120,39926,2,0,L|304:128,1,50
392,140,40242,1,0,0:0:0:0:
424,236,40400,6,0,L|352:228,1,50
288,280,40715,2,0,L|228:268,1,50
144,308,41031,1,0,0:0:0:0:
160,208,41189,2,0,L|132:156,1,50
52,108,41505,1,0,0:0:0:0:
4,196,41663,6,0,L|72:196,1,50
288,168,42136,5,0,0:0:0:0:
272,268,42294,2,0,L|204:268,1,50
380,148,42768,5,0,0:0:0:0:
396,48,42926,2,0,L|464:48,1,50
348,224,43400,5,0,0:0:0:0:
269,160,43558,2,0,L|303:101,1,50
248,36,43873,1,0,0:0:0:0:
248,36,44031,1,0,0:0:0:0:
248,36,44189,6,0,L|184:24,1,50
140,108,44505,2,0,L|189:117,1,50
132,200,44821,2,0,L|82:190,1,50
56,288,45136,1,0,0:0:0:0:
152,316,45294,1,0,0:0:0:0:
244,272,45452,5,0,0:0:0:0:
344,280,45610,2,0,L|396:240,1,50
424,156,45926,1,0,0:0:0:0:
324,152,46084,2,0,L|272:188,1,50
192,140,46400,1,0,0:0:0:0:
268,76,46557,1,0,0:0:0:0:
176,40,46715,2,0,L|124:20,1,50
92,220,47189,5,0,0:0:0:0:
184,184,47347,2,0,L|236:164,1,50
324,344,47821,5,0,0:0:0:0:
232,308,47979,2,0,L|180:288,1,50
252,216,48294,2,0,L|304:196,1,50
356,116,48610,2,0,L|304:96,1,50
216,132,48926,1,0,0:0:0:0:
220,32,49084,1,0,0:0:0:0:
220,32,49242,6,0,L|168:76,1,50
120,144,49557,2,0,L|124:200,1,50
136,284,49873,1,0,0:0:0:0:
216,224,50031,1,0,0:0:0:0:
272,112,50189,2,0,L|226:148,1,50
288,228,50505,6,0,L|348:220,1,50
392,108,50821,1,0,0:0:0:0:
308,164,50979,1,0,0:0:0:0:
400,204,51136,2,0,L|448:168,1,50
448,276,51452,2,0,L|464:332,1,50
476,196,51768,6,0,L|460:136,1,50
356,80,52084,2,0,L|368:128,1,50
304,236,52400,2,0,L|291:187,1,50
192,112,52715,2,0,L|204:160,1,50
200,260,53031,2,0,P|181:309|131:334,1,100
188,308,53505,1,0,0:0:0:0:
252,304,53663,1,0,0:0:0:0:
332,312,53821,1,0,0:0:0:0:
420,280,53979,1,0,0:0:0:0:
460,180,54136,6,0,L|408:88,2,100
112,104,55242,5,0,0:0:0:0:
280,248,55557,6,0,P|228:256|184:220,1,110.000003356934
116,108,56031,1,0,0:0:0:0:
224,116,56189,2,0,L|276:88,1,55.0000016784668
372,140,56505,2,0,L|323:166,1,55.0000016784668
228,220,56821,5,0,0:0:0:0:
248,328,56979,1,0,0:0:0:0:
144,292,57136,2,0,L|80:264,1,55.0000016784668
72,160,57452,5,0,0:0:0:0:
52,52,57610,1,0,0:0:0:0:
156,88,57768,2,0,L|208:108,1,55.0000016784668
316,104,58084,2,0,L|224:192,1,110.000003356934
128,176,58557,1,0,0:0:0:0:
176,276,58715,2,0,P|183:334|141:379,1,110.000003356934
72,300,59189,1,0,0:0:0:0:
176,276,59347,6,0,L|204:212,1,55.0000016784668
150,125,59663,2,0,L|118:197,1,55.0000016784668
240,172,59979,2,0,L|280:228,1,55.0000016784668
380,240,60294,1,0,0:0:0:0:
360,136,60452,5,0,0:0:0:0:
360,136,60610,2,0,L|312:76,1,55.0000016784668
228,40,60926,1,0,0:0:0:0:
120,64,61084,1,0,0:0:0:0:
120,64,61242,2,0,L|164:124,1,55.0000016784668
112,212,61557,2,0,L|176:224,1,55.0000016784668
232,312,61873,6,0,L|304:296,1,55.0000016784668
368,224,62189,1,0,0:0:0:0:
268,180,62347,1,0,0:0:0:0:
216,80,62505,6,0,L|145:57,1,55.0000016784668
54,79,62821,1,0,0:0:0:0:
117,171,62979,1,0,0:0:0:0:
140,276,63136,6,0,L|188:240,1,55.0000016784668
268,316,63452,2,0,L|291:260,1,55.0000016784668
400,280,63768,2,0,L|392:220,1,55.0000016784668
496,184,64084,2,0,L|460:136,1,55.0000016784668
432,32,64400,5,0,0:0:0:0:
332,80,64557,1,0,0:0:0:0:
332,80,64715,2,0,L|224:104,1,110.000003356934
124,56,65189,1,0,0:0:0:0:
80,156,65347,2,0,L|144:172,1,55.0000016784668
136,268,65663,6,0,L|208:248,1,55.0000016784668
288,300,65979,2,0,L|235:314,1,55.0000016784668
300,228,66294,2,0,L|353:214,1,55.0000016784668
456,260,66610,1,0,0:0:0:0:
444,152,66768,1,0,0:0:0:0:
344,108,66926,6,0,L|328:40,1,55.0000016784668
220,64,67242,2,0,L|240:140,1,55.0000016784668
212,224,67557,6,0,L|196:292,1,55.0000016784668
108,212,67873,2,0,L|125:143,1,55.0000016784668
64,64,68189,6,0,P|120:84|180:60,1,110.000003356934
264,20,68663,1,0,0:0:0:0:
364,68,68821,2,0,P|416:81|466:61,1,110.000003356934
420,164,69294,1,0,0:0:0:0:
312,156,69452,2,0,L|236:148,1,55.0000016784668
172,220,69768,2,0,L|234:226,1,55.0000016784668
336,236,70084,6,0,P|388:268|392:324,1,110.000003356934
284,312,70557,1,0,0:0:0:0:
192,368,70715,2,0,L|96:296,1,110.000003356934
172,92,71347,6,0,P|209:140|192:194,1,110.000003356934
92,204,71821,1,0,0:0:0:0:
32,112,71979,2,0,L|120:28,1,110.000003356934
196,104,72452,1,0,0:0:0:0:
304,92,72610,6,0,L|360:60,1,55.0000016784668
448,120,72926,2,0,L|388:156,1,55.0000016784668
304,200,73242,6,0,P|277:246|296:296,1,110.000003356934
348,316,73715,1,0,0:0:0:0:
280,296,73873,1,0,0:0:0:0:
196,316,74031,1,0,0:0:0:0:
96,280,74189,1,0,0:0:0:0:
36,176,74347,1,0,0:0:0:0:
256,192,74505,12,0,75768,0:0:0:0:
444,188,77031,6,0,L|380:176,1,50
296,180,77347,1,0,0:0:0:0:
296,180,77505,2,0,L|236:200,1,50
148,192,77821,2,0,L|84:180,1,50
140,92,78136,1,0,0:0:0:0:
228,44,78294,6,0,L|248:104,1,50
340,116,78610,2,0,L|316:48,1,50
420,104,78926,2,0,L|436:156,1,50
384,240,79242,2,0,L|364:180,1,50
276,236,79557,6,0,L|212:260,1,50
128,256,79873,1,0,0:0:0:0:
128,256,80031,2,0,L|64:232,1,50
56,140,80347,2,0,L|103:158,1,50
196,192,80663,1,0,0:0:0:0:
236,284,80821,2,0,L|184:328,1,50
292,352,81136,2,0,L|331:320,1,50
396,244,81452,1,0,0:0:0:0:
392,144,81610,2,0,L|352:88,1,50
272,64,81925,1,0,0:0:0:0:
176,96,82084,6,0,L|204:160,1,50
196,244,82399,1,0,0:0:0:0:
196,244,82557,2,0,L|168:308,1,50
244,364,82873,2,0,L|265:319,1,50
308,228,83189,1,0,0:0:0:0:
388,168,83347,6,0,L|448:132,1,50
348,84,83663,2,0,L|306:110,1,50
204,124,83979,2,0,L|136:100,1,50
128,204,84294,2,0,L|76:236,1,50
72,332,84610,6,0,L|120:300,1,50
212,288,84926,2,0,L|276:284,1,50
360,304,85241,1,0,0:0:0:0:
360,304,85399,2,0,L|336:244,1,50
360,160,85715,1,0,0:0:0:0:
328,64,85873,6,0,L|284:112,1,50
196,72,86189,2,0,L|200:140,1,50
100,148,86505,2,0,L|144:196,1,50
76,268,86821,2,0,L|144:268,1,50
256,192,87136,12,0,88400,0:0:0:0:
256,192,88715,5,0,0:0:0:0:
