osu file format v14

[General]
AudioFilename: audio.mp3
AudioLeadIn: 0
PreviewTime: 165811
Countdown: 1
SampleSet: None
StackLeniency: 0.7
Mode: 0
LetterboxInBreaks: 0
WidescreenStoryboard: 1

[Editor]
Bookmarks: 5405,7299,9194,9826,11089,13299,13615,15510,15826,16141,18073,18231,20089,20168,20247,20405,20484,20562,20720,20799,20878,21115,21194,30036,30194,33194,33984,35562,35720,36510,40931,43336,44442,48547,48984,49336,50247,50599,51510,53089,53915,55299,57863,60073,64494,65126,65442,69826,72984,80562,81495,81863,83089,91931,100773,102705,113405,120073,120984,122915,123510,125247,125720,127299,127931,128562,129705,129826,131089,131562,132036,132510,132984,133615,135826,138668,139615,139931,141194,148773,152562,155089,160141,165826,173405,176599,176678,176757,180984,181931,182126,183547,192352,193615,194878,199299,206878
DistanceSpacing: 1
BeatDivisor: 4
GridSize: 4
TimelineZoom: 1

[Metadata]
Title:Refrain Boy
TitleUnicode:リフレインボーイ
Artist:ALL OFF
ArtistUnicode:ALL OFF
Creator:nuvasek
Version:2017%
Source:
Tags:
BeatmapID:1186995
BeatmapSetID:515268

[Difficulty]
HPDrainRate:5.4
CircleSize:4
OverallDifficulty:8.6
ApproachRate:9.4
SliderMultiplier:1.9
SliderTickRate:1

[Events]
//Background and Video events
0,0,"1jn63u0eyqiERq3fNzFoLkz0wlTecfru0KUnyvKLdLE.jpg",0,0
//Break Periods
2,21430,29533
2,83325,91428
2,141431,148270
2,155325,159638
//Storyboard Layer 0 (Background)
//Storyboard Layer 1 (Fail)
//Storyboard Layer 2 (Pass)
//Storyboard Layer 3 (Foreground)
//Storyboard Sound Samples

[TimingPoints]
1021,315.789473684211,4,3,0,60,1,0
8599,-200,4,3,0,60,0,0
8699,-100,4,3,0,60,0,0
9863,-200,4,3,0,60,0,0
10494,-50,4,3,0,5,0,0
10810,-100,4,3,0,5,0,0
10863,-100,4,3,0,60,0,0
13336,-80,4,3,0,60,0,0
13494,-100,4,3,0,60,0,0
20915,-66.6666666666667,4,3,0,60,0,0
21231,-100,4,3,0,60,0,0
55336,-80,4,3,0,60,0,1
69863,-100,4,3,0,60,0,0
75231,-80,4,3,0,60,0,0
75389,-100,4,3,0,60,0,0
81863,-80,4,3,0,60,0,0
82810,-66.6666666666667,4,3,0,60,0,0
91968,-100,4,3,0,60,0,0
103336,-80,4,3,0,60,0,1
121021,-66.6666666666667,4,3,0,60,0,1
133021,-133.333333333333,4,3,0,60,0,1
133326,-66.6666666666667,4,3,0,60,0,1
133547,-100,4,3,0,60,0,1
141231,-100,4,3,0,60,0,0
165863,-80,4,3,0,60,0,1
194915,-100,4,3,0,60,0,0
205021,-200,4,3,0,60,0,0
205573,-100,4,3,0,60,0,0

[HitObjects]
256,192,1021,5,0,0:0:0:0:
256,192,2284,1,0,0:0:0:0:
256,192,3547,1,0,0:0:0:0:
256,192,4810,1,0,0:0:0:0:
128,72,5442,5,0,0:0:0:0:
174,81,5520,1,0,0:0:0:0:
215,104,5599,1,0,0:0:0:0:
248,138,5678,1,0,0:0:0:0:
276,176,5757,5,0,0:0:0:0:
294,135,5835,1,0,0:0:0:0:
339,136,5914,1,0,0:0:0:0:
355,177,5993,1,0,0:0:0:0:
323,208,6073,2,0,L|280:244,1,47.5
76,172,6231,2,0,L|96:224,3,47.5
432,172,6547,2,0,L|412:224,1,47.5
256,248,6705,2,0,L|256:300,3,47.5
256,132,7021,5,0,0:0:0:0:
213,117,7099,1,0,0:0:0:0:
203,72,7178,1,0,0:0:0:0:
234,40,7257,1,0,0:0:0:0:
279,48,7336,1,0,0:0:0:0:
64,88,8599,6,0,P|116:164|188:164,1,166.25
344,68,9231,1,0,0:0:0:0:
397,42,9309,1,0,0:0:0:0:
446,75,9388,1,0,0:0:0:0:
443,134,9467,1,0,0:0:0:0:
406,187,9547,5,0,0:0:0:0:
349,169,9625,1,0,0:0:0:0:
302,204,9704,1,0,0:0:0:0:
303,263,9783,1,0,0:0:0:0:
353,296,9863,5,0,0:0:0:0:
160,88,10178,1,0,0:0:0:0:
160,216,10494,2,0,L|188:232,16,23.75
388,312,11126,6,0,L|344:264,1,47.5
184,56,11284,1,0,0:0:0:0:
184,56,11363,1,0,0:0:0:0:
184,56,11442,2,0,L|224:104,1,47.5
384,120,11599,6,0,L|332:148,1,47.5
64,276,11757,1,0,0:0:0:0:
107,257,11835,1,0,0:0:0:0:
152,236,11915,2,0,L|208:208,1,47.5
270,369,12073,6,0,L|276:312,1,47.5
296,43,12231,1,0,0:0:0:0:
296,43,12310,1,0,0:0:0:0:
296,43,12389,2,0,L|292:100,1,47.5
400,224,12547,6,0,L|344:208,1,47.5
58,122,12704,1,0,0:0:0:0:
102,137,12784,1,0,0:0:0:0:
144,152,12863,2,0,L|201:170,1,47.5
116,304,13021,6,0,L|160:272,1,47.5
344,120,13178,1,0,0:0:0:0:
228,84,13257,1,0,0:0:0:0:
112,52,13336,2,0,P|72:104|104:184,1,118.75
96,184,13573,1,0,0:0:0:0:
196,200,13652,1,0,0:0:0:0:
176,248,13731,1,0,0:0:0:0:
152,352,13810,1,0,0:0:0:0:
152,352,13889,1,0,0:0:0:0:
152,352,13968,6,0,L|224:332,1,47.5
408,320,14126,6,0,L|368:276,1,47.5
134,39,14284,1,0,0:0:0:0:
169,70,14362,1,0,0:0:0:0:
204,103,14442,2,0,L|256:148,1,47.5
76,324,14599,6,0,L|128:288,1,47.5
376,80,14757,1,0,0:0:0:0:
329,79,14835,1,0,0:0:0:0:
289,104,14914,1,0,0:0:0:0:
270,146,14993,1,0,0:0:0:0:
277,192,15072,1,0,0:0:0:0:
308,227,15151,5,0,0:0:0:0:
272,256,15231,1,0,0:0:0:0:
230,278,15309,1,0,0:0:0:0:
183,276,15388,1,0,0:0:0:0:
143,251,15467,1,0,0:0:0:0:
60,284,15547,5,0,0:0:0:0:
61,219,15625,1,0,0:0:0:0:
104,173,15704,1,0,0:0:0:0:
167,161,15783,1,0,0:0:0:0:
236,200,15863,5,0,0:0:0:0:
234,127,15941,1,0,0:0:0:0:
275,69,16020,1,0,0:0:0:0:
339,40,16099,1,0,0:0:0:0:
408,54,16178,1,0,0:0:0:0:
444,116,16257,2,0,L|452:168,3,47.5
312,324,16573,2,0,L|272:288,2,47.5
76,80,16810,6,0,L|132:140,1,47.5
312,324,16968,1,0,0:0:0:0:
276,292,17046,1,0,0:0:0:0:
240,261,17126,2,0,L|196:220,1,47.5
464,332,17284,6,0,L|408:272,1,47.5
200,60,17442,1,0,0:0:0:0:
245,62,17520,1,0,0:0:0:0:
271,100,17599,1,0,0:0:0:0:
256,144,17678,1,0,0:0:0:0:
232,184,17757,5,0,0:0:0:0:
222,230,17835,1,0,0:0:0:0:
235,275,17914,1,0,0:0:0:0:
268,304,17993,1,0,0:0:0:0:
341,309,18073,5,0,0:0:0:0:
375,261,18151,1,0,0:0:0:0:
361,204,18230,1,0,0:0:0:0:
309,177,18309,1,0,0:0:0:0:
249,191,18389,5,0,0:0:0:0:
203,231,18467,1,0,0:0:0:0:
144,242,18546,1,0,0:0:0:0:
87,221,18625,1,0,0:0:0:0:
49,175,18705,2,0,P|52:116|96:96,1,95
96,100,18942,1,0,0:0:0:0:
96,100,19021,1,0,0:0:0:0:
308,48,19099,2,0,L|336:108,2,47.5
408,308,19336,6,0,L|344:272,1,47.5
52,108,19494,1,0,0:0:0:0:
112,145,19572,1,0,0:0:0:0:
174,183,19652,2,0,L|232:220,3,47.5
408,76,19968,5,0,0:0:0:0:
104,316,20126,1,0,0:0:0:0:
104,316,20205,1,0,0:0:0:0:
104,316,20284,5,0,0:0:0:0:
244,48,20442,1,0,0:0:0:0:
244,48,20521,1,0,0:0:0:0:
244,48,20600,5,0,0:0:0:0:
424,340,20757,1,0,0:0:0:0:
424,340,20836,1,0,0:0:0:0:
424,340,20915,2,0,P|288:264|336:180,1,285.000010871888
144,76,30073,5,0,0:0:0:0:
92,160,30231,1,0,0:0:0:0:
368,40,30547,1,0,0:0:0:0:
180,352,30863,1,0,0:0:0:0:
376,292,31178,5,0,0:0:0:0:
376,292,31257,1,0,0:0:0:0:
376,292,31336,1,0,0:0:0:0:
112,144,31494,5,0,0:0:0:0:
376,292,31652,1,0,0:0:0:0:
404,68,31810,1,0,0:0:0:0:
176,328,31968,1,0,0:0:0:0:
216,76,32126,1,0,0:0:0:0:
192,344,32284,1,0,0:0:0:0:
396,76,32442,1,0,0:0:0:0:
396,76,32599,1,0,0:0:0:0:
396,284,32757,2,0,P|340:296|272:280,1,95
280,284,33073,1,0,0:0:0:0:
88,104,33231,6,0,P|128:72|208:56,2,95
308,120,33705,2,0,P|376:100|412:68,1,95
320,300,34021,1,0,0:0:0:0:
156,84,34178,1,0,0:0:0:0:
220,344,34336,1,0,0:0:0:0:
180,72,34494,1,0,0:0:0:0:
416,208,34652,1,0,0:0:0:0:
88,272,34810,1,0,0:0:0:0:
314,69,34968,2,0,P|388:116|414:217,1,190
92,80,35442,5,0,0:0:0:0:
252,332,35599,1,0,0:0:0:0:
284,56,35757,2,0,P|332:72|380:132,2,95
372,232,36231,2,0,P|307:253|242:248,1,95
100,68,36547,1,0,0:0:0:0:
224,332,36705,1,0,0:0:0:0:
320,52,36863,1,0,0:0:0:0:
80,304,37021,2,0,P|128:220|216:192,1,190
336,320,37494,1,0,0:0:0:0:
88,100,37652,6,0,P|140:100|208:88,2,95
256,192,38126,1,0,0:0:0:0:
424,284,38284,6,0,P|372:284|304:296,2,95
424,284,38757,1,0,0:0:0:0:
100,216,38915,5,0,0:0:0:0:
364,40,39073,1,0,0:0:0:0:
344,356,39231,1,0,0:0:0:0:
98,180,39389,5,0,0:0:0:0:
395,68,39547,1,0,0:0:0:0:
304,371,39705,1,0,0:0:0:0:
364,68,39863,1,0,0:0:0:0:
84,216,40021,2,0,P|180:232|288:208,1,190
420,44,40494,1,0,0:0:0:0:
288,344,40652,1,0,0:0:0:0:
208,40,40810,5,0,0:0:0:0:
248,64,40888,1,0,0:0:0:0:
274,103,40967,1,0,0:0:0:0:
280,150,41046,1,0,0:0:0:0:
265,195,41125,1,0,0:0:0:0:
96,328,41284,1,0,0:0:0:0:
384,328,41442,5,0,0:0:0:0:
160,32,41599,1,0,0:0:0:0:
232,344,41915,1,0,0:0:0:0:
208,24,42073,1,0,0:0:0:0:
80,352,42231,1,0,0:0:0:0:
96,336,42547,1,0,0:0:0:0:
308,32,42705,1,0,0:0:0:0:
472,348,42863,1,0,0:0:0:0:
440,344,43178,1,0,0:0:0:0:
212,32,43336,5,0,0:0:0:0:
171,54,43414,1,0,0:0:0:0:
148,95,43493,1,0,0:0:0:0:
150,142,43572,1,0,0:0:0:0:
176,184,43652,1,0,0:0:0:0:
204,221,43730,1,0,0:0:0:0:
221,265,43809,1,0,0:0:0:0:
224,313,43888,1,0,0:0:0:0:
268,292,43968,5,0,0:0:0:0:
292,252,44046,1,0,0:0:0:0:
308,208,44125,1,0,0:0:0:0:
296,164,44204,1,0,0:0:0:0:
308,116,44284,1,0,0:0:0:0:
96,116,44442,1,0,0:0:0:0:
224,313,44599,6,0,P|276:312|336:272,1,95
287,70,44915,2,0,P|236:72|176:112,1,95
88,296,45231,5,0,0:0:0:0:
110,254,45309,1,0,0:0:0:0:
146,224,45388,1,0,0:0:0:0:
192,210,45467,1,0,0:0:0:0:
239,215,45546,1,0,0:0:0:0:
432,280,45705,2,0,P|472:224|472:164,1,95
336,100,46021,5,0,0:0:0:0:
232,80,46178,1,0,0:0:0:0:
136,96,46336,1,0,0:0:0:0:
76,332,46494,5,0,0:0:0:0:
432,56,46652,1,0,0:0:0:0:
432,336,46968,5,0,0:0:0:0:
112,40,47126,1,0,0:0:0:0:
392,352,47284,2,0,P|312:336|280:296,1,95
76,104,47599,1,0,0:0:0:0:
76,104,47678,1,0,0:0:0:0:
76,104,47757,1,0,0:0:0:0:
456,256,47915,1,0,0:0:0:0:
324,220,48073,1,0,0:0:0:0:
212,260,48231,1,0,0:0:0:0:
212,260,48310,1,0,0:0:0:0:
212,260,48389,1,0,0:0:0:0:
88,136,48547,5,0,0:0:0:0:
116,98,48625,1,0,0:0:0:0:
158,77,48704,1,0,0:0:0:0:
205,77,48783,1,0,0:0:0:0:
252,96,48863,1,0,0:0:0:0:
292,119,48941,1,0,0:0:0:0:
336,120,49021,2,0,L|400:104,4,47.5
248,244,49494,1,0,0:0:0:0:
64,68,49652,6,0,P|128:44|184:64,1,95
328,128,49968,1,0,0:0:0:0:
328,128,50126,1,0,0:0:0:0:
432,276,50284,5,0,0:0:0:0:
395,305,50362,1,0,0:0:0:0:
353,328,50441,1,0,0:0:0:0:
308,342,50520,1,0,0:0:0:0:
260,347,50599,1,0,0:0:0:0:
124,280,50757,1,0,0:0:0:0:
48,144,50915,2,0,P|104:84|148:92,1,95
128,84,51152,1,0,0:0:0:0:
128,84,51231,1,0,0:0:0:0:
256,192,51389,1,0,0:0:0:0:
372,68,51547,6,0,L|384:120,3,47.5
128,200,51863,6,0,L|140:252,3,47.5
376,260,52178,6,0,L|388:312,3,47.5
372,68,52494,6,0,L|384:120,4,47.5
388,140,52968,1,0,0:0:0:0:
104,88,53126,5,0,0:0:0:0:
300,24,53284,1,0,0:0:0:0:
72,184,53442,5,0,0:0:0:0:
464,136,53599,1,0,0:0:0:0:
28,288,53757,5,0,0:0:0:0:
484,328,53915,1,0,0:0:0:0:
40,192,54231,5,0,0:0:0:0:
256,192,54389,1,0,0:0:0:0:
472,192,54547,1,0,0:0:0:0:
112,296,55336,5,0,0:0:0:0:
280,40,55494,1,0,0:0:0:0:
140,320,55652,1,0,0:0:0:0:
464,200,55810,1,0,0:0:0:0:
96,88,55968,5,0,0:0:0:0:
368,328,56126,1,0,0:0:0:0:
120,72,56284,1,0,0:0:0:0:
464,200,56442,1,0,0:0:0:0:
112,312,56599,5,0,0:0:0:0:
212,32,56757,1,0,0:0:0:0:
252,336,56915,1,0,0:0:0:0:
372,48,57073,1,0,0:0:0:0:
80,300,57231,5,0,0:0:0:0:
440,208,57389,1,0,0:0:0:0:
88,60,57547,1,0,0:0:0:0:
444,240,57705,1,0,0:0:0:0:
80,300,57863,6,0,P|48:164|100:48,1,237.5
248,180,58336,1,0,0:0:0:0:
248,180,58494,1,0,0:0:0:0:
400,296,58652,1,0,0:0:0:0:
412,56,58810,2,0,P|344:40|276:60,1,118.75
84,312,59126,5,0,0:0:0:0:
192,32,59284,1,0,0:0:0:0:
380,320,59442,1,0,0:0:0:0:
112,92,59599,1,0,0:0:0:0:
112,92,59678,1,0,0:0:0:0:
112,92,59757,2,0,P|92:160|100:180,4,59.375
380,320,60231,5,0,0:0:0:0:
96,56,60389,1,0,0:0:0:0:
348,340,60547,1,0,0:0:0:0:
320,32,60705,1,0,0:0:0:0:
92,304,60863,1,0,0:0:0:0:
432,168,61021,1,0,0:0:0:0:
96,56,61178,1,0,0:0:0:0:
360,336,61336,2,0,P|315:280|304:232,1,118.75
80,320,61652,5,0,0:0:0:0:
432,168,61810,1,0,0:0:0:0:
96,76,61968,1,0,0:0:0:0:
428,136,62126,2,0,P|352:104|288:112,1,118.75
84,248,62442,2,0,P|160:280|224:272,1,118.75
416,256,62757,1,0,0:0:0:0:
96,52,62915,5,0,0:0:0:0:
344,344,63073,1,0,0:0:0:0:
212,32,63231,1,0,0:0:0:0:
136,336,63389,5,0,0:0:0:0:
436,64,63547,1,0,0:0:0:0:
156,352,63705,1,0,0:0:0:0:
229,20,63863,5,0,0:0:0:0:
428,352,64021,1,0,0:0:0:0:
92,104,64178,1,0,0:0:0:0:
92,104,64257,1,0,0:0:0:0:
92,104,64336,2,0,L|176:168,1,59.375
304,244,64494,5,0,0:0:0:0:
360,252,64572,1,0,0:0:0:0:
403,214,64651,1,0,0:0:0:0:
401,157,64730,1,0,0:0:0:0:
356,116,64810,1,0,0:0:0:0:
300,122,64888,1,0,0:0:0:0:
260,168,64968,1,0,0:0:0:0:
218,209,65046,1,0,0:0:0:0:
160,232,65126,2,0,P|80:224|48:156,1,118.75
396,320,65442,5,0,0:0:0:0:
104,64,65599,1,0,0:0:0:0:
364,340,65757,1,0,0:0:0:0:
364,340,65915,1,0,0:0:0:0:
428,136,66073,5,0,0:0:0:0:
84,348,66231,1,0,0:0:0:0:
316,40,66389,1,0,0:0:0:0:
124,352,66547,1,0,0:0:0:0:
456,184,66705,5,0,0:0:0:0:
76,68,66863,1,0,0:0:0:0:
456,184,67021,1,0,0:0:0:0:
76,68,67178,2,0,P|68:128|120:196,1,118.75
256,236,67494,1,0,0:0:0:0:
436,68,67652,2,0,P|444:128|392:196,1,118.75
144,268,67968,6,0,P|256:312|372:264,1,237.5
256,192,68442,1,0,0:0:0:0:
368,116,68599,6,0,P|256:72|140:120,1,237.5
76,244,69073,1,0,0:0:0:0:
428,320,69231,5,0,0:0:0:0:
100,52,69389,1,0,0:0:0:0:
428,320,69547,1,0,0:0:0:0:
100,52,69705,1,0,0:0:0:0:
400,88,69863,5,0,0:0:0:0:
104,316,70021,1,0,0:0:0:0:
288,40,70178,1,0,0:0:0:0:
76,288,70336,1,0,0:0:0:0:
400,88,70494,2,0,P|384:148|360:188,1,95
232,304,70810,1,0,0:0:0:0:
96,68,70968,5,0,0:0:0:0:
428,300,71126,1,0,0:0:0:0:
84,104,71284,1,0,0:0:0:0:
476,176,71442,1,0,0:0:0:0:
68,228,71599,1,0,0:0:0:0:
428,32,71757,5,0,0:0:0:0:
120,352,71915,1,0,0:0:0:0:
428,32,72073,1,0,0:0:0:0:
104,296,73021,6,0,L|160:256,1,47.5
392,64,73178,1,0,0:0:0:0:
355,94,73256,1,0,0:0:0:0:
319,124,73336,2,0,L|263:171,1,47.5
368,328,73494,6,0,L|311:258,1,47.5
144,56,73652,1,0,0:0:0:0:
144,56,73731,1,0,0:0:0:0:
144,56,73810,2,0,L|181:105,1,47.5
456,136,73968,6,0,L|388:172,1,47.5
104,320,74126,1,0,0:0:0:0:
146,298,74204,1,0,0:0:0:0:
188,277,74284,2,0,L|255:239,1,47.5
100,48,74442,6,0,L|156:88,1,47.5
404,248,74599,1,0,0:0:0:0:
404,248,74678,1,0,0:0:0:0:
404,248,74757,2,0,L|332:200,1,47.5
104,312,74915,6,0,L|174:257,1,47.5
344,120,75073,1,0,0:0:0:0:
228,84,75152,1,0,0:0:0:0:
112,52,75231,2,0,P|72:104|104:184,1,118.75
96,184,75468,1,0,0:0:0:0:
196,200,75547,1,0,0:0:0:0:
176,248,75626,1,0,0:0:0:0:
152,352,75705,1,0,0:0:0:0:
152,352,75784,1,0,0:0:0:0:
152,352,75863,6,0,L|224:332,1,47.5
512,252,76021,1,0,0:0:0:0:
466,265,76099,1,0,0:0:0:0:
420,278,76178,2,0,L|355:295,1,47.5
304,48,76336,2,0,L|288:104,1,47.5
248,312,76494,5,0,0:0:0:0:
288,289,76572,1,0,0:0:0:0:
307,247,76651,1,0,0:0:0:0:
297,201,76730,1,0,0:0:0:0:
266,163,76810,1,0,0:0:0:0:
224,144,76889,5,0,0:0:0:0:
176,148,76967,1,0,0:0:0:0:
140,180,77046,1,0,0:0:0:0:
96,200,77126,1,0,0:0:0:0:
48,192,77204,1,0,0:0:0:0:
24,152,77283,1,0,0:0:0:0:
40,108,77362,1,0,0:0:0:0:
92,132,77442,5,0,0:0:0:0:
150,156,77520,1,0,0:0:0:0:
211,139,77599,1,0,0:0:0:0:
256,96,77678,1,0,0:0:0:0:
300,28,77757,5,0,0:0:0:0:
275,93,77836,1,0,0:0:0:0:
283,165,77915,1,0,0:0:0:0:
329,226,77994,1,0,0:0:0:0:
393,257,78073,1,0,0:0:0:0:
464,230,78152,2,0,L|478:294,2,47.5
276,292,78389,2,0,L|317:325,3,47.5
76,80,78705,6,0,L|132:140,1,47.5
312,324,78863,1,0,0:0:0:0:
276,292,78941,1,0,0:0:0:0:
240,261,79021,2,0,L|196:220,1,47.5
456,248,79179,6,0,L|388:192,1,47.5
240,96,79336,1,0,0:0:0:0:
194,89,79414,1,0,0:0:0:0:
157,116,79493,1,0,0:0:0:0:
150,162,79572,1,0,0:0:0:0:
164,208,79652,1,0,0:0:0:0:
197,240,79730,1,0,0:0:0:0:
211,285,79809,1,0,0:0:0:0:
202,331,79888,1,0,0:0:0:0:
260,348,79968,5,0,0:0:0:0:
316,328,80046,1,0,0:0:0:0:
347,274,80125,1,0,0:0:0:0:
334,214,80204,1,0,0:0:0:0:
264,240,80284,5,0,0:0:0:0:
196,262,80362,1,0,0:0:0:0:
127,250,80441,1,0,0:0:0:0:
71,206,80520,1,0,0:0:0:0:
43,142,80599,1,0,0:0:0:0:
56,72,80678,2,0,L|96:28,2,47.5
248,48,80915,6,0,L|264:120,3,47.5
312,344,81231,1,0,0:0:0:0:
303,297,81309,1,0,0:0:0:0:
292,248,81389,2,0,L|280:184,1,47.5
72,312,81547,6,0,L|112:256,1,47.5
236,52,81705,1,0,0:0:0:0:
211,92,81783,1,0,0:0:0:0:
188,136,81863,2,0,P|224:192|296:192,1,118.75
308,128,82099,1,0,0:0:0:0:
308,128,82178,2,0,P|360:196|352:228,1,118.75
276,312,82415,1,0,0:0:0:0:
276,312,82494,2,0,P|220:340|160:296,1,118.75
80,228,82731,1,0,0:0:0:0:
80,228,82810,2,0,P|98:102|229:118,1,285.000010871888
120,88,91968,5,0,0:0:0:0:
112,216,92126,1,0,0:0:0:0:
364,56,92442,1,0,0:0:0:0:
288,336,92757,1,0,0:0:0:0:
132,152,93073,1,0,0:0:0:0:
132,152,93152,1,0,0:0:0:0:
132,152,93231,6,0,P|204:192|244:176,1,95
288,136,93547,1,0,0:0:0:0:
124,308,93705,1,0,0:0:0:0:
368,240,93863,1,0,0:0:0:0:
124,308,94021,1,0,0:0:0:0:
368,240,94178,1,0,0:0:0:0:
100,148,94336,2,0,P|168:156|220:132,1,95
412,236,94652,2,0,P|344:228|292:252,1,95
304,240,94968,1,0,0:0:0:0:
88,128,95126,6,0,P|144:92|208:100,1,95
256,192,95442,1,0,0:0:0:0:
424,256,95599,2,0,P|368:292|304:284,1,95
164,264,95915,2,0,P|112:224|100:172,1,95
180,64,96231,1,0,0:0:0:0:
372,168,96389,1,0,0:0:0:0:
180,64,96547,1,0,0:0:0:0:
320,268,96705,1,0,0:0:0:0:
320,268,96863,2,0,P|260:328|148:320,1,190
144,316,97336,1,0,0:0:0:0:
144,316,97494,1,0,0:0:0:0:
116,80,97652,6,0,P|168:68|232:80,1,95
224,80,97968,1,0,0:0:0:0:
372,192,98126,1,0,0:0:0:0:
372,192,98205,1,0,0:0:0:0:
372,192,98284,2,0,P|352:260|304:284,2,95
324,284,98757,1,0,0:0:0:0:
80,136,98915,6,0,P|121:88|187:77,1,95
168,80,99231,1,0,0:0:0:0:
368,152,99389,1,0,0:0:0:0:
368,152,99547,2,0,P|352:212|300:256,1,95
328,248,99784,1,0,0:0:0:0:
328,248,99863,1,0,0:0:0:0:
164,328,100021,2,0,P|124:276|124:224,1,95
132,68,100336,5,0,0:0:0:0:
175,52,100414,1,0,0:0:0:0:
224,60,100494,1,0,0:0:0:0:
262,87,100572,1,0,0:0:0:0:
308,98,100651,1,0,0:0:0:0:
355,92,100730,1,0,0:0:0:0:
400,76,100810,2,0,L|452:64,3,47.5
416,216,101126,2,0,L|364:204,7,47.5
224,332,101757,2,0,L|276:320,5,47.5
120,88,102231,2,0,L|68:68,6,47.5
80,264,103336,5,0,0:0:0:0:
408,60,103494,1,0,0:0:0:0:
164,348,103652,1,0,0:0:0:0:
224,32,103810,1,0,0:0:0:0:
388,336,103968,5,0,0:0:0:0:
64,168,104126,1,0,0:0:0:0:
408,312,104284,1,0,0:0:0:0:
96,56,104442,2,0,L|180:68,1,59.375
460,100,104599,5,0,0:0:0:0:
60,204,104757,1,0,0:0:0:0:
460,100,104915,1,0,0:0:0:0:
64,288,105073,2,0,P|128:256|56:124,1,237.5
448,312,105547,6,0,P|396:264|336:252,1,118.75
64,200,105863,2,0,P|128:168|180:4,1,237.5
152,328,106336,1,0,0:0:0:0:
376,52,106494,1,0,0:0:0:0:
152,328,106652,1,0,0:0:0:0:
448,184,106810,2,0,P|384:216|352:288,1,118.75
112,332,107126,5,0,0:0:0:0:
192,32,107284,1,0,0:0:0:0:
316,348,107442,1,0,0:0:0:0:
396,48,107600,1,0,0:0:0:0:
396,48,107678,1,0,0:0:0:0:
396,48,107757,2,0,L|376:120,4,59.375
376,116,108231,1,0,0:0:0:0:
92,288,108389,6,0,P|160:332|236:308,1,118.75
448,220,108705,1,0,0:0:0:0:
76,72,108863,1,0,0:0:0:0:
436,260,109021,1,0,0:0:0:0:
64,288,109178,1,0,0:0:0:0:
444,96,109336,1,0,0:0:0:0:
76,72,109494,2,0,L|160:124,1,59.375
436,260,109652,6,0,P|372:296|316:296,1,118.75
88,208,109968,1,0,0:0:0:0:
400,72,110126,1,0,0:0:0:0:
411,128,110204,1,0,0:0:0:0:
383,179,110283,1,0,0:0:0:0:
328,198,110362,1,0,0:0:0:0:
272,180,110442,1,0,0:0:0:0:
176,308,110599,1,0,0:0:0:0:
176,308,110757,1,0,0:0:0:0:
321,383,110915,5,0,0:0:0:0:
388,39,111073,1,0,0:0:0:0:
57,153,111231,1,0,0:0:0:0:
191,1,111389,5,0,0:0:0:0:
124,345,111547,1,0,0:0:0:0:
455,231,111705,1,0,0:0:0:0:
321,383,111863,5,0,0:0:0:0:
388,39,112021,1,0,0:0:0:0:
57,153,112179,1,0,0:0:0:0:
388,39,112336,1,0,0:0:0:0:
380,70,112414,1,0,0:0:0:0:
367,100,112493,1,0,0:0:0:0:
348,127,112572,1,0,0:0:0:0:
324,149,112651,1,0,0:0:0:0:
296,165,112731,1,0,0:0:0:0:
368,220,112810,5,0,0:0:0:0:
316,248,112888,1,0,0:0:0:0:
256,236,112967,1,0,0:0:0:0:
216,192,113046,1,0,0:0:0:0:
252,104,113126,5,0,0:0:0:0:
182,100,113204,1,0,0:0:0:0:
126,140,113283,1,0,0:0:0:0:
106,206,113362,1,0,0:0:0:0:
133,271,113441,5,0,0:0:0:0:
484,348,113599,1,0,0:0:0:0:
44,56,113757,1,0,0:0:0:0:
492,316,113915,1,0,0:0:0:0:
16,260,114073,5,0,0:0:0:0:
480,84,114231,1,0,0:0:0:0:
8,228,114389,1,0,0:0:0:0:
492,316,114547,1,0,0:0:0:0:
152,4,114705,5,0,0:0:0:0:
308,376,114863,1,0,0:0:0:0:
392,8,115021,1,0,0:0:0:0:
112,344,115178,6,0,P|184:312|200:152,1,237.5
444,268,115652,2,0,P|448:160|492:132,1,118.75
76,332,115968,5,0,0:0:0:0:
312,32,116126,1,0,0:0:0:0:
112,344,116284,1,0,0:0:0:0:
472,176,116442,1,0,0:0:0:0:
64,68,116599,5,0,0:0:0:0:
392,356,116757,1,0,0:0:0:0:
204,20,116915,1,0,0:0:0:0:
360,372,117073,1,0,0:0:0:0:
104,352,117231,5,0,0:0:0:0:
204,20,117389,1,0,0:0:0:0:
292,376,117547,1,0,0:0:0:0:
392,44,117705,1,0,0:0:0:0:
392,44,117784,1,0,0:0:0:0:
392,44,117863,2,0,L|368:112,4,59.375
284,340,118336,1,0,0:0:0:0:
48,48,118494,1,0,0:0:0:0:
48,48,118573,5,0,0:0:0:0:
48,48,118652,1,0,0:0:0:0:
488,288,118810,5,0,0:0:0:0:
16,120,118968,1,0,0:0:0:0:
504,128,119126,5,0,0:0:0:0:
24,284,119284,1,0,0:0:0:0:
497,292,119442,5,0,0:0:0:0:
5,116,119600,1,0,0:0:0:0:
256,192,119757,5,0,0:0:0:0:
256,192,119915,1,0,0:0:0:0:
256,192,120073,1,0,0:0:0:0:
3,214,121021,5,0,0:0:0:0:
54,170,121099,1,0,0:0:0:0:
118,152,121178,1,8,0:0:0:0:
184,161,121257,1,0,0:0:0:0:
246,185,121336,5,8,0:0:0:0:
307,211,121414,1,0,0:0:0:0:
374,210,121493,1,8,0:0:0:0:
434,180,121572,1,0,0:0:0:0:
473,122,121652,5,8,0:0:0:0:
464,57,121730,1,0,0:0:0:0:
416,12,121809,1,8,0:0:0:0:
349,6,121888,1,0,0:0:0:0:
293,37,121968,5,0,0:0:0:0:
273,100,122046,1,0,0:0:0:0:
295,162,122125,1,8,0:0:0:0:
350,197,122204,1,0,0:0:0:0:
410,230,122284,5,8,0:0:0:0:
418,298,122363,1,0,0:0:0:0:
388,361,122441,1,8,0:0:0:0:
325,383,122520,1,0,0:0:0:0:
263,355,122599,5,8,0:0:0:0:
234,297,122677,1,0,0:0:0:0:
248,232,122756,1,8,0:0:0:0:
302,195,122835,1,0,0:0:0:0:
371,189,122915,5,8,0:0:0:0:
436,173,122993,1,0,0:0:0:0:
473,120,123072,1,8,0:0:0:0:
469,53,123151,1,0,0:0:0:0:
418,9,123231,5,8,0:0:0:0:
348,9,123309,1,0,0:0:0:0:
293,42,123388,1,8,0:0:0:0:
246,94,123467,1,0,0:0:0:0:
164,112,123547,6,0,P|208:172|280:172,1,142.500005435944
336,344,123863,2,0,P|380:316|404:220,1,142.500005435944
124,136,124099,1,0,0:0:0:0:
124,136,124178,2,0,P|160:64|260:48,1,142.500005435944
220,328,124494,2,0,P|264:256|236:192,1,142.500005435944
380,60,124731,1,0,0:0:0:0:
380,60,124810,2,0,P|424:120|416:192,1,142.500005435944
412,200,125126,1,0,0:0:0:0:
120,328,125284,6,0,L|192:300,1,71.2500027179719
200,32,125442,2,0,L|232:96,1,71.2500027179719
432,248,125599,2,0,L|304:300,1,71.2500027179719
120,328,125757,2,0,L|216:292,1,71.2500027179719
432,248,125915,2,0,L|348:284,1,71.2500027179719
20,344,126073,5,0,0:0:0:0:
136,48,126231,1,0,0:0:0:0:
136,336,126389,5,0,0:0:0:0:
252,40,126547,1,0,0:0:0:0:
492,28,126705,5,0,0:0:0:0:
376,324,126863,1,0,0:0:0:0:
376,36,127021,5,0,0:0:0:0:
260,332,127179,1,0,0:0:0:0:
120,144,127336,5,0,0:0:0:0:
155,97,127414,1,0,0:0:0:0:
214,91,127493,1,0,0:0:0:0:
258,129,127572,1,0,0:0:0:0:
280,176,127652,1,0,0:0:0:0:
320,206,127730,1,0,0:0:0:0:
362,180,127809,1,0,0:0:0:0:
354,130,127888,1,0,0:0:0:0:
392,112,127968,1,0,0:0:0:0:
433,131,128046,1,0,0:0:0:0:
444,174,128125,1,0,0:0:0:0:
436,196,128205,1,0,0:0:0:0:
444,192,128284,1,0,0:0:0:0:
432,192,128363,1,0,0:0:0:0:
436,196,128442,2,0,L|344:256,1,71.2500027179719
140,352,128599,5,0,0:0:0:0:
260,180,128757,1,0,0:0:0:0:
8,216,128915,5,0,0:0:0:0:
224,88,129073,2,0,L|144:136,1,71.2500027179719
40,64,129231,5,0,0:0:0:0:
325,36,129389,1,0,0:0:0:0:
140,160,129547,5,0,0:0:0:0:
464,272,129705,2,0,L|380:292,1,71.2500027179719
148,336,129863,6,0,L|184:248,1,71.2500027179719
240,96,130021,1,0,0:0:0:0:
274,53,130099,1,0,0:0:0:0:
330,50,130178,1,0,0:0:0:0:
369,90,130256,1,0,0:0:0:0:
361,145,130335,1,0,0:0:0:0:
313,173,130414,1,0,0:0:0:0:
272,208,130494,2,0,P|250:229|244:276,7,71.2500027179719
72,120,131126,5,0,0:0:0:0:
72,120,131205,1,0,0:0:0:0:
72,120,131284,1,0,0:0:0:0:
72,120,131363,2,0,L|116:184,2,71.2500027179719
280,128,131599,1,0,0:0:0:0:
280,128,131678,1,0,0:0:0:0:
280,128,131757,1,0,0:0:0:0:
280,128,131836,2,0,L|292:200,2,71.2500027179719
448,272,132073,1,0,0:0:0:0:
448,272,132152,1,0,0:0:0:0:
448,272,132231,1,0,0:0:0:0:
448,272,132310,2,0,L|390:316,2,71.2500027179719
144,192,132547,1,0,0:0:0:0:
144,192,132626,1,0,0:0:0:0:
144,192,132705,1,0,0:0:0:0:
144,192,132784,2,0,L|132:264,2,71.2500027179719
264,308,133021,6,0,P|312:272|324:220,1,106.875004076958
248,156,133336,6,0,P|224:112|340:44,1,213.750008153916
440,168,133652,5,0,0:0:0:0:
393,209,133757,1,0,0:0:0:0:
334,229,133862,1,0,0:0:0:0:
272,232,133968,5,0,0:0:0:0:
210,220,134073,1,0,0:0:0:0:
157,185,134178,1,0,0:0:0:0:
104,152,134284,5,0,0:0:0:0:
43,165,134389,1,0,0:0:0:0:
12,218,134494,1,0,0:0:0:0:
28,280,134599,5,0,0:0:0:0:
84,308,134704,1,0,0:0:0:0:
144,288,134809,1,0,0:0:0:0:
172,232,134915,5,0,0:0:0:0:
212,184,135020,1,0,0:0:0:0:
264,148,135125,1,0,0:0:0:0:
328,136,135231,5,0,0:0:0:0:
384,160,135336,1,0,0:0:0:0:
404,220,135441,1,0,0:0:0:0:
380,280,135547,5,0,0:0:0:0:
320,296,135652,1,0,0:0:0:0:
264,272,135757,1,0,0:0:0:0:
236,216,135863,6,0,P|224:152|240:116,1,95
88,344,136178,5,0,0:0:0:0:
40,24,136336,1,0,0:0:0:0:
252,356,136494,5,0,0:0:0:0:
256,16,136652,1,0,0:0:0:0:
424,344,136810,5,0,0:0:0:0:
472,24,136968,1,0,0:0:0:0:
80,28,137126,5,0,0:0:0:0:
436,32,137284,1,0,0:0:0:0:
48,192,137442,5,0,0:0:0:0:
464,192,137600,1,0,0:0:0:0:
12,352,137757,5,0,0:0:0:0:
500,352,137915,1,0,0:0:0:0:
192,40,138073,1,0,0:0:0:0:
500,352,138231,1,0,0:0:0:0:
64,176,138389,1,0,0:0:0:0:
500,352,138547,1,0,0:0:0:0:
48,252,138705,5,0,0:0:0:0:
104,251,138783,1,0,0:0:0:0:
153,224,138862,1,0,0:0:0:0:
184,177,138941,1,0,0:0:0:0:
238,199,139021,5,0,0:0:0:0:
293,195,139099,1,0,0:0:0:0:
334,157,139178,1,0,0:0:0:0:
341,102,139257,1,0,0:0:0:0:
338,47,139336,5,0,0:0:0:0:
388,72,139414,1,0,0:0:0:0:
444,80,139493,1,0,0:0:0:0:
500,68,139572,1,0,0:0:0:0:
476,120,139652,5,0,0:0:0:0:
452,172,139730,1,0,0:0:0:0:
424,220,139809,1,0,0:0:0:0:
396,268,139888,1,0,0:0:0:0:
364,316,139968,2,0,L|280:296,16,47.5
100,76,148810,6,0,P|148:116|280:108,1,190
436,192,149284,1,0,0:0:0:0:
436,192,149442,1,0,0:0:0:0:
312,352,149599,1,0,0:0:0:0:
312,352,149757,1,0,0:0:0:0:
416,304,149915,1,0,0:0:0:0:
416,304,150073,2,0,P|368:264|236:272,1,190
76,192,150547,1,0,0:0:0:0:
76,192,150705,6,0,P|168:148|260:172,1,190
396,240,151178,1,0,0:0:0:0:
396,240,151336,2,0,P|412:172|400:124,1,95
172,56,151652,5,0,0:0:0:0:
131,80,151730,1,0,0:0:0:0:
104,119,151809,1,0,0:0:0:0:
94,165,151888,1,0,0:0:0:0:
102,211,151967,1,0,0:0:0:0:
240,312,152126,1,0,0:0:0:0:
396,240,152284,2,0,P|420:176|404:128,1,95
64,56,152599,5,0,0:0:0:0:
104,304,152915,5,0,0:0:0:0:
64,56,153073,1,0,0:0:0:0:
256,336,153231,5,0,0:0:0:0:
256,16,153389,1,0,0:0:0:0:
392,372,153547,5,0,0:0:0:0:
464,16,153705,1,0,0:0:0:0:
32,192,154021,5,0,0:0:0:0:
480,192,154178,1,0,0:0:0:0:
32,192,154336,1,0,0:0:0:0:
448,308,154494,1,0,0:0:0:0:
448,308,154573,1,0,0:0:0:0:
448,308,154652,2,0,L|404:364,6,47.5
92,112,160178,5,0,0:0:0:0:
92,112,160336,2,0,P|152:148|200:120,1,95
396,52,160652,1,0,0:0:0:0:
344,312,160810,1,0,0:0:0:0:
344,312,160968,2,0,P|284:328|240:316,1,95
68,188,161284,5,0,0:0:0:0:
68,188,161363,1,0,0:0:0:0:
68,188,161442,1,0,0:0:0:0:
196,60,161599,2,0,P|244:48|308:76,1,95
412,188,161915,2,0,P|412:248|368:296,2,95
392,284,162389,1,0,0:0:0:0:
240,312,162547,1,0,0:0:0:0:
80,64,162705,5,0,0:0:0:0:
288,64,162863,1,0,0:0:0:0:
334,70,162941,1,0,0:0:0:0:
375,94,163020,1,0,0:0:0:0:
403,132,163099,1,0,0:0:0:0:
460,180,163178,5,0,0:0:0:0:
424,209,163256,1,0,0:0:0:0:
379,224,163335,1,0,0:0:0:0:
331,221,163414,1,0,0:0:0:0:
288,200,163494,1,0,0:0:0:0:
256,164,163572,1,0,0:0:0:0:
240,120,163652,1,0,0:0:0:0:
16,192,163968,5,0,0:0:0:0:
496,192,164126,1,0,0:0:0:0:
16,192,164284,1,0,0:0:0:0:
104,308,165863,5,0,0:0:0:0:
368,84,166021,1,0,0:0:0:0:
132,336,166178,1,0,0:0:0:0:
456,252,166336,1,0,0:0:0:0:
96,100,166494,5,0,0:0:0:0:
432,288,166652,1,0,0:0:0:0:
56,264,166810,1,0,0:0:0:0:
396,68,166968,1,0,0:0:0:0:
200,356,167126,5,0,0:0:0:0:
176,32,167284,1,0,0:0:0:0:
372,364,167442,1,0,0:0:0:0:
176,32,167599,2,0,P|116:88|156:236,1,237.5
380,240,168073,2,0,P|416:176|400:112,1,118.75
176,32,168389,2,0,P|116:88|156:236,1,237.5
264,144,168863,1,0,0:0:0:0:
380,240,169021,2,0,P|416:176|400:112,1,118.75
128,120,169336,2,0,L|112:248,1,118.75
104,336,169652,5,0,0:0:0:0:
184,36,169810,1,0,0:0:0:0:
292,348,169968,1,0,0:0:0:0:
372,48,170126,2,0,P|408:104|400:172,1,118.75
408,168,170363,1,0,0:0:0:0:
408,168,170442,1,0,0:0:0:0:
92,216,170599,1,0,0:0:0:0:
92,216,170757,1,0,0:0:0:0:
272,344,170915,6,0,P|352:320|384:264,1,118.75
380,284,171231,1,0,0:0:0:0:
256,64,171389,5,0,0:0:0:0:
256,256,171547,1,0,0:0:0:0:
256,64,171705,1,0,0:0:0:0:
256,64,171863,1,0,0:0:0:0:
412,208,172021,1,0,0:0:0:0:
100,204,172178,5,0,0:0:0:0:
57,165,172256,1,0,0:0:0:0:
62,107,172335,1,0,0:0:0:0:
109,75,172414,1,0,0:0:0:0:
168,88,172494,5,0,0:0:0:0:
196,139,172572,1,0,0:0:0:0:
200,197,172651,1,0,0:0:0:0:
188,256,172731,1,0,0:0:0:0:
200,312,172810,5,0,0:0:0:0:
252,344,172888,1,0,0:0:0:0:
308,320,172967,1,0,0:0:0:0:
320,256,173047,1,0,0:0:0:0:
280,212,173125,5,0,0:0:0:0:
220,212,173204,1,0,0:0:0:0:
188,264,173283,1,0,0:0:0:0:
200,324,173363,1,0,0:0:0:0:
252,348,173442,2,0,P|344:344|380:320,1,118.75
380,320,173678,1,0,0:0:0:0:
392,304,173757,2,0,P|416:240|388:152,1,118.75
308,68,174073,6,0,P|232:44|100:132,1,237.5
112,328,174547,1,0,0:0:0:0:
436,124,174705,1,0,0:0:0:0:
88,296,174863,1,0,0:0:0:0:
316,20,175021,1,0,0:0:0:0:
344,344,175178,1,0,0:0:0:0:
192,24,175336,2,0,P|132:48|96:120,1,118.75
88,296,175652,2,0,P|152:332|224:296,1,118.75
440,60,175968,6,0,P|428:160|294:290,1,237.5
96,252,176442,1,0,0:0:0:0:
63,201,176520,1,0,0:0:0:0:
61,142,176599,1,0,0:0:0:0:
85,89,176678,1,0,0:0:0:0:
132,54,176757,1,0,0:0:0:0:
380,40,176915,1,0,0:0:0:0:
128,340,177073,5,0,0:0:0:0:
216,32,177231,1,0,0:0:0:0:
284,352,177389,1,0,0:0:0:0:
380,40,177547,2,0,P|420:128|392:176,1,118.75
412,164,177784,1,0,0:0:0:0:
408,180,177863,6,0,P|356:240|196:204,1,237.5
72,40,178336,1,0,0:0:0:0:
272,352,178494,1,0,0:0:0:0:
72,40,178652,1,0,0:0:0:0:
416,292,178810,5,0,0:0:0:0:
36,176,178968,1,0,0:0:0:0:
468,140,179126,1,0,0:0:0:0:
32,216,179284,1,0,0:0:0:0:
372,16,179442,5,0,0:0:0:0:
136,348,179599,1,0,0:0:0:0:
372,16,179757,1,0,0:0:0:0:
32,216,179915,2,0,P|76:160|152:152,1,118.75
312,316,180231,2,0,P|380:228|372:92,1,237.5
372,92,180705,1,0,0:0:0:0:
96,56,180863,1,0,0:0:0:0:
96,56,181021,2,0,L|84:140,6,59.375
232,196,181573,2,0,L|264:276,5,59.375
384,60,182126,5,0,0:0:0:0:
412,111,182204,1,0,0:0:0:0:
420,170,182283,1,0,0:0:0:0:
407,227,182362,1,0,0:0:0:0:
380,280,182442,1,0,0:0:0:0:
335,315,182520,1,0,0:0:0:0:
276,316,182599,2,0,L|216:300,3,59.375
108,236,182915,2,0,L|76:176,3,59.375
112,80,183231,2,0,L|156:36,3,59.375
100,324,183547,5,0,0:0:0:0:
384,44,183705,1,0,0:0:0:0:
132,340,183863,1,0,0:0:0:0:
480,240,184021,1,0,0:0:0:0:
84,48,184178,5,0,0:0:0:0:
400,360,184336,1,0,0:0:0:0:
188,12,184494,1,0,0:0:0:0:
68,340,184652,1,0,0:0:0:0:
328,60,184810,5,0,0:0:0:0:
48,304,184968,1,0,0:0:0:0:
452,224,185126,1,0,0:0:0:0:
52,96,185284,2,0,P|168:56|276:100,1,237.5
140,312,185757,2,0,P|264:312|288:292,1,118.75
48,176,186073,5,0,0:0:0:0:
472,40,186231,1,0,0:0:0:0:
48,176,186389,1,0,0:0:0:0:
472,40,186547,1,0,0:0:0:0:
448,256,186705,6,0,P|392:296|332:284,1,118.75
116,204,187021,2,0,P|80:104|196:40,1,237.5
184,36,187494,1,0,0:0:0:0:
288,364,187652,1,0,0:0:0:0:
184,36,187810,1,0,0:0:0:0:
72,336,187968,5,0,0:0:0:0:
376,44,188126,1,0,0:0:0:0:
104,344,188284,1,0,0:0:0:0:
480,188,188442,1,0,0:0:0:0:
40,64,188599,1,0,0:0:0:0:
500,320,188757,1,0,0:0:0:0:
8,216,188915,1,0,0:0:0:0:
8,216,189073,1,0,0:0:0:0:
440,336,189231,5,0,0:0:0:0:
136,44,189389,1,0,0:0:0:0:
408,344,189547,1,0,0:0:0:0:
32,188,189705,1,0,0:0:0:0:
472,64,189862,1,0,0:0:0:0:
12,320,190020,1,0,0:0:0:0:
504,216,190178,1,0,0:0:0:0:
504,216,190336,1,0,0:0:0:0:
0,56,190494,5,0,0:0:0:0:
472,352,190652,1,0,0:0:0:0:
20,28,190810,1,0,0:0:0:0:
492,92,190968,1,0,0:0:0:0:
0,176,191126,1,0,0:0:0:0:
0,176,191284,1,0,0:0:0:0:
36,356,191442,5,0,0:0:0:0:
464,24,191599,1,0,0:0:0:0:
68,368,191757,1,0,0:0:0:0:
508,192,191915,1,0,0:0:0:0:
12,256,192073,1,0,0:0:0:0:
12,256,192231,1,0,0:0:0:0:
180,360,192389,5,0,0:0:0:0:
121,317,192467,1,0,0:0:0:0:
84,257,192546,1,0,0:0:0:0:
71,187,192625,1,0,0:0:0:0:
87,118,192704,5,0,0:0:0:0:
127,60,192783,1,0,0:0:0:0:
186,20,192862,1,0,0:0:0:0:
255,6,192941,1,0,0:0:0:0:
325,19,193021,5,0,0:0:0:0:
385,59,193099,1,0,0:0:0:0:
426,117,193178,1,0,0:0:0:0:
441,186,193257,1,0,0:0:0:0:
429,256,193336,5,0,0:0:0:0:
392,317,193415,1,0,0:0:0:0:
334,358,193494,1,0,0:0:0:0:
256,192,193652,5,0,0:0:0:0:
256,192,193810,1,0,0:0:0:0:
256,192,193968,1,0,0:0:0:0:
388,312,194915,6,0,L|344:264,1,47.5
184,56,195073,1,0,0:0:0:0:
184,56,195152,1,0,0:0:0:0:
184,56,195231,2,0,L|224:104,1,47.5
384,120,195388,6,0,L|332:148,1,47.5
64,276,195546,1,0,0:0:0:0:
107,257,195624,1,0,0:0:0:0:
152,236,195704,2,0,L|208:208,1,47.5
270,369,195862,6,0,L|276:312,1,47.5
296,43,196020,1,0,0:0:0:0:
296,43,196099,1,0,0:0:0:0:
296,43,196178,2,0,L|292:100,1,47.5
400,224,196336,6,0,L|344:208,1,47.5
58,122,196493,1,0,0:0:0:0:
102,137,196573,1,0,0:0:0:0:
144,152,196652,2,0,L|201:170,1,47.5
116,304,196810,6,0,L|160:272,1,47.5
344,120,196967,1,0,0:0:0:0:
228,84,197046,1,0,0:0:0:0:
112,52,197125,2,0,P|72:104|104:184,1,118.75
96,184,197363,1,0,0:0:0:0:
196,200,197442,1,0,0:0:0:0:
176,248,197521,1,0,0:0:0:0:
152,352,197599,1,0,0:0:0:0:
152,352,197678,1,0,0:0:0:0:
152,352,197757,6,0,L|224:332,1,47.5
408,320,197915,6,0,L|368:276,1,47.5
134,39,198073,1,0,0:0:0:0:
169,70,198151,1,0,0:0:0:0:
204,103,198231,2,0,L|256:148,1,47.5
76,324,198388,6,0,L|128:288,1,47.5
280,160,198547,1,0,0:0:0:0:
312,126,198625,1,0,0:0:0:0:
359,119,198704,1,0,0:0:0:0:
400,140,198783,1,0,0:0:0:0:
423,181,198862,1,0,0:0:0:0:
417,228,198941,1,0,0:0:0:0:
388,266,199021,5,0,0:0:0:0:
340,262,199099,1,0,0:0:0:0:
295,275,199178,1,0,0:0:0:0:
256,302,199257,1,0,0:0:0:0:
228,264,199336,5,0,0:0:0:0:
190,212,199414,1,0,0:0:0:0:
134,182,199493,1,0,0:0:0:0:
71,178,199572,1,0,0:0:0:0:
108,108,199652,5,0,0:0:0:0:
169,72,199730,1,0,0:0:0:0:
237,62,199809,1,0,0:0:0:0:
308,78,199889,1,0,0:0:0:0:
364,119,199968,2,0,L|378:183,3,47.5
276,292,200284,2,0,L|317:325,3,47.5
76,80,200600,6,0,L|132:140,1,47.5
312,324,200758,1,0,0:0:0:0:
276,292,200836,1,0,0:0:0:0:
240,261,200916,2,0,L|196:220,1,47.5
456,248,201074,6,0,L|396:188,1,47.5
252,68,201231,1,0,0:0:0:0:
205,60,201309,1,0,0:0:0:0:
163,80,201388,1,0,0:0:0:0:
138,120,201467,1,0,0:0:0:0:
132,168,201547,5,0,0:0:0:0:
178,177,201625,1,0,0:0:0:0:
218,202,201704,1,0,0:0:0:0:
246,239,201783,1,0,0:0:0:0:
252,304,201863,5,0,0:0:0:0:
317,312,201941,1,0,0:0:0:0:
380,289,202020,1,0,0:0:0:0:
424,239,202099,1,0,0:0:0:0:
472,187,202178,5,0,0:0:0:0:
408,149,202256,1,0,0:0:0:0:
340,139,202335,1,0,0:0:0:0:
272,158,202414,1,0,0:0:0:0:
218,202,202493,1,0,0:0:0:0:
181,267,202573,2,0,L|169:320,4,47.5
56,128,202968,6,0,L|132:104,1,47.5
424,32,203126,1,0,0:0:0:0:
378,45,203204,1,0,0:0:0:0:
332,60,203284,2,0,L|272:80,1,47.5
448,300,203442,6,0,L|364:276,1,47.5
64,172,203599,1,0,0:0:0:0:
108,187,203677,1,0,0:0:0:0:
152,208,203757,6,0,L|208:228,1,47.5
448,180,203915,2,0,L|388:212,1,47.5
92,304,204073,2,0,L|148:324,1,47.5
420,296,204231,2,0,L|360:328,1,47.5
60,84,204389,6,0,L|116:104,1,47.5
460,92,204547,2,0,L|392:116,1,47.5
108,187,204705,2,0,L|152:223,3,47.5
392,284,205021,6,0,P|340:320|232:304,1,166.25
128,212,205652,1,0,0:0:0:0:
118,153,205730,1,0,0:0:0:0:
153,106,205809,1,0,0:0:0:0:
212,99,205888,1,0,0:0:0:0:
270,120,205968,5,0,0:0:0:0:
306,167,206046,1,0,0:0:0:0:
363,183,206125,1,0,0:0:0:0:
418,160,206204,1,0,0:0:0:0:
448,104,206284,5,0,0:0:0:0:
64,280,206599,1,0,0:0:0:0:
