osu file format v14

[General]
AudioFilename: audio.mp3
AudioLeadIn: 0
PreviewTime: 55202
Countdown: 0
SampleSet: None
StackLeniency: 0.6
Mode: 3
LetterboxInBreaks: 0
SpecialStyle: 0
WidescreenStoryboard: 1

[Editor]
DistanceSpacing: 1.3
BeatDivisor: 4
GridSize: 4
TimelineZoom: 2.300005

[Metadata]
Title:Refrain Boy
TitleUnicode:リフレインボーイ
Artist:ALL OFF
ArtistUnicode:ALL OFF
Creator:[Konoshintaro]-
Version:4K ADVANCE
Source:モブサイコ100
Tags:Mob psycho 100 Mobu Saiko Hyaku tv size ending
BeatmapID:1311419
BeatmapSetID:622012

[Difficulty]
HPDrainRate:7
CircleSize:4
OverallDifficulty:8
ApproachRate:9.2
SliderMultiplier:1.7
SliderTickRate:1

[Events]
//Background and Video events
Video,0,"Vid.avi"
0,0,"thumb-1920-727542.png",0,0
//Break Periods
//Storyboard Layer 0 (Background)
//Storyboard Layer 1 (Fail)
//Storyboard Layer 2 (Pass)
//Storyboard Layer 3 (Foreground)
//Storyboard Sound Samples

[TimingPoints]
1360,315.789473684211,4,2,1,60,1,0
1360,-100,4,2,1,60,0,0
1438,-66.6666666666667,4,2,1,60,0,0
2623,-100,4,2,1,60,0,0
2702,-66.6666666666667,4,2,1,60,0,0
3886,-100,4,2,1,60,0,0
3965,-66.6666666666667,4,2,1,60,0,0
5149,-100,4,2,1,60,0,0
5781,-100,4,2,1,60,0,0
8307,-100,4,2,2,60,0,0
8938,-200,4,2,1,65,0,0
9570,-100,4,2,1,65,0,0
10202,-100,4,2,1,60,0,0
10438,-100,4,2,1,30,0,0
10517,-100,4,2,1,60,0,0
10833,-166.666666666667,4,2,2,40,0,0
11070,-100,4,2,1,26,0,0
11149,-76.9230769230769,4,2,1,65,0,0
11386,-76.9230769230769,4,2,1,30,0,0
11465,-100,4,2,1,50,0,0
15807,-100,4,2,1,75,0,0
16517,-100,4,3,1,60,0,0
16596,-100,4,2,1,50,0,0
18333,-100,4,2,1,60,0,0
18412,-83.3333333333333,4,2,1,60,0,0
19044,-100,4,3,1,60,0,0
19202,-100,4,2,1,50,0,0
30412,-100,4,2,1,65,0,0
30491,-83.3333333333333,4,2,1,60,0,0
30570,-125,4,2,1,60,0,0
30649,-83.3333333333333,4,2,1,60,0,0
30728,-125,4,2,1,60,0,0
30807,-83.3333333333333,4,2,1,60,0,0
30886,-125,4,2,1,60,0,0
30965,-83.3333333333333,4,2,1,60,0,0
31044,-125,4,2,1,60,0,0
31123,-83.3333333333333,4,2,1,60,0,0
31202,-125,4,2,1,60,0,0
31281,-100,4,2,1,60,0,0
31675,-100,4,3,1,60,0,0
31754,-100,4,2,1,60,0,0
41781,-100,4,3,1,60,0,0
41860,-83.3333333333333,4,3,1,60,0,0
41938,-125,4,3,1,60,0,0
42017,-83.3333333333333,4,3,1,60,0,0
42412,-125,4,3,1,60,0,0
42491,-83.3333333333333,4,3,1,60,0,0
42570,-125,4,3,1,60,0,0
42649,-83.3333333333333,4,3,1,60,0,0
43044,-125,4,3,1,60,0,0
43123,-83.3333333333333,4,3,1,60,0,0
43202,-125,4,3,1,60,0,0
43281,-83.3333333333333,4,3,1,60,0,0
43675,-125,4,2,1,60,0,0
43833,-100,4,2,1,60,0,0
46833,-100,4,3,1,60,0,0
46912,-83.3333333333333,4,3,1,60,0,0
46991,-125,4,3,1,60,0,0
47070,-83.3333333333333,4,3,1,60,0,0
47465,-125,4,3,1,60,0,0
47544,-83.3333333333333,4,3,1,60,0,0
47623,-125,4,3,1,60,0,0
47702,-83.3333333333333,4,3,1,60,0,0
48096,-125,4,3,1,60,0,0
48175,-83.3333333333333,4,3,1,60,0,0
48254,-125,4,3,1,60,0,0
48333,-83.3333333333333,4,3,1,60,0,0
48728,-125,4,3,1,60,0,0
48807,-100,4,3,1,60,0,0
48886,-100,4,2,1,60,0,0
49360,-100,4,2,1,73,0,0
54886,-200,4,2,2,40,0,0
55360,-100,4,3,1,64,0,0
55675,-100,4,2,1,80,0,1
76281,-83.3333333333333,4,2,1,80,0,1
76517,-125,4,2,0,50,0,1
76596,-83.3333333333333,4,2,1,80,0,1
76833,-125,4,2,0,50,0,1
77149,-100,4,2,1,80,0,1
81412,-111.111111111111,4,2,1,80,0,1
81570,-100,4,2,1,80,0,1
83938,-111.111111111111,4,2,1,80,0,1
84096,-100,4,2,1,80,0,1
87254,-142.857142857143,4,3,1,50,0,0
87807,-100,4,2,1,75,0,0
88517,-125,4,3,1,75,0,0
88596,-83.3333333333333,4,2,1,75,0,0
88833,-125,4,3,1,75,0,0

[HitObjects]
192,192,1360,5,0,0:0:0:0:
320,192,1360,1,0,0:0:0:0:
448,192,1360,1,0,0:0:0:0:
192,192,2623,1,0,0:0:0:0:
64,192,2623,1,0,0:0:0:0:
320,192,2623,1,0,0:0:0:0:
320,192,3886,1,0,0:0:0:0:
448,192,3886,1,0,0:0:0:0:
192,192,3886,1,0,0:0:0:0:
64,192,5149,1,0,0:0:0:0:
192,192,5149,1,0,0:0:0:0:
320,192,5781,1,0,0:0:0:0:
192,192,5781,1,0,0:0:0:0:
64,192,5860,1,0,0:0:0:0:
448,192,5860,1,0,0:0:0:0:
192,192,5938,1,0,0:0:0:0:
320,192,5938,1,0,0:0:0:0:
192,192,6096,1,0,0:0:0:0:
64,192,6096,1,0,0:0:0:0:
320,192,6175,1,0,0:0:0:0:
448,192,6175,1,0,0:0:0:0:
64,192,6254,1,0,0:0:0:0:
192,192,6254,1,0,0:0:0:0:
320,192,6412,128,0,7675:0:0:0:0:
192,192,6412,1,0,0:0:0:0:
64,192,6491,1,0,0:0:0:0:
192,192,6570,1,0,0:0:0:0:
448,192,6728,1,0,0:0:0:0:
192,192,6807,1,0,0:0:0:0:
448,192,6886,1,0,0:0:0:0:
192,192,7044,1,0,0:0:0:0:
64,192,7123,1,0,0:0:0:0:
192,192,7202,1,0,0:0:0:0:
448,192,7360,1,0,0:0:0:0:
192,192,7438,1,0,0:0:0:0:
448,192,7517,1,0,0:0:0:0:
192,192,7675,1,0,0:0:0:0:
64,192,7675,1,0,0:0:0:0:
192,192,8228,1,0,0:0:0:0:
320,192,8307,1,0,0:0:0:0:
192,192,8386,1,0,0:0:0:0:
320,192,8465,1,0,0:0:0:0:
192,192,8544,1,0,0:0:0:0:
320,192,8623,1,0,0:0:0:0:
192,192,8702,1,0,0:0:0:0:
320,192,8781,1,0,0:0:0:0:
192,192,8860,1,0,0:0:0:0:
320,192,8938,1,0,0:0:0:0:
448,192,8938,1,0,0:0:0:0:
64,192,8938,1,0,0:0:0:0:
448,192,9570,1,0,0:0:0:0:
320,192,9570,1,0,0:0:0:0:
192,192,9649,1,0,0:0:0:0:
64,192,9649,1,0,0:0:0:0:
320,192,9728,1,0,0:0:0:0:
448,192,9728,1,0,0:0:0:0:
192,192,9807,1,0,0:0:0:0:
64,192,9807,1,0,0:0:0:0:
320,192,9886,1,0,0:0:0:0:
448,192,9886,1,0,0:0:0:0:
192,192,9965,1,0,0:0:0:0:
64,192,9965,1,0,0:0:0:0:
320,192,10044,1,0,0:0:0:0:
448,192,10044,1,0,0:0:0:0:
192,192,10123,1,0,0:0:0:0:
64,192,10123,1,0,0:0:0:0:
448,192,10202,1,0,0:0:0:0:
320,192,10517,1,0,0:0:0:0:
448,192,10517,1,0,0:0:0:0:
192,192,10833,128,0,11149:0:0:0:0:
320,192,11149,1,0,0:0:0:0:
448,192,11149,1,0,0:0:0:0:
192,192,11465,1,0,0:0:0:0:
64,192,11465,1,0,0:0:0:0:
320,192,11623,1,0,0:0:0:0:
448,192,11623,1,0,0:0:0:0:
192,192,11781,1,8,0:0:0:0:
64,192,11781,1,0,0:0:0:0:
448,192,11781,1,0,0:0:0:0:
192,192,11938,1,0,0:0:0:0:
320,192,11938,1,0,0:0:0:0:
64,192,12096,1,0,0:0:0:0:
192,192,12096,1,0,0:0:0:0:
320,192,12254,1,0,0:0:0:0:
448,192,12254,1,0,0:0:0:0:
192,192,12412,1,8,0:0:0:0:
64,192,12412,1,0,0:0:0:0:
448,192,12412,1,0,0:0:0:0:
192,192,12570,1,0,0:0:0:0:
320,192,12570,1,0,0:0:0:0:
64,192,12728,1,0,0:0:0:0:
192,192,12728,1,0,0:0:0:0:
320,192,12886,1,0,0:0:0:0:
448,192,12886,1,0,0:0:0:0:
64,192,13044,1,0,0:0:0:0:
192,192,13044,1,8,0:0:0:0:
448,192,13044,1,0,0:0:0:0:
192,192,13202,1,0,0:0:0:0:
320,192,13202,1,0,0:0:0:0:
64,192,13360,1,0,0:0:0:0:
192,192,13360,1,0,0:0:0:0:
320,192,13517,1,0,0:0:0:0:
448,192,13517,1,0,0:0:0:0:
192,192,13675,1,8,0:0:0:0:
64,192,13675,1,0,0:0:0:0:
448,192,13675,1,0,0:0:0:0:
192,192,13991,1,0,0:0:0:0:
320,192,13991,1,0,0:0:0:0:
64,192,14149,1,0,0:0:0:0:
192,192,14149,1,0,0:0:0:0:
320,192,14307,1,8,0:0:0:0:
448,192,14307,1,0,0:0:0:0:
64,192,14307,1,0,0:0:0:0:
192,192,14465,1,0,0:0:0:0:
320,192,14465,1,0,0:0:0:0:
64,192,14623,1,0,0:0:0:0:
192,192,14623,1,0,0:0:0:0:
320,192,14781,1,0,0:0:0:0:
448,192,14781,1,0,0:0:0:0:
64,192,14938,1,0,0:0:0:0:
192,192,14938,1,8,0:0:0:0:
448,192,14938,1,0,0:0:0:0:
192,192,15096,1,0,0:0:0:0:
320,192,15096,1,0,0:0:0:0:
64,192,15254,1,0,0:0:0:0:
192,192,15254,1,0,0:0:0:0:
320,192,15412,1,0,0:0:0:0:
448,192,15412,1,0,0:0:0:0:
192,192,15570,1,8,0:0:0:0:
64,192,15570,1,0,0:0:0:0:
448,192,15570,1,0,0:0:0:0:
192,192,15728,1,0,0:0:0:0:
320,192,15728,1,0,0:0:0:0:
64,192,15886,1,0,0:0:0:0:
192,192,15886,1,0,0:0:0:0:
320,192,15965,1,0,0:0:0:0:
448,192,15965,1,0,0:0:0:0:
192,192,16044,1,0,0:0:0:0:
64,192,16044,1,0,0:0:0:0:
448,192,16123,1,0,0:0:0:0:
320,192,16123,1,0,0:0:0:0:
192,192,16202,1,0,0:0:0:0:
64,192,16202,1,0,0:0:0:0:
320,192,16281,1,0,0:0:0:0:
448,192,16281,1,0,0:0:0:0:
192,192,16360,1,0,0:0:0:0:
64,192,16360,1,0,0:0:0:0:
320,192,16438,1,0,0:0:0:0:
448,192,16438,1,0,0:0:0:0:
192,192,16517,1,4,0:0:0:0:
64,192,16517,1,4,0:0:0:0:
448,192,16675,1,0,0:0:0:0:
64,192,16833,1,0,0:0:0:0:
192,192,16833,1,8,0:0:0:0:
320,192,16991,1,0,0:0:0:0:
64,192,17149,1,0,0:0:0:0:
192,192,17149,1,0,0:0:0:0:
320,192,17307,1,0,0:0:0:0:
64,192,17465,1,0,0:0:0:0:
192,192,17465,1,8,0:0:0:0:
448,192,17465,1,0,0:0:0:0:
192,192,17623,1,0,0:0:0:0:
320,192,17623,1,0,0:0:0:0:
448,192,17781,1,0,0:0:0:0:
64,192,17938,1,0,0:0:0:0:
320,192,18096,1,8,0:0:0:0:
448,192,18096,1,0,0:0:0:0:
192,192,18254,1,0,0:0:0:0:
64,192,18254,1,0,0:0:0:0:
448,192,18412,1,0,0:0:0:0:
320,192,18491,1,0,0:0:0:0:
192,192,18570,1,0,0:0:0:0:
64,192,18649,1,0,0:0:0:0:
192,192,18728,1,0,0:0:0:0:
320,192,18807,1,0,0:0:0:0:
448,192,18886,1,0,0:0:0:0:
320,192,18965,1,0,0:0:0:0:
64,192,19044,1,4,0:0:0:0:
192,192,19044,1,4,0:0:0:0:
320,192,19202,1,0,0:0:0:0:
448,192,19202,1,0,0:0:0:0:
192,192,19360,1,8,0:0:0:0:
64,192,19360,1,0,0:0:0:0:
448,192,19360,1,0,0:0:0:0:
192,192,19517,1,0,0:0:0:0:
64,192,19675,1,0,0:0:0:0:
320,192,19833,1,0,0:0:0:0:
448,192,19833,1,0,0:0:0:0:
192,192,19991,1,8,0:0:0:0:
64,192,19991,1,0,0:0:0:0:
448,192,19991,1,0,0:0:0:0:
192,192,20149,1,0,0:0:0:0:
320,192,20149,1,0,0:0:0:0:
192,192,20307,1,0,0:0:0:0:
64,192,20307,1,0,0:0:0:0:
320,192,20465,1,0,0:0:0:0:
448,192,20465,1,0,0:0:0:0:
192,192,20544,1,0,0:0:0:0:
64,192,20544,1,0,0:0:0:0:
320,192,20623,1,0,0:0:0:0:
448,192,20623,1,0,0:0:0:0:
192,192,20702,1,0,0:0:0:0:
64,192,20702,1,0,0:0:0:0:
320,192,20781,1,0,0:0:0:0:
448,192,20781,1,0,0:0:0:0:
192,192,20860,1,0,0:0:0:0:
64,192,20860,1,0,0:0:0:0:
320,192,20938,1,0,0:0:0:0:
448,192,20938,1,0,0:0:0:0:
192,192,21017,1,0,0:0:0:0:
64,192,21017,1,0,0:0:0:0:
320,192,21096,1,0,0:0:0:0:
448,192,21096,1,0,0:0:0:0:
192,192,21175,1,0,0:0:0:0:
64,192,21175,1,0,0:0:0:0:
320,192,21254,1,0,0:0:0:0:
448,192,21254,1,0,0:0:0:0:
192,192,21333,1,0,0:0:0:0:
64,192,21333,1,0,0:0:0:0:
320,192,21412,1,0,0:0:0:0:
448,192,21412,1,0,0:0:0:0:
192,192,21491,1,0,0:0:0:0:
64,192,21491,1,0,0:0:0:0:
320,192,21570,1,4,0:0:0:0:
448,192,21570,1,4,0:0:0:0:
64,192,21728,128,0,21886:0:0:0:0:
192,192,21886,1,0,0:0:0:0:
448,192,22044,128,0,22202:0:0:0:0:
320,192,22202,1,0,0:0:0:0:
192,192,22360,128,0,22517:0:0:0:0:
64,192,22517,1,0,0:0:0:0:
448,192,22675,128,0,22833:0:0:0:0:
192,192,22833,1,0,0:0:0:0:
64,192,22991,128,0,23149:0:0:0:0:
448,192,23149,1,0,0:0:0:0:
192,192,23307,128,0,23465:0:0:0:0:
320,192,23465,1,0,0:0:0:0:
448,192,23623,128,0,23781:0:0:0:0:
192,192,23781,1,0,0:0:0:0:
64,192,23938,128,0,24096:0:0:0:0:
448,192,24096,1,0,0:0:0:0:
192,192,24254,128,0,24412:0:0:0:0:
320,192,24412,1,0,0:0:0:0:
320,192,24570,128,0,24728:0:0:0:0:
448,192,24728,1,0,0:0:0:0:
192,192,24886,128,0,25044:0:0:0:0:
64,192,25044,1,0,0:0:0:0:
320,192,25202,128,0,25360:0:0:0:0:
448,192,25360,1,0,0:0:0:0:
448,192,25517,128,0,25675:0:0:0:0:
64,192,25675,1,0,0:0:0:0:
320,192,25833,128,0,25991:0:0:0:0:
448,192,25991,1,0,0:0:0:0:
192,192,26149,128,0,26307:0:0:0:0:
64,192,26307,1,0,0:0:0:0:
320,192,26465,128,0,26623:0:0:0:0:
448,192,26623,1,0,0:0:0:0:
448,192,26781,128,0,26938:0:0:0:0:
64,192,26938,1,0,0:0:0:0:
192,192,27096,128,0,27254:0:0:0:0:
448,192,27254,1,0,0:0:0:0:
320,192,27412,128,0,27570:0:0:0:0:
64,192,27570,1,0,0:0:0:0:
192,192,27728,128,0,27886:0:0:0:0:
448,192,27886,1,0,0:0:0:0:
320,192,28044,128,0,28202:0:0:0:0:
192,192,28202,1,0,0:0:0:0:
320,192,28360,128,0,28517:0:0:0:0:
448,192,28517,1,0,0:0:0:0:
192,192,28675,128,0,28833:0:0:0:0:
320,192,28833,1,0,0:0:0:0:
448,192,28991,128,0,29149:0:0:0:0:
64,192,29149,1,0,0:0:0:0:
320,192,29307,128,0,29465:0:0:0:0:
448,192,29465,1,0,0:0:0:0:
192,192,29623,128,0,29781:0:0:0:0:
64,192,29781,1,0,0:0:0:0:
320,192,29938,128,0,30412:0:0:0:0:
448,192,30096,1,0,0:0:0:0:
64,192,30254,1,0,0:0:0:0:
192,192,30412,1,0,0:0:0:0:
320,192,30570,1,0,0:0:0:0:
448,192,30570,1,0,0:0:0:0:
64,192,30728,1,0,0:0:0:0:
448,192,30886,1,0,0:0:0:0:
320,192,30886,1,0,0:0:0:0:
64,192,31044,1,0,0:0:0:0:
192,192,31044,1,0,0:0:0:0:
320,192,31202,1,0,0:0:0:0:
448,192,31202,1,0,0:0:0:0:
192,192,31438,1,0,0:0:0:0:
64,192,31438,1,0,0:0:0:0:
320,192,31517,1,0,0:0:0:0:
448,192,31517,1,0,0:0:0:0:
192,192,31596,1,0,0:0:0:0:
64,192,31596,1,0,0:0:0:0:
320,192,31675,1,4,0:0:0:0:
448,192,31675,1,4,0:0:0:0:
192,192,31833,1,0,0:0:0:0:
64,192,31833,1,0,0:0:0:0:
320,192,31991,1,8,0:0:0:0:
448,192,31991,1,0,0:0:0:0:
64,192,31991,1,0,0:0:0:0:
320,192,32149,1,0,0:0:0:0:
64,192,32307,1,0,0:0:0:0:
320,192,32465,1,0,0:0:0:0:
448,192,32465,1,0,0:0:0:0:
64,192,32623,1,0,0:0:0:0:
192,192,32623,1,0,0:0:0:0:
448,192,32623,1,0,0:0:0:0:
192,192,32781,1,8,0:0:0:0:
320,192,32781,1,0,0:0:0:0:
64,192,33096,1,0,0:0:0:0:
448,192,33096,1,0,0:0:0:0:
192,192,33254,1,8,0:0:0:0:
320,192,33254,1,0,0:0:0:0:
320,192,33570,1,0,0:0:0:0:
448,192,33570,1,0,0:0:0:0:
192,192,33728,1,8,0:0:0:0:
64,192,33728,1,0,0:0:0:0:
192,192,34044,1,8,0:0:0:0:
64,192,34044,1,0,0:0:0:0:
320,192,34202,1,0,0:0:0:0:
448,192,34202,1,0,0:0:0:0:
64,192,34360,1,0,0:0:0:0:
448,192,34517,1,0,0:0:0:0:
192,192,34517,1,8,0:0:0:0:
64,192,34517,1,0,0:0:0:0:
320,192,34675,1,0,0:0:0:0:
64,192,34833,1,0,0:0:0:0:
448,192,34991,1,0,0:0:0:0:
192,192,35149,1,0,0:0:0:0:
64,192,35149,1,0,0:0:0:0:
320,192,35307,1,8,0:0:0:0:
448,192,35307,1,0,0:0:0:0:
64,192,35623,1,0,0:0:0:0:
448,192,35623,1,0,0:0:0:0:
192,192,35781,1,8,0:0:0:0:
320,192,35781,1,0,0:0:0:0:
448,192,35938,1,0,0:0:0:0:
320,192,35938,1,0,0:0:0:0:
64,192,36096,1,0,0:0:0:0:
192,192,36096,1,0,0:0:0:0:
320,192,36254,1,8,0:0:0:0:
448,192,36254,1,0,0:0:0:0:
192,192,36412,1,0,0:0:0:0:
64,192,36412,1,0,0:0:0:0:
320,192,36570,1,8,0:0:0:0:
64,192,36728,1,0,0:0:0:0:
320,192,36886,1,0,0:0:0:0:
448,192,36886,1,0,0:0:0:0:
192,192,37044,1,8,0:0:0:0:
64,192,37202,1,0,0:0:0:0:
320,192,37360,1,0,0:0:0:0:
448,192,37360,1,0,0:0:0:0:
192,192,37517,1,0,0:0:0:0:
64,192,37517,1,0,0:0:0:0:
320,192,37675,1,8,0:0:0:0:
448,192,37675,1,0,0:0:0:0:
192,192,37833,1,0,0:0:0:0:
64,192,37991,1,0,0:0:0:0:
320,192,38149,1,0,0:0:0:0:
448,192,38149,1,0,0:0:0:0:
192,192,38307,1,8,0:0:0:0:
64,192,38307,1,0,0:0:0:0:
320,192,38465,1,0,0:0:0:0:
448,192,38623,1,0,0:0:0:0:
192,192,38781,1,8,0:0:0:0:
64,192,38781,1,0,0:0:0:0:
448,192,39096,1,0,0:0:0:0:
320,192,39096,1,8,0:0:0:0:
64,192,39254,1,0,0:0:0:0:
192,192,39254,1,0,0:0:0:0:
320,192,39412,1,0,0:0:0:0:
192,192,39570,1,8,0:0:0:0:
64,192,39570,1,0,0:0:0:0:
448,192,39570,1,0,0:0:0:0:
320,192,39728,1,0,0:0:0:0:
448,192,39886,1,0,0:0:0:0:
64,192,40044,1,0,0:0:0:0:
448,192,40202,1,0,0:0:0:0:
320,192,40202,1,0,0:0:0:0:
64,192,40202,1,8,0:0:0:0:
192,192,40360,1,8,0:0:0:0:
320,192,40360,1,0,0:0:0:0:
64,192,40517,1,0,0:0:0:0:
192,192,40517,1,0,0:0:0:0:
320,192,40675,1,0,0:0:0:0:
448,192,40675,1,0,0:0:0:0:
320,192,40833,1,8,0:0:0:0:
448,192,40833,1,0,0:0:0:0:
192,192,40991,1,8,0:0:0:0:
320,192,41149,1,0,0:0:0:0:
448,192,41149,1,0,0:0:0:0:
64,192,41228,1,0,0:0:0:0:
192,192,41228,1,0,0:0:0:0:
320,192,41307,1,0,0:0:0:0:
448,192,41307,1,0,0:0:0:0:
192,192,41386,1,0,0:0:0:0:
64,192,41386,1,0,0:0:0:0:
320,192,41465,1,0,0:0:0:0:
448,192,41465,1,0,0:0:0:0:
192,192,41544,1,0,0:0:0:0:
64,192,41544,1,0,0:0:0:0:
320,192,41623,1,0,0:0:0:0:
448,192,41623,1,0,0:0:0:0:
192,192,41702,1,0,0:0:0:0:
64,192,41702,1,0,0:0:0:0:
320,192,41781,1,4,0:0:0:0:
448,192,41781,1,4,0:0:0:0:
320,192,41938,1,0,0:0:0:0:
448,192,41938,1,0,0:0:0:0:
192,192,42412,1,4,0:0:0:0:
64,192,42412,1,4,0:0:0:0:
64,192,42570,1,0,0:0:0:0:
192,192,42570,1,0,0:0:0:0:
320,192,43044,1,4,0:0:0:0:
448,192,43044,1,4,0:0:0:0:
64,192,43202,1,0,0:0:0:0:
192,192,43202,1,0,0:0:0:0:
448,192,43675,1,0,0:0:0:0:
320,192,43675,1,8,0:0:0:0:
64,192,43833,1,0,0:0:0:0:
192,192,43833,1,0,0:0:0:0:
320,192,43912,1,0,0:0:0:0:
448,192,43991,1,0,0:0:0:0:
320,192,44070,1,0,0:0:0:0:
192,192,44149,1,0,0:0:0:0:
64,192,44228,1,0,0:0:0:0:
320,192,44307,1,0,0:0:0:0:
448,192,44307,1,0,0:0:0:0:
192,192,44465,1,0,0:0:0:0:
64,192,44465,1,0,0:0:0:0:
448,192,44623,1,0,0:0:0:0:
192,192,44781,1,8,0:0:0:0:
448,192,45096,1,0,0:0:0:0:
320,192,45096,1,0,0:0:0:0:
192,192,45254,1,8,0:0:0:0:
64,192,45254,1,0,0:0:0:0:
320,192,45254,128,0,46360:0:0:0:0:
192,192,46360,1,0,0:0:0:0:
64,192,46438,1,0,0:0:0:0:
192,192,46517,1,0,0:0:0:0:
320,192,46596,1,0,0:0:0:0:
448,192,46675,1,0,0:0:0:0:
320,192,46754,1,0,0:0:0:0:
192,192,46833,1,12,0:0:0:0:
64,192,46833,1,12,0:0:0:0:
64,192,46991,1,0,0:0:0:0:
192,192,46991,1,0,0:0:0:0:
320,192,47465,1,8,0:0:0:0:
448,192,47465,1,8,0:0:0:0:
448,192,47623,1,0,0:0:0:0:
320,192,47623,1,0,0:0:0:0:
64,192,48096,1,8,0:0:0:0:
448,192,48096,1,8,0:0:0:0:
64,192,48254,1,0,0:0:0:0:
448,192,48254,1,0,0:0:0:0:
192,192,48728,1,8,0:0:0:0:
320,192,48728,1,8,0:0:0:0:
448,192,48886,1,0,0:0:0:0:
192,192,48965,1,0,0:0:0:0:
64,192,48965,1,0,0:0:0:0:
320,192,49044,1,0,0:0:0:0:
448,192,49044,1,0,0:0:0:0:
192,192,49123,1,0,0:0:0:0:
64,192,49123,1,0,0:0:0:0:
320,192,49202,1,0,0:0:0:0:
448,192,49202,1,0,0:0:0:0:
192,192,49281,1,0,0:0:0:0:
64,192,49281,1,0,0:0:0:0:
320,192,49360,1,0,0:0:0:0:
448,192,49360,1,0,0:0:0:0:
64,192,49517,1,0,0:0:0:0:
192,192,49517,1,0,0:0:0:0:
448,192,49675,1,0,0:0:0:0:
64,192,49833,1,0,0:0:0:0:
192,192,49833,1,8,0:0:0:0:
448,192,49833,1,0,0:0:0:0:
192,192,50149,1,0,0:0:0:0:
320,192,50149,1,0,0:0:0:0:
64,192,50307,1,0,0:0:0:0:
192,192,50307,1,8,0:0:0:0:
448,192,50307,1,0,0:0:0:0:
64,192,50623,1,0,0:0:0:0:
192,192,50623,1,0,0:0:0:0:
320,192,50781,1,0,0:0:0:0:
448,192,50781,1,0,0:0:0:0:
192,192,50938,1,0,0:0:0:0:
64,192,50938,1,0,0:0:0:0:
64,192,51096,1,0,0:0:0:0:
320,192,51096,1,8,0:0:0:0:
448,192,51096,1,0,0:0:0:0:
192,192,51412,1,0,0:0:0:0:
320,192,51412,1,0,0:0:0:0:
64,192,51570,1,0,0:0:0:0:
192,192,51570,1,8,0:0:0:0:
448,192,51570,1,0,0:0:0:0:
320,192,51728,1,0,0:0:0:0:
448,192,51728,1,0,0:0:0:0:
64,192,51886,1,0,0:0:0:0:
192,192,51965,1,0,0:0:0:0:
320,192,52044,1,0,0:0:0:0:
448,192,52123,1,0,0:0:0:0:
320,192,52202,1,0,0:0:0:0:
192,192,52281,1,0,0:0:0:0:
64,192,52360,1,0,0:0:0:0:
192,192,52438,1,0,0:0:0:0:
320,192,52517,1,0,0:0:0:0:
448,192,52596,1,0,0:0:0:0:
64,192,52675,1,0,0:0:0:0:
320,192,52754,1,0,0:0:0:0:
192,192,52833,1,0,0:0:0:0:
320,192,52912,1,0,0:0:0:0:
192,192,52991,1,0,0:0:0:0:
320,192,53070,1,0,0:0:0:0:
64,192,53149,1,0,0:0:0:0:
448,192,53228,1,0,0:0:0:0:
320,192,53307,1,0,0:0:0:0:
192,192,53386,1,0,0:0:0:0:
64,192,53465,1,0,0:0:0:0:
448,192,53623,1,0,0:0:0:0:
320,192,53623,1,0,0:0:0:0:
320,192,53781,1,0,0:0:0:0:
448,192,53781,1,0,0:0:0:0:
192,192,53938,1,0,0:0:0:0:
64,192,53938,1,0,0:0:0:0:
64,192,54096,1,0,0:0:0:0:
192,192,54096,1,0,0:0:0:0:
320,192,54254,1,0,0:0:0:0:
448,192,54254,1,0,0:0:0:0:
64,192,54570,1,0,0:0:0:0:
192,192,54570,1,0,0:0:0:0:
320,192,54886,128,0,55360:0:0:0:0:
192,192,55360,1,4,0:0:0:0:
64,192,55360,1,4,0:0:0:0:
320,192,55675,1,0,0:0:0:0:
448,192,55675,1,0,0:0:0:0:
192,192,55833,1,0,0:0:0:0:
64,192,55833,1,0,0:0:0:0:
320,192,55991,1,8,0:0:0:0:
448,192,55991,1,0,0:0:0:0:
64,192,55991,1,0,0:0:0:0:
192,192,56149,1,0,0:0:0:0:
64,192,56149,1,0,0:0:0:0:
320,192,56307,1,0,0:0:0:0:
448,192,56307,1,0,0:0:0:0:
64,192,56465,1,0,0:0:0:0:
320,192,56623,1,0,0:0:0:0:
448,192,56623,1,0,0:0:0:0:
64,192,56623,1,8,0:0:0:0:
192,192,56781,1,0,0:0:0:0:
320,192,56781,1,0,0:0:0:0:
64,192,56938,1,0,0:0:0:0:
448,192,57096,1,0,0:0:0:0:
192,192,57254,1,8,0:0:0:0:
64,192,57254,1,0,0:0:0:0:
448,192,57254,1,0,0:0:0:0:
192,192,57412,1,0,0:0:0:0:
320,192,57412,1,0,0:0:0:0:
64,192,57570,1,0,0:0:0:0:
448,192,57728,1,0,0:0:0:0:
64,192,57886,1,0,0:0:0:0:
192,192,57886,1,8,0:0:0:0:
448,192,57886,1,0,0:0:0:0:
192,192,58044,1,0,0:0:0:0:
320,192,58044,1,0,0:0:0:0:
320,192,58202,1,0,0:0:0:0:
448,192,58202,1,0,0:0:0:0:
192,192,58360,1,0,0:0:0:0:
64,192,58360,1,0,0:0:0:0:
320,192,58517,1,8,0:0:0:0:
448,192,58517,1,0,0:0:0:0:
64,192,58517,1,0,0:0:0:0:
192,192,58675,1,0,0:0:0:0:
320,192,58675,1,0,0:0:0:0:
64,192,58833,1,0,0:0:0:0:
448,192,58991,1,0,0:0:0:0:
64,192,59149,1,0,0:0:0:0:
192,192,59149,1,8,0:0:0:0:
448,192,59149,1,0,0:0:0:0:
192,192,59307,1,0,0:0:0:0:
448,192,59465,1,0,0:0:0:0:
64,192,59623,1,0,0:0:0:0:
448,192,59781,1,0,0:0:0:0:
320,192,59781,1,8,0:0:0:0:
192,192,59938,1,0,0:0:0:0:
64,192,59938,1,0,0:0:0:0:
320,192,60096,1,0,0:0:0:0:
448,192,60096,1,0,0:0:0:0:
192,192,60254,1,0,0:0:0:0:
320,192,60254,1,0,0:0:0:0:
64,192,60412,1,0,0:0:0:0:
192,192,60412,1,8,0:0:0:0:
320,192,60570,1,0,0:0:0:0:
64,192,60728,1,0,0:0:0:0:
320,192,60728,1,0,0:0:0:0:
64,192,60886,1,0,0:0:0:0:
64,192,61044,1,0,0:0:0:0:
192,192,61044,1,8,0:0:0:0:
448,192,61044,1,0,0:0:0:0:
320,192,61202,128,0,61675:0:0:0:0:
192,192,61360,1,0,0:0:0:0:
448,192,61517,1,0,0:0:0:0:
192,192,61675,1,8,0:0:0:0:
64,192,61675,1,0,0:0:0:0:
320,192,61833,1,0,0:0:0:0:
448,192,61991,1,0,0:0:0:0:
192,192,62149,1,0,0:0:0:0:
448,192,62307,1,0,0:0:0:0:
320,192,62307,1,0,0:0:0:0:
64,192,62307,1,8,0:0:0:0:
320,192,62465,1,0,0:0:0:0:
448,192,62623,1,0,0:0:0:0:
320,192,62781,1,0,0:0:0:0:
64,192,62938,1,0,0:0:0:0:
192,192,62938,1,8,0:0:0:0:
448,192,62938,1,0,0:0:0:0:
320,192,63096,1,0,0:0:0:0:
64,192,63254,1,0,0:0:0:0:
320,192,63412,1,0,0:0:0:0:
448,192,63570,1,0,0:0:0:0:
320,192,63570,1,8,0:0:0:0:
64,192,63570,1,0,0:0:0:0:
192,192,63728,1,0,0:0:0:0:
64,192,63886,1,0,0:0:0:0:
320,192,64044,1,0,0:0:0:0:
192,192,64202,1,8,0:0:0:0:
64,192,64202,1,0,0:0:0:0:
448,192,64360,1,0,0:0:0:0:
320,192,64360,1,0,0:0:0:0:
192,192,64517,1,0,0:0:0:0:
64,192,64596,1,0,0:0:0:0:
192,192,64675,1,0,0:0:0:0:
320,192,64991,1,0,0:0:0:0:
448,192,65070,1,0,0:0:0:0:
320,192,65149,1,0,0:0:0:0:
64,192,65307,1,0,0:0:0:0:
192,192,65307,1,0,0:0:0:0:
64,192,65465,1,4,0:0:0:0:
320,192,65465,1,8,0:0:0:0:
448,192,65465,1,0,0:0:0:0:
192,192,65781,1,0,0:0:0:0:
320,192,65781,1,0,0:0:0:0:
64,192,65938,1,0,0:0:0:0:
192,192,65938,1,0,0:0:0:0:
448,192,66096,1,0,0:0:0:0:
320,192,66096,1,8,0:0:0:0:
64,192,66096,1,0,0:0:0:0:
192,192,66254,1,0,0:0:0:0:
64,192,66412,1,0,0:0:0:0:
320,192,66570,1,0,0:0:0:0:
64,192,66728,1,0,0:0:0:0:
192,192,66728,1,8,0:0:0:0:
448,192,66728,1,0,0:0:0:0:
320,192,66886,1,0,0:0:0:0:
192,192,67044,1,0,0:0:0:0:
448,192,67202,1,0,0:0:0:0:
64,192,67360,1,0,0:0:0:0:
192,192,67360,1,8,0:0:0:0:
448,192,67360,1,0,0:0:0:0:
320,192,67517,1,0,0:0:0:0:
448,192,67517,1,0,0:0:0:0:
192,192,67675,1,0,0:0:0:0:
64,192,67675,1,0,0:0:0:0:
320,192,67833,1,0,0:0:0:0:
448,192,67833,1,0,0:0:0:0:
192,192,67991,1,8,0:0:0:0:
64,192,67991,1,0,0:0:0:0:
448,192,67991,1,0,0:0:0:0:
320,192,68149,1,0,0:0:0:0:
192,192,68149,1,0,0:0:0:0:
320,192,68307,1,0,0:0:0:0:
448,192,68307,1,0,0:0:0:0:
192,192,68465,1,0,0:0:0:0:
64,192,68465,1,0,0:0:0:0:
320,192,68623,1,8,0:0:0:0:
448,192,68623,1,0,0:0:0:0:
64,192,68623,1,0,0:0:0:0:
192,192,68781,1,0,0:0:0:0:
448,192,68938,1,0,0:0:0:0:
192,192,69096,1,0,0:0:0:0:
64,192,69254,1,0,0:0:0:0:
192,192,69254,1,8,0:0:0:0:
448,192,69254,1,0,0:0:0:0:
320,192,69412,1,0,0:0:0:0:
64,192,69570,1,0,0:0:0:0:
448,192,69728,1,0,0:0:0:0:
64,192,69886,1,0,0:0:0:0:
192,192,69886,1,8,0:0:0:0:
448,192,69886,1,0,0:0:0:0:
320,192,70044,1,0,0:0:0:0:
448,192,70044,1,0,0:0:0:0:
192,192,70202,1,0,0:0:0:0:
64,192,70202,1,0,0:0:0:0:
448,192,70360,1,0,0:0:0:0:
320,192,70360,1,0,0:0:0:0:
192,192,70517,1,8,0:0:0:0:
64,192,70517,1,0,0:0:0:0:
448,192,70517,1,0,0:0:0:0:
320,192,70675,1,0,0:0:0:0:
192,192,70833,128,8,70991:0:0:0:0:
320,192,70991,1,0,0:0:0:0:
448,192,71149,128,8,71307:0:0:0:0:
192,192,71307,1,0,0:0:0:0:
64,192,71465,128,8,71623:0:0:0:0:
448,192,71623,1,0,0:0:0:0:
320,192,71781,128,8,71938:0:0:0:0:
64,192,71938,1,0,0:0:0:0:
448,192,72096,128,8,72254:0:0:0:0:
64,192,72254,1,0,0:0:0:0:
320,192,72412,1,8,0:0:0:0:
192,192,72570,1,0,0:0:0:0:
64,192,72728,128,8,72886:0:0:0:0:
448,192,72886,1,0,0:0:0:0:
192,192,73044,128,8,73202:0:0:0:0:
320,192,73202,1,0,0:0:0:0:
64,192,73360,128,8,73517:0:0:0:0:
192,192,73517,1,0,0:0:0:0:
448,192,73675,128,8,73833:0:0:0:0:
320,192,73833,1,0,0:0:0:0:
64,192,73991,128,8,74149:0:0:0:0:
448,192,74149,1,0,0:0:0:0:
320,192,74307,128,8,74465:0:0:0:0:
192,192,74465,1,0,0:0:0:0:
64,192,74623,128,8,74781:0:0:0:0:
192,192,74781,1,0,0:0:0:0:
320,192,74938,1,0,0:0:0:0:
448,192,74938,1,0,0:0:0:0:
64,192,75096,1,0,0:0:0:0:
192,192,75096,1,0,0:0:0:0:
320,192,75254,1,0,0:0:0:0:
448,192,75254,1,0,0:0:0:0:
64,192,75412,1,0,0:0:0:0:
192,192,75412,1,0,0:0:0:0:
320,192,75570,1,0,0:0:0:0:
448,192,75570,1,0,0:0:0:0:
192,192,75728,1,0,0:0:0:0:
64,192,75728,1,0,0:0:0:0:
320,192,75886,1,8,0:0:0:0:
448,192,75886,1,0,0:0:0:0:
64,192,76044,1,8,0:0:0:0:
448,192,76044,1,0,0:0:0:0:
64,192,76202,1,8,0:0:0:0:
448,192,76202,1,0,0:0:0:0:
192,192,76517,1,2,0:0:0:0:
320,192,76517,1,0,0:0:0:0:
64,192,76833,1,0,0:0:0:0:
448,192,76833,1,0,0:0:0:0:
192,192,77149,1,0,0:0:0:0:
320,192,77149,1,0,0:0:0:0:
64,192,77307,1,0,0:0:0:0:
320,192,77307,1,0,0:0:0:0:
448,192,77465,1,0,0:0:0:0:
320,192,77465,1,8,0:0:0:0:
192,192,77623,1,0,0:0:0:0:
64,192,77623,1,0,0:0:0:0:
320,192,77781,1,0,0:0:0:0:
448,192,77781,1,0,0:0:0:0:
192,192,77938,1,0,0:0:0:0:
64,192,77938,1,0,0:0:0:0:
448,192,78096,1,8,0:0:0:0:
192,192,78254,1,0,0:0:0:0:
64,192,78254,1,0,0:0:0:0:
320,192,78412,1,0,0:0:0:0:
448,192,78412,1,0,0:0:0:0:
192,192,78570,1,0,0:0:0:0:
64,192,78570,1,0,0:0:0:0:
448,192,78728,1,8,0:0:0:0:
192,192,78886,1,0,0:0:0:0:
64,192,78965,1,0,0:0:0:0:
192,192,79044,1,0,0:0:0:0:
320,192,79202,1,0,0:0:0:0:
448,192,79202,1,0,0:0:0:0:
192,192,79360,1,8,0:0:0:0:
64,192,79360,1,0,0:0:0:0:
320,192,79517,1,0,0:0:0:0:
448,192,79517,1,0,0:0:0:0:
192,192,79675,1,0,0:0:0:0:
64,192,79675,1,0,0:0:0:0:
192,192,79833,1,0,0:0:0:0:
64,192,79833,1,0,0:0:0:0:
320,192,79991,1,8,0:0:0:0:
448,192,79991,1,0,0:0:0:0:
64,192,79991,1,0,0:0:0:0:
192,192,80149,1,0,0:0:0:0:
320,192,80307,1,0,0:0:0:0:
192,192,80465,1,0,0:0:0:0:
64,192,80623,1,0,0:0:0:0:
192,192,80623,1,8,0:0:0:0:
448,192,80623,1,0,0:0:0:0:
320,192,80781,1,0,0:0:0:0:
448,192,80938,1,0,0:0:0:0:
320,192,81096,1,0,0:0:0:0:
64,192,81254,1,0,0:0:0:0:
192,192,81254,1,8,0:0:0:0:
448,192,81254,1,0,0:0:0:0:
320,192,81412,1,0,0:0:0:0:
192,192,81570,1,0,0:0:0:0:
64,192,81570,1,0,0:0:0:0:
320,192,81649,1,0,0:0:0:0:
448,192,81649,1,0,0:0:0:0:
192,192,81728,1,0,0:0:0:0:
64,192,81728,1,0,0:0:0:0:
320,192,81807,1,0,0:0:0:0:
448,192,81807,1,0,0:0:0:0:
192,192,81886,1,0,0:0:0:0:
64,192,81886,1,0,0:0:0:0:
320,192,81965,1,0,0:0:0:0:
448,192,81965,1,0,0:0:0:0:
192,192,82044,1,0,0:0:0:0:
64,192,82044,1,0,0:0:0:0:
320,192,82123,1,0,0:0:0:0:
448,192,82123,1,0,0:0:0:0:
192,192,82202,1,0,0:0:0:0:
64,192,82202,1,0,0:0:0:0:
320,192,82360,1,0,0:0:0:0:
64,192,82517,1,0,0:0:0:0:
192,192,82517,1,8,0:0:0:0:
448,192,82517,1,0,0:0:0:0:
320,192,82675,1,0,0:0:0:0:
192,192,82675,1,0,0:0:0:0:
320,192,82833,1,0,0:0:0:0:
448,192,82833,1,0,0:0:0:0:
64,192,82991,1,0,0:0:0:0:
192,192,82991,1,0,0:0:0:0:
320,192,83149,1,8,0:0:0:0:
448,192,83149,1,0,0:0:0:0:
64,192,83149,1,0,0:0:0:0:
320,192,83307,1,0,0:0:0:0:
448,192,83465,1,0,0:0:0:0:
192,192,83623,1,0,0:0:0:0:
64,192,83781,1,0,0:0:0:0:
192,192,83781,1,8,0:0:0:0:
448,192,83781,1,0,0:0:0:0:
320,192,83938,1,0,0:0:0:0:
192,192,84096,1,0,0:0:0:0:
64,192,84096,1,0,0:0:0:0:
320,192,84175,1,0,0:0:0:0:
448,192,84175,1,0,0:0:0:0:
192,192,84254,1,0,0:0:0:0:
64,192,84254,1,0,0:0:0:0:
320,192,84333,1,0,0:0:0:0:
448,192,84333,1,0,0:0:0:0:
192,192,84412,1,0,0:0:0:0:
64,192,84412,1,0,0:0:0:0:
320,192,84491,1,0,0:0:0:0:
448,192,84491,1,0,0:0:0:0:
192,192,84570,1,0,0:0:0:0:
64,192,84570,1,0,0:0:0:0:
320,192,84649,1,0,0:0:0:0:
448,192,84649,1,0,0:0:0:0:
192,192,84728,1,0,0:0:0:0:
64,192,84728,1,0,0:0:0:0:
320,192,84886,1,0,0:0:0:0:
192,192,85044,1,8,0:0:0:0:
64,192,85044,1,0,0:0:0:0:
448,192,85044,1,0,0:0:0:0:
320,192,85202,1,0,0:0:0:0:
448,192,85202,1,0,0:0:0:0:
320,192,85360,1,0,0:0:0:0:
448,192,85360,1,0,0:0:0:0:
192,192,85517,1,0,0:0:0:0:
64,192,85675,1,0,0:0:0:0:
192,192,85675,1,8,0:0:0:0:
448,192,85675,1,0,0:0:0:0:
320,192,85833,1,0,0:0:0:0:
64,192,85991,1,0,0:0:0:0:
192,192,85991,1,8,0:0:0:0:
64,192,86149,1,0,0:0:0:0:
448,192,86149,1,0,0:0:0:0:
192,192,86307,1,0,0:0:0:0:
320,192,86307,1,0,0:0:0:0:
64,192,86465,1,0,0:0:0:0:
320,192,86465,1,8,0:0:0:0:
192,192,86623,1,0,0:0:0:0:
448,192,86623,1,0,0:0:0:0:
192,192,86781,1,0,0:0:0:0:
320,192,86781,1,0,0:0:0:0:
64,192,86938,1,0,0:0:0:0:
192,192,86938,1,8,0:0:0:0:
448,192,86938,1,0,0:0:0:0:
192,192,87254,1,4,0:0:0:0:
320,192,87254,1,4,0:0:0:0:
320,192,87807,1,0,0:0:0:0:
448,192,87807,1,0,0:0:0:0:
192,192,87886,1,0,0:0:0:0:
64,192,87886,1,0,0:0:0:0:
320,192,87965,1,0,0:0:0:0:
448,192,87965,1,0,0:0:0:0:
192,192,88044,1,0,0:0:0:0:
64,192,88044,1,0,0:0:0:0:
320,192,88123,1,0,0:0:0:0:
448,192,88123,1,0,0:0:0:0:
192,192,88202,1,0,0:0:0:0:
64,192,88202,1,0,0:0:0:0:
320,192,88281,1,0,0:0:0:0:
448,192,88281,1,0,0:0:0:0:
192,192,88360,1,0,0:0:0:0:
64,192,88360,1,0,0:0:0:0:
320,192,88438,1,0,0:0:0:0:
448,192,88438,1,0,0:0:0:0:
64,192,88517,1,4,0:0:0:0:
448,192,88833,1,4,0:0:0:0:
320,192,88833,1,4,0:0:0:0:
