osu file format v14

[General]
AudioFilename: audio.mp3
AudioLeadIn: 0
PreviewTime: 66448
Countdown: 0
SampleSet: Soft
StackLeniency: 0.7
Mode: 0
LetterboxInBreaks: 0
WidescreenStoryboard: 1

[Editor]
DistanceSpacing: 1.4
BeatDivisor: 4
GridSize: 4
TimelineZoom: 1.500006

[Metadata]
Title:Seishoujo Ryouiki (TV Size)
TitleUnicode:聖少女領域 (TV Size)
Artist:ALI PROJECT
ArtistUnicode:ALI PROJECT
Creator:EijiKuinbii
Version:Alice
Source:ローゼンメイデン トロイメント
Tags:Rozen Maiden Traumend opening anishina kodoku yooh
BeatmapID:1866755
BeatmapSetID:893167

[Difficulty]
HPDrainRate:6
CircleSize:4
OverallDifficulty:9
ApproachRate:9.7
SliderMultiplier:1.9
SliderTickRate:1

[Events]
//Background and Video events
0,0,"bg.jpg",0,0
//Break Periods
//Storyboard Layer 0 (Background)
//Storyboard Layer 1 (Fail)
//Storyboard Layer 2 (Pass)
//Storyboard Layer 3 (Foreground)
//Storyboard Sound Samples

[TimingPoints]
98,437.956204379562,4,2,47,40,1,0
21119,-100,4,2,47,50,0,0
63163,-100,4,2,47,90,0,0
64258,-100,4,2,47,50,0,0
66667,-83.3333333333333,4,2,47,70,0,0
67981,-83.3333333333333,4,2,47,70,0,1
69733,-83.3333333333333,4,2,47,70,0,0
71484,-83.3333333333333,4,2,47,70,0,1
73236,-83.3333333333333,4,2,47,70,0,0
74988,-83.3333333333333,4,2,47,70,0,1
76740,-83.3333333333333,4,2,47,70,0,0
80681,-100,4,2,47,50,0,0
88127,-100,4,2,47,90,0,0
88565,-100,4,2,47,50,0,0
89003,-100,4,2,47,5,0,0

[Colours]
Combo1 : 225,157,198
Combo2 : 242,157,168
Combo3 : 147,203,236
Combo4 : 152,231,162

[HitObjects]
30,244,98,5,14,0:0:0:0:
100,191,243,1,2,0:0:0:0:
115,274,389,1,2,0:0:0:0:
227,111,535,5,10,0:0:0:0:
315,202,681,1,2,0:0:0:0:
355,84,827,1,2,0:0:0:0:
416,283,973,5,10,0:0:0:0:
341,326,1192,1,2,0:0:0:0:
337,315,1302,1,2,0:0:0:0:
338,301,1411,1,10,0:0:0:0:
243,298,1630,5,2,0:0:0:0:
246,266,1740,1,2,0:0:0:0:
273,228,1849,1,10,0:0:0:0:
161,190,2068,5,2,0:0:0:0:
184,151,2178,1,2,0:0:0:0:
238,122,2287,1,10,0:0:0:0:
416,283,2506,5,2,0:0:0:0:
416,283,2616,1,2,0:0:0:0:
440,360,2725,5,10,0:0:0:0:
332,289,2871,5,2,0:0:0:0:
464,216,3017,5,2,0:0:0:0:
360,364,3163,5,10,0:0:0:0:
76,253,3382,5,0,0:0:0:0:
76,253,3601,2,0,B|110:196|167:214|167:214|142:219|135:226,1,142.5,14|0,0:0|0:0,0:0:0:0:
7,210,4039,2,0,B|1:199|4:185|4:185|8:203|25:211,1,47.5,2|0,1:2|3:3,3:0:0:0:
185,292,4258,1,2,0:0:0:0:
469,202,4477,2,0,B|387:181|412:242|321:222,1,142.5,10|0,0:0|0:0,0:0:0:0:
280,159,4915,6,0,B|278:144|273:138|273:138|291:146|288:166,1,47.5,2|0,1:2|0:0,0:0:0:0:
252,239,5134,1,2,0:0:0:0:
442,112,5353,1,14,0:0:0:0:
192,151,5572,5,2,0:0:0:0:
148,84,5681,1,0,3:0:0:0:
72,78,5791,1,2,1:2:0:0:
158,73,6010,5,2,0:0:0:0:
63,68,6119,1,0,0:0:0:0:
154,231,6229,1,10,0:0:0:0:
276,169,6338,1,2,0:0:0:0:
325,242,6448,1,2,0:0:0:0:
407,260,6557,1,2,0:0:0:0:
508,198,6667,1,2,1:2:0:0:
238,286,6886,6,0,P|243:308|263:321,1,47.5,2|0,0:0|0:0,0:0:0:0:
343,322,7105,2,0,P|220:344|188:359,1,142.5,10|0,0:0|0:0,0:0:0:0:
110,348,7543,2,0,B|108:358|113:366|113:366|121:346|130:336,1,47.5,2|0,1:2|0:0,0:0:0:0:
109,262,7762,1,2,0:0:0:0:
37,128,7981,1,0,0:0:0:0:
221,78,8419,6,0,B|232:74|241:73|241:73|230:68|205:78,1,47.5,2|0,1:2|0:0,0:0:0:0:
35,137,8638,1,2,0:0:0:0:
291,149,8857,2,0,B|301:153|308:159|308:159|304:148|279:137,1,47.5,14|2,0:0|0:0,0:0:0:0:
122,78,9076,6,2,B|126:67|132:60|132:60|121:64|110:89,1,47.5,2|2,1:2|0:0,0:0:0:0:
290,243,9295,2,0,B|294:254|295:263|295:263|300:251|290:226,1,47.5,2|0,1:2|0:0,0:0:0:0:
24,148,9514,1,2,0:0:0:0:
210,263,9733,5,10,0:0:0:0:
146,310,9842,1,2,0:0:0:0:
165,384,9952,1,2,0:0:0:0:
365,337,10170,5,2,1:2:0:0:
132,308,10389,1,2,0:0:0:0:
218,252,10499,1,2,0:0:0:0:
239,145,10608,2,0,B|224:134|196:147|196:147|241:151|317:211,1,142.5,14|0,0:0|0:0,0:0:0:0:
368,173,11046,2,0,B|377:162|385:154|385:154|365:157|356:166,1,47.5,2|0,1:2|0:0,0:0:0:0:
337,248,11265,1,2,0:0:0:0:
308,93,11484,1,10,0:0:0:0:
310,84,11922,6,0,B|300:87|327:79|327:79|308:89|304:97,1,47.5,2|0,1:2|0:0,0:0:0:0:
148,111,12141,2,0,B|158:109|130:113|130:113|151:114|158:120,1,47.5,2|0,0:0|0:0,0:0:0:0:
239,145,12360,1,14,0:0:0:0:
123,325,12579,5,2,0:0:0:0:
188,271,12689,1,0,0:0:0:0:
269,296,12798,1,2,1:2:0:0:
184,258,13017,5,2,0:0:0:0:
281,295,13127,1,0,0:0:0:0:
441,259,13236,1,10,0:0:0:0:
351,233,13346,1,2,0:0:0:0:
206,357,13455,1,2,0:0:0:0:
39,293,13565,1,2,0:0:0:0:
210,368,13674,1,2,1:2:0:0:
184,146,13893,5,2,0:0:0:0:
122,92,14112,2,0,B|111:91|98:89|98:89|106:101|119:108,1,47.5,10|0,0:0|0:0,0:0:0:0:
268,151,14331,1,2,0:0:0:0:
275,138,14441,1,2,0:0:0:0:
288,131,14550,1,2,1:2:0:0:
134,247,14769,5,2,0:0:0:0:
360,90,14988,2,0,B|371:89|384:87|384:87|376:99|363:106,1,47.5,10|2,0:0|0:0,0:0:0:0:
211,215,15207,1,2,0:0:0:0:
189,184,15316,1,0,0:0:0:0:
154,167,15426,1,0,1:2:0:0:
215,301,15645,5,0,0:0:0:0:
214,54,15864,2,0,B|205:41|192:35|192:35|203:45|208:58,1,47.5,10|0,0:0|0:0,0:0:0:0:
295,277,16083,1,2,0:0:0:0:
322,233,16192,1,2,0:0:0:0:
369,210,16302,1,2,1:2:0:0:
247,384,16521,1,2,0:0:0:0:
239,51,16740,5,10,1:2:0:0:
200,123,16849,1,0,1:2:0:0:
320,77,16959,1,2,1:2:0:0:
188,128,17068,1,2,1:2:0:0:
45,68,17178,1,2,1:2:0:0:
41,58,17397,5,0,1:2:0:0:
97,134,17506,1,0,1:2:0:0:
239,51,17616,5,4,0:3:0:0:
281,155,17944,1,0,0:0:0:0:
281,155,18054,1,4,0:3:0:0:
230,221,18273,1,0,0:0:0:0:
230,221,18382,1,4,3:0:0:0:
276,293,18711,1,4,3:0:0:0:
246,371,18930,5,4,3:0:0:0:
246,371,19149,1,0,0:0:0:0:
246,371,19368,1,8,3:0:0:0:
153,258,19587,5,4,3:0:0:0:
350,252,19806,1,4,3:0:0:0:
230,221,20025,1,0,0:0:0:0:
230,221,20134,1,4,3:0:0:0:
276,293,20462,1,8,3:0:0:0:
239,51,20681,6,0,B|229:23|194:16|194:16|229:52|239:98,1,142.5,4|0,3:1|0:0,0:0:0:0:
315,148,21119,2,0,P|248:165|193:198,1,95,12|2,0:0|0:0,0:0:0:0:
156,218,21448,1,0,0:0:0:0:
156,218,21557,1,10,0:0:0:0:
79,164,21776,1,2,0:0:0:0:
120,321,21996,5,10,0:0:0:0:
139,307,22106,1,0,0:0:0:0:
163,308,22215,1,2,0:0:0:0:
186,310,22324,1,0,0:0:0:0:
194,286,22434,5,8,0:0:0:0:
210,314,22543,1,0,0:0:0:0:
238,331,22653,1,2,0:0:0:0:
271,332,22762,1,0,0:0:0:0:
369,302,22871,6,0,B|381:342|356:363|356:363|363:342|350:306,1,95,8|2,0:0|0:0,0:0:0:0:
297,253,23200,1,0,0:0:0:0:
297,253,23309,1,10,0:0:0:0:
452,298,23528,1,2,0:0:0:0:
395,176,23747,5,10,0:0:0:0:
384,165,23857,1,0,0:0:0:0:
395,155,23966,1,2,0:0:0:0:
405,165,24076,1,0,0:0:0:0:
468,206,24185,5,10,0:0:0:0:
431,196,24294,1,0,0:0:0:0:
393,189,24403,1,10,0:0:0:0:
355,187,24513,1,0,0:0:0:0:
276,179,24623,6,0,B|283:183|264:147|242:138|242:138|259:154|262:182,1,95,12|2,0:0|0:0,0:0:0:0:
240,252,24952,1,0,0:0:0:0:
240,252,25061,1,10,0:0:0:0:
69,225,25280,1,2,0:0:0:0:
148,194,25499,5,10,0:0:0:0:
154,226,25608,1,0,0:0:0:0:
148,258,25717,1,2,0:0:0:0:
130,286,25827,1,0,0:0:0:0:
58,324,25937,5,8,0:0:0:0:
102,307,26046,1,0,0:0:0:0:
149,309,26155,1,2,0:0:0:0:
197,312,26265,1,0,0:0:0:0:
271,348,26375,6,0,P|283:327|284:304,1,47.5,8|0,0:0|3:3,3:3:0:0:
346,378,26594,2,0,P|361:360|367:337,1,47.5,2|0,0:0|3:3,3:3:0:0:
349,257,26813,1,10,0:0:0:0:
349,252,26922,1,0,0:0:0:0:
353,254,27032,1,2,0:0:0:0:
209,200,27251,5,10,0:0:0:0:
193,219,27360,1,0,0:0:0:0:
239,209,27469,1,2,0:0:0:0:
285,198,27579,1,0,0:0:0:0:
335,133,27689,5,10,0:0:0:0:
366,168,27798,1,0,0:0:0:0:
409,187,27907,1,2,0:0:0:0:
456,187,28017,1,0,0:0:0:0:
512,136,28127,6,0,B|523:117|512:83|512:83|500:105|485:114,1,95,12|2,0:0|0:0,0:0:0:0:
478,266,28455,1,0,0:0:0:0:
478,266,28565,1,10,0:0:0:0:
439,49,28784,2,0,B|435:40|419:29|419:29|427:43|430:61,1,47.5,2|0,0:0|0:0,0:0:0:0:
346,58,29003,1,10,0:0:0:0:
249,138,29222,1,2,0:0:0:0:
242,131,29331,1,0,0:0:0:0:
270,92,29441,5,8,0:0:0:0:
235,124,29550,1,0,0:0:0:0:
188,120,29659,1,2,0:0:0:0:
141,115,29769,1,0,0:0:0:0:
63,93,29879,6,0,B|69:77|80:63|80:63|45:71|44:105,1,95,8|2,0:0|0:0,0:0:0:0:
79,181,30207,1,0,0:0:0:0:
79,181,30316,1,10,0:0:0:0:
201,33,30535,1,2,0:0:0:0:
348,164,30754,5,10,0:0:0:0:
337,164,30864,1,0,0:0:0:0:
333,155,30973,1,2,0:0:0:0:
342,149,31083,1,0,0:0:0:0:
388,135,31192,5,10,0:0:0:0:
359,172,31301,1,0,0:0:0:0:
342,217,31410,1,10,0:0:0:0:
338,264,31520,1,0,0:0:0:0:
383,349,31630,6,0,B|393:350|399:331|399:331|364:338|340:373,1,95,10|0,0:0|0:0,0:0:0:0:
269,320,31959,1,0,0:0:0:0:
269,320,32068,1,8,0:0:0:0:
130,321,32287,1,2,0:0:0:0:
101,303,32397,1,0,0:0:0:0:
67,303,32506,1,10,0:0:0:0:
79,384,32725,1,0,0:0:0:0:
37,225,32944,6,0,P|19:201|-1:193,1,47.5,10|0,0:0|0:0,0:0:0:0:
179,247,33163,2,0,P|183:217|174:197,1,47.5,2|0,0:0|0:0,0:0:0:0:
251,336,33382,2,0,P|270:313|274:292,1,47.5,10|0,0:0|0:0,0:0:0:0:
164,335,33601,1,0,0:0:0:0:
315,222,33820,5,8,0:0:0:0:
324,224,33930,1,0,0:0:0:0:
324,234,34039,1,2,0:0:0:0:
315,237,34149,1,0,0:0:0:0:
260,242,34258,5,10,0:0:0:0:
306,230,34368,1,0,0:0:0:0:
344,201,34477,1,2,0:0:0:0:
367,160,34586,1,0,0:0:0:0:
336,80,34696,5,10,0:0:0:0:
384,50,34805,1,0,0:0:0:0:
413,2,34914,1,0,0:0:0:0:
413,59,35024,1,0,0:0:0:0:
439,110,35134,6,0,B|438:126|444:134|444:134|442:121|451:106,1,47.5,12|0,0:0|0:0,0:0:0:0:
497,40,35353,1,2,0:0:0:0:
497,35,35462,1,0,0:0:0:0:
501,37,35572,1,10,0:0:0:0:
232,52,35791,2,0,B|214:47|211:37|211:37|209:53|226:67,1,47.5,2|0,0:0|0:0,0:0:0:0:
265,122,36010,1,10,0:0:0:0:
327,247,36229,1,2,0:0:0:0:
334,241,36338,1,0,0:0:0:0:
395,244,36448,5,8,0:0:0:0:
348,237,36557,1,0,0:0:0:0:
301,230,36666,1,2,0:0:0:0:
254,222,36776,1,0,0:0:0:0:
164,228,36886,6,0,B|148:236|140:254|140:254|141:213|191:205,1,95,8|2,0:0|0:0,0:0:0:0:
153,131,37214,1,0,0:0:0:0:
153,131,37324,1,10,0:0:0:0:
213,307,37543,1,2,0:0:0:0:
312,149,37762,5,10,0:0:0:0:
328,114,37871,1,0,3:0:0:0:
345,80,37981,1,2,0:0:0:0:
348,118,38090,1,0,3:0:0:0:
387,188,38200,5,10,0:0:0:0:
340,186,38309,1,0,0:0:0:0:
294,198,38418,1,10,0:0:0:0:
254,222,38528,1,0,0:0:0:0:
182,274,38638,6,0,P|152:241|154:220,1,47.5,12|0,0:0|3:3,3:3:0:0:
72,233,38857,2,0,P|74:189|90:176,1,47.5,2|0,0:0|3:3,3:3:0:0:
20,132,39076,1,10,0:0:0:0:
29,120,39185,1,0,3:3:0:0:
42,114,39295,1,2,0:0:0:0:
206,78,39514,5,10,0:0:0:0:
194,102,39623,1,0,0:0:0:0:
167,106,39732,1,2,0:0:0:0:
149,85,39842,1,0,0:0:0:0:
219,20,39952,5,8,0:0:0:0:
215,67,40061,1,0,0:0:0:0:
212,114,40170,1,2,0:0:0:0:
208,162,40280,1,0,0:0:0:0:
212,248,40389,6,0,B|246:249|261:265|261:265|258:240|266:219,1,95,8|2,0:0|0:0,0:0:0:0:
128,228,40718,1,0,0:0:0:0:
128,228,40827,1,10,0:0:0:0:
293,146,41046,1,2,0:0:0:0:
150,309,41265,5,10,0:0:0:0:
160,318,41374,1,0,0:0:0:0:
169,329,41483,1,0,0:0:0:0:
177,341,41593,1,0,0:0:0:0:
229,369,41703,5,10,0:0:0:0:
184,354,41812,1,0,0:0:0:0:
138,344,41921,1,0,0:0:0:0:
91,336,42031,1,0,0:0:0:0:
36,274,42141,6,0,B|20:277|10:305|10:305|19:288|30:281,1,47.5,12|0,0:0|0:0,0:0:0:0:
67,194,42360,1,2,0:0:0:0:
53,190,42470,1,0,0:0:0:0:
38,189,42579,1,10,0:0:0:0:
23,380,42798,1,2,0:0:0:0:
163,227,43017,5,10,0:0:0:0:
202,213,43126,1,0,0:0:0:0:
224,177,43235,1,2,0:0:0:0:
218,136,43345,1,0,0:0:0:0:
171,102,43455,5,8,0:0:0:0:
211,127,43564,1,0,0:0:0:0:
258,123,43673,1,2,0:0:0:0:
305,118,43783,1,0,0:0:0:0:
364,56,43893,6,0,B|394:31|394:31|370:107,1,95,8|2,0:0|0:0,0:0:0:0:
291,280,44222,1,0,0:0:0:0:
295,289,44331,1,10,0:0:0:0:
362,225,44550,1,2,0:0:0:0:
202,269,44769,5,10,0:0:0:0:
195,275,44878,1,0,0:0:0:0:
189,283,44987,1,2,0:0:0:0:
183,290,45097,1,0,0:0:0:0:
213,318,45207,5,10,0:0:0:0:
169,299,45316,1,0,0:0:0:0:
124,284,45425,1,10,0:0:0:0:
78,273,45535,1,0,0:0:0:0:
14,331,45645,6,0,B|18:355|19:374|19:374|34:340|6:307,1,95,10|0,0:0|0:0,0:0:0:0:
0,246,45973,1,0,0:0:0:0:
0,246,46083,1,8,0:0:0:0:
192,189,46302,1,2,0:0:0:0:
243,197,46411,1,2,0:0:0:0:
281,161,46521,1,10,0:0:0:0:
211,102,46740,1,0,0:0:0:0:
358,201,46959,5,10,0:0:0:0:
383,162,47068,1,0,0:0:0:0:
427,144,47177,1,0,0:0:0:0:
473,153,47287,1,0,0:0:0:0:
473,257,47397,5,10,0:0:0:0:
473,257,47506,1,0,0:0:0:0:
473,257,47616,2,0,P|503:235|521:230,1,47.5,0|0,0:0|0:0,0:0:0:0:
270,206,47835,2,0,P|275:169|284:152,1,47.5,10|0,0:0|0:0,0:0:0:0:
138,273,48054,2,0,P|122:239|121:220,1,47.5,0|2,0:0|0:0,0:0:0:0:
0,176,48273,6,0,P|23:180|43:192,1,47.5,2|0,0:0|1:2,0:0:0:0:
182,103,48492,2,0,P|194:122|201:145,1,47.5,0|0,0:0|0:0,0:0:0:0:
387,212,48711,2,0,P|376:233|359:250,1,47.5,10|2,0:0|0:0,3:0:0:0:
138,273,48930,1,2,1:2:0:0:
318,40,49149,6,0,B|296:20|280:13|280:13|305:55|302:124,1,142.5,14|0,0:0|0:0,0:0:0:0:
274,190,49587,2,0,B|259:203|259:203|277:172,1,47.5,10|0,0:0|0:0,0:0:0:0:
217,131,49806,2,0,B|198:137|198:137|226:115,1,47.5,2|0,0:0|0:0,0:0:0:0:
387,98,50025,2,0,B|405:104|405:104|369:104,1,47.5,10|0,0:0|3:0,3:0:0:0:
364,176,50244,2,0,B|378:189|378:189|345:175,1,47.5,2|0,0:0|3:0,3:0:0:0:
270,298,50462,6,0,B|285:306|288:317|288:317|269:313|257:314,1,47.5,10|0,0:0|0:0,0:0:0:0:
186,297,50681,1,2,0:0:0:0:
120,358,50900,1,2,0:0:0:0:
122,348,51010,1,0,0:3:0:0:
128,356,51119,1,2,0:0:0:0:
140,223,51338,1,10,0:0:0:0:
144,220,51448,1,0,0:3:0:0:
143,225,51557,1,2,0:0:0:0:
0,120,51776,2,0,P|55:132|93:161,1,95,10|0,0:0|0:0,0:0:0:0:
314,181,52214,2,0,P|258:171|212:184,1,95,10|0,0:0|0:0,0:0:0:0:
143,225,52652,5,14,0:0:0:0:
144,220,52761,1,2,0:0:0:0:
140,223,52871,1,2,0:0:0:0:
51,236,53090,2,0,P|11:239|0:246,1,47.5,10|2,0:0|0:0,0:0:0:0:
83,159,53309,2,0,P|52:133|39:130,1,47.5,2|0,0:0|0:0,0:0:0:0:
203,289,53528,2,0,P|231:316|236:329,1,47.5,10|0,0:0|0:0,0:0:0:0:
226,208,53747,2,0,P|265:206|278:213,1,47.5,2|0,0:0|0:0,0:0:0:0:
417,237,53966,5,10,0:0:0:0:
426,215,54075,1,0,0:0:0:0:
441,197,54184,1,2,0:0:0:0:
512,216,54404,2,0,B|416:197|505:157|359:127,1,142.5,10|0,0:0|0:0,0:0:0:0:
322,141,54842,1,10,0:0:0:0:
323,153,54951,1,0,3:0:0:0:
327,164,55060,1,2,0:0:0:0:
391,328,55280,1,10,0:0:0:0:
354,298,55389,1,0,0:0:0:0:
311,277,55499,1,0,0:0:0:0:
265,266,55608,1,0,0:0:0:0:
212,337,55718,2,0,P|186:350|160:352,1,47.5,10|0,0:0|0:0,0:0:0:0:
177,260,55937,2,0,P|148:262|123:255,1,47.5,0|0,0:0|0:0,0:0:0:0:
104,62,56156,5,10,0:0:0:0:
89,334,56375,1,2,0:0:0:0:
99,56,56594,2,0,P|91:31|77:13,1,47.5,10|0,0:0|0:0,0:0:0:0:
225,71,56813,2,0,P|237:47|239:25,1,47.5,2|0,0:0|0:0,0:0:0:0:
342,163,57032,2,0,P|368:161|389:152,1,47.5,10|0,0:0|0:0,0:0:0:0:
449,56,57251,1,0,0:0:0:0:
454,52,57360,1,0,0:0:0:0:
459,49,57470,2,0,P|457:72|448:94,1,47.5,10|0,0:0|0:0,0:0:0:0:
375,288,57689,2,0,P|376:264|385:242,1,47.5,2|0,0:0|0:0,0:0:0:0:
472,384,57908,6,0,P|494:374|512:358,1,47.5,10|0,0:0|3:0,3:0:0:0:
453,305,58127,2,0,P|462:283|463:259,1,47.5,2|0,0:0|0:0,0:0:0:0:
290,250,58346,2,0,P|280:228|264:210,1,47.5,10|0,0:0|3:0,3:0:0:0:
125,340,58565,2,0,P|103:331|79:330,1,47.5,2|0,0:0|0:0,0:0:0:0:
32,180,58784,5,10,0:0:0:0:
24,184,58893,1,0,0:0:0:0:
25,175,59003,1,0,0:0:0:0:
118,83,59222,2,0,P|110:105|96:124,1,47.5,10|0,0:0|0:0,0:0:0:0:
149,183,59441,2,0,P|130:197|108:206,1,47.5,10|0,0:0|0:0,0:0:0:0:
59,15,59660,6,0,P|96:35|231:40,1,142.5,14|0,0:0|0:0,0:0:0:0:
276,74,60097,2,0,P|290:35|296:28,2,47.5,10|0|0,0:0|0:0|0:0,0:0:0:0:
362,78,60535,5,10,0:0:0:0:
396,39,60644,1,0,0:0:0:0:
447,32,60753,1,0,0:0:0:0:
441,117,60864,1,2,0:0:0:0:
441,117,60973,2,0,P|416:169|407:243,1,95,10|2,0:0|0:0,0:0:0:0:
228,350,61411,6,0,B|192:348|173:372|173:372|199:313|266:296,1,142.5,14|0,0:0|0:0,0:0:0:0:
230,230,61849,2,0,B|224:227|215:227|215:227|237:216|267:229,1,47.5,10|0,0:0|0:0,0:0:0:0:
312,177,62068,2,0,B|309:170|303:164|303:164|326:172|338:202,1,47.5,2|0,0:0|3:0,3:0:0:0:
491,296,62287,6,0,P|420:291|344:258,1,142.5,10|0,0:0|0:0,0:0:0:0:
274,93,62725,2,0,P|232:113|231:126,1,47.5,10|0,0:0|0:0,0:0:0:0:
129,143,62944,2,0,P|146:158|169:158,1,47.5,2|0,0:0|0:0,0:0:0:0:
386,197,63163,5,10,0:0:0:0:
312,168,63309,5,0,0:0:0:0:
312,168,63455,5,0,0:0:0:0:
450,144,63601,5,10,0:0:0:0:
280,250,63747,5,0,0:0:0:0:
280,250,63893,5,0,0:0:0:0:
509,200,64039,5,10,0:0:0:0:
229,129,64258,1,2,0:0:0:0:
218,100,64368,1,2,0:0:0:0:
226,53,64477,1,10,0:0:0:0:
149,205,64696,5,2,0:0:0:0:
112,177,64806,1,2,0:0:0:0:
76,129,64915,1,10,0:0:0:0:
135,334,65134,5,2,0:0:0:0:
81,325,65243,1,2,0:0:0:0:
11,286,65353,1,10,0:0:0:0:
309,85,65572,5,2,0:0:0:0:
309,85,65681,1,2,0:0:0:0:
397,84,65791,5,10,0:0:0:0:
263,6,65937,5,2,0:0:0:0:
265,158,66083,5,2,0:0:0:0:
361,3,66229,5,10,0:0:0:0:
121,285,66448,5,2,0:0:0:0:
121,285,66667,2,0,B|101:288|93:305|93:305|104:228|188:208,1,170.999994781494,14|0,0:0|0:0,0:0:0:0:
205,49,67105,1,2,1:2:0:0:
244,137,67324,1,2,0:0:0:0:
327,106,67543,2,0,P|285:102|130:134,1,170.999994781494,10|0,0:0|0:0,0:0:0:0:
74,183,67981,6,0,B|62:188|64:205|64:205|81:192|91:164,1,56.9999982604981,2|0,1:2|0:0,0:0:0:0:
85,289,68200,1,2,0:0:0:0:
80,97,68419,1,14,0:0:0:0:
166,251,68638,5,2,0:0:0:0:
233,197,68747,1,2,0:0:0:0:
310,237,68857,1,2,1:2:0:0:
234,184,69076,5,2,0:0:0:0:
310,224,69185,1,0,0:0:0:0:
472,212,69295,1,10,0:0:0:0:
389,185,69404,1,2,0:0:0:0:
188,258,69514,1,2,0:0:0:0:
92,222,69623,1,2,0:0:0:0:
194,271,69733,1,2,1:2:0:0:
494,301,69952,5,2,0:0:0:0:
317,136,70170,2,0,B|306:79|387:43|428:76|428:120|324:95,1,170.999994781494,10|0,0:0|0:0,0:0:0:0:
239,84,70608,2,0,B|230:71|216:68|216:68|242:71|253:84,1,56.9999982604981,2|0,1:2|0:0,0:0:0:0:
389,185,70827,1,2,0:0:0:0:
481,217,71046,2,0,B|363:197|435:295|296:266,1,170.999994781494,10|0,0:0|0:0,0:0:0:0:
232,218,71484,5,2,1:2:0:0:
267,336,71703,1,2,0:0:0:0:
266,146,71922,2,0,B|283:137|292:128|292:128|288:142|277:151,1,56.9999982604981,14|0,0:0|0:3,0:3:0:0:
253,343,72141,1,2,0:0:0:0:
212,81,72360,2,0,B|217:62|217:49|217:49|224:62|223:76,1,56.9999982604981,2|0,1:2|0:3,0:3:0:0:
241,345,72579,1,2,0:0:0:0:
132,71,72798,5,10,0:0:0:0:
79,126,72908,1,2,1:2:0:0:
6,101,73017,1,2,1:2:0:0:
257,17,73236,1,2,1:2:0:0:
0,90,73455,5,2,1:2:0:0:
84,139,73565,1,0,1:2:0:0:
100,234,73674,2,0,B|206:225|148:160|261:152,1,170.999994781494,14|0,0:0|0:0,0:0:0:0:
331,204,74112,2,0,B|341:216|340:231|340:231|323:217|321:188,1,56.9999982604981,2|0,1:2|0:0,0:0:0:0:
324,119,74331,1,2,0:0:0:0:
398,302,74550,2,0,P|442:231|522:175,1,170.999994781494,10|0,0:0|0:0,0:0:0:0:
485,322,74988,6,0,P|478:339|491:380,1,56.9999982604981,2|0,1:2|0:0,0:0:0:0:
323,342,75207,1,2,0:0:0:0:
72,266,75426,1,14,0:0:0:0:
290,176,75645,5,2,0:0:0:0:
211,141,75754,1,0,0:0:0:0:
301,169,75864,1,2,1:2:0:0:
461,136,76083,5,2,0:0:0:0:
376,118,76193,1,0,0:0:0:0:
310,162,76302,1,10,0:0:0:0:
125,176,76411,1,2,0:0:0:0:
210,158,76521,1,2,0:0:0:0:
341,251,76630,1,2,0:0:0:0:
488,222,76740,1,2,1:2:0:0:
72,250,76959,6,0,B|53:263|53:270|53:270|48:253|68:236,1,56.9999982604981,2|0,0:0|0:0,0:0:0:0:
125,176,77178,1,10,0:0:0:0:
275,307,77397,1,2,0:0:0:0:
257,304,77507,1,2,0:0:0:0:
264,320,77616,1,2,1:2:0:0:
481,207,77835,2,0,B|500:220|500:227|500:227|505:210|485:193,1,56.9999982604981,2|0,0:0|0:0,0:0:0:0:
400,187,78054,6,0,P|433:122|447:16,1,170.999994781494,10|0,0:0|0:0,0:0:0:0:
355,80,78492,2,0,P|338:38|320:22,1,56.9999982604981,0|0,1:2|0:0,0:0:0:0:
251,23,78711,1,0,0:0:0:0:
248,33,78820,1,0,0:0:0:0:
251,42,78930,1,10,0:0:0:0:
234,352,79149,1,2,0:0:0:0:
311,317,79258,1,2,0:0:0:0:
243,268,79368,1,2,1:2:0:0:
46,160,79478,2,0,B|23:164|20:171|20:171|22:153|47:145,1,56.9999982604981,0|2,0:0|0:0,0:0:0:0:
95,86,79806,5,10,1:2:0:0:
149,152,79915,1,0,1:2:0:0:
225,122,80025,1,2,1:2:0:0:
220,108,80243,5,0,1:2:0:0:
310,39,80353,1,0,1:2:0:0:
415,86,80462,1,0,1:2:0:0:
329,262,80681,6,0,P|312:217|290:175,2,95,6|2|2,0:0|0:0|0:0,0:0:0:0:
330,275,81557,1,2,0:0:0:0:
328,284,81995,1,2,0:0:0:0:
319,293,82324,5,2,0:0:0:0:
171,266,82433,2,0,B|158:270|149:278|149:278|161:256|173:253,1,47.5,14|0,0:0|0:0,0:0:0:0:
252,239,82652,1,2,0:0:0:0:
393,333,82871,2,0,B|459:287|416:260|486:225,1,142.5,2|0,0:0|0:0,0:0:0:0:
465,136,83309,2,0,B|472:112|488:98|488:98|459:103|412:152|429:187,1,142.5,10|0,0:0|0:0,0:0:0:0:
512,302,83747,1,2,0:0:0:0:
505,314,84076,5,0,0:0:0:0:
346,347,84185,2,0,B|343:338|352:357|352:357|353:341|339:324,1,47.5,10|0,0:0|0:0,0:0:0:0:
265,315,84404,1,2,0:0:0:0:
160,354,84623,2,0,P|112:287|34:258,1,142.5,2|0,0:0|0:0,0:0:0:0:
45,269,85061,5,10,0:0:0:0:
144,215,85280,1,0,0:0:0:0:
167,128,85499,2,0,B|129:114|118:78|118:78|120:118|89:150,1,142.5,2|0,0:0|0:0,0:0:0:0:
144,215,85937,6,0,P|221:239|279:278,1,142.5,6|0,0:0|0:0,0:0:0:0:
317,343,86375,1,0,0:0:0:0:
317,338,86484,1,0,3:0:0:0:
321,341,86594,1,2,0:0:0:0:
409,372,86813,2,0,P|427:345|443:331,1,47.5,10|0,0:0|0:0,0:0:0:0:
359,259,87032,2,0,P|390:264|412:262,1,47.5,2|0,0:0|3:0,3:0:0:0:
321,341,87251,1,10,0:0:0:0:
263,146,87689,6,0,B|249:133|238:80|238:80|246:136|237:152,1,142.5,10|0,0:0|0:0,0:0:0:0:
268,226,88127,5,2,0:0:0:0:
159,114,88273,5,0,0:0:0:0:
270,236,88419,5,0,0:0:0:0:
329,88,88565,5,2,1:2:0:0:
