osu file format v14

[General]
AudioFilename: audio.mp3
AudioLeadIn: 0
PreviewTime: 66448
Countdown: 0
SampleSet: None
StackLeniency: 0.7
Mode: 0
LetterboxInBreaks: 0
WidescreenStoryboard: 1

[Editor]
Bookmarks: 17616,21119,49149,56156,63163
DistanceSpacing: 0.7
BeatDivisor: 4
GridSize: 16
TimelineZoom: 3.200005

[Metadata]
Title:Seishoujo Ryouiki (TV Size)
TitleUnicode:聖少女領域 (TV Size)
Artist:ALI PROJECT
ArtistUnicode:ALI PROJECT
Creator:EijiKuinbii
Version:Yooh's Another
Source:ローゼンメイデン トロイメント
Tags:Rozen Maiden Traumend opening anishina kodoku yooh
BeatmapID:1870513
BeatmapSetID:893167

[Difficulty]
HPDrainRate:6
CircleSize:3.8
OverallDifficulty:9
ApproachRate:9.1
SliderMultiplier:2.8
SliderTickRate:1

[Events]
//Background and Video events
0,0,"bg.jpg",0,0
//Break Periods
//Storyboard Layer 0 (Background)
//Storyboard Layer 1 (Fail)
//Storyboard Layer 2 (Pass)
//Storyboard Layer 3 (Foreground)
//Storyboard Sound Samples

[TimingPoints]
98,437.956204379562,4,2,47,60,1,0
1630,-100,4,2,47,65,0,0
2068,-100,4,2,47,70,0,0
2506,-100,4,2,47,75,0,0
3601,-80,4,2,47,80,0,1
17616,-200,4,2,47,80,0,0
21119,-133.333333333333,4,2,47,50,0,0
31083,-133.333333333333,4,2,47,5,0,0
31192,-133.333333333333,4,2,47,50,0,0
31521,-133.333333333333,4,2,47,5,0,0
31630,-133.333333333333,4,2,47,50,0,0
45098,-133.333333333333,4,2,47,5,0,0
45207,-133.333333333333,4,2,47,50,0,0
45535,-133.333333333333,4,2,47,5,0,0
45645,-133.333333333333,4,2,47,50,0,0
46192,-133.333333333333,4,2,47,5,0,0
46302,-133.333333333333,4,2,47,50,0,0
46849,-133.333333333333,4,2,47,5,0,0
46959,-133.333333333333,4,2,47,50,0,0
47944,-133.333333333333,4,2,47,5,0,0
48054,-133.333333333333,4,2,47,50,0,0
48601,-133.333333333333,4,2,47,5,0,0
48711,-133.333333333333,4,2,47,50,0,0
49149,-111.111111111111,4,2,47,60,0,0
61740,-111.111111111111,4,2,47,5,0,0
61849,-111.111111111111,4,2,47,60,0,0
62616,-111.111111111111,4,2,47,5,0,0
62725,-111.111111111111,4,2,47,60,0,0
64039,-105.263157894737,4,2,47,65,0,0
64696,-100,4,2,47,70,0,0
65134,-100,4,2,47,75,0,0
65572,-90.9090909090909,4,2,47,80,0,0
66667,-80,4,2,47,80,0,1
80681,-133.333333333333,4,2,47,60,0,0
81448,-133.333333333333,4,2,47,5,0,0
81557,-133.333333333333,4,2,47,60,0,0
85827,-133.333333333333,4,2,47,5,0,0
85937,-133.333333333333,4,2,47,60,0,0
86484,-133.333333333333,4,2,47,5,0,0
86594,-133.333333333333,4,2,47,60,0,0

[Colours]
Combo1 : 225,157,198
Combo2 : 242,157,168
Combo3 : 147,203,236
Combo4 : 152,231,162

[HitObjects]
306,272,98,6,0,B|286:323|255:294|232:353,2,93.3333333333334,10|2|2,0:0|0:0|0:0,0:0:0:0:
386,224,535,2,0,B|439:216|430:258|492:247,2,93.3333333333334,10|0|2,0:0|0:0|0:0,0:0:0:0:
306,176,973,6,0,B|276:146|321:130|264:78,1,70,10|0,0:0|0:0,0:0:0:0:
263,75,1192,5,0,0:0:0:0:
220,139,1302,1,0,0:0:0:0:
243,57,1411,2,0,P|295:22|338:15,1,70,10|0,0:0|0:0,0:0:0:0:
454,129,1630,5,0,0:0:0:0:
430,56,1740,1,0,0:0:0:0:
439,152,1849,2,0,P|406:151|359:134,1,70,10|0,0:0|0:0,0:0:0:0:
208,78,2068,5,0,0:0:0:0:
137,110,2178,1,0,0:0:0:0:
76,49,2287,2,0,B|52:46|38:61|38:61|48:70|71:65,1,70,10|0,0:0|0:0,0:0:0:0:
224,93,2506,5,0,0:0:0:0:
153,125,2616,1,0,0:0:0:0:
101,208,2725,2,0,B|65:196|50:225|4:202,2,93.3333333333333,10|2|2,0:0|0:0|0:0,0:0:0:0:
176,265,3163,1,2,0:0:0:0:
251,188,3382,5,0,0:0:0:0:
326,265,3601,2,0,B|402:236|406:301|498:257,1,175,8|0,0:0|0:0,0:0:0:0:
349,179,4039,1,2,0:0:0:0:
364,347,4258,1,0,0:0:0:0:
436,185,4477,2,0,P|406:111|291:112,1,175,8|0,0:0|0:0,0:0:0:0:
349,179,4915,5,2,0:0:0:0:
394,4,5134,1,0,0:0:0:0:
225,49,5353,6,0,P|180:46|111:67,1,87.5,8|0,0:0|0:0,0:0:0:0:
14,143,5572,2,0,P|59:140|128:161,1,87.5,2|0,0:0|0:0,0:0:0:0:
128,159,5791,1,2,0:0:0:0:
254,239,6010,5,2,0:0:0:0:
176,230,6119,1,2,0:0:0:0:
264,222,6229,2,0,P|270:187|263:135,1,87.5,8|0,0:0|0:0,0:0:0:0:
86,265,6448,2,0,P|106:293|148:325,1,87.5,2|0,0:0|0:0,0:0:0:0:
176,335,6667,1,2,0:0:0:0:
266,278,6886,5,0,0:0:0:0:
355,338,7105,2,0,B|384:289|441:293|441:293|405:252|419:199,1,175,8|0,0:0|0:0,0:0:0:0:
502,229,7543,1,2,0:0:0:0:
430,379,7762,1,0,0:0:0:0:
380,146,7981,2,0,P|464:154|502:229,1,175,8|0,0:0|0:0,0:0:0:0:
415,228,8419,5,2,0:0:0:0:
460,53,8638,1,0,0:0:0:0:
286,102,8857,2,0,B|238:112|200:89|200:89|189:32|131:12,2,175,8|0|2,0:0|0:0|0:0,0:0:0:0:
199,208,9514,1,0,0:0:0:0:
113,101,9733,6,0,P|118:144|111:187,1,87.5,8|0,0:0|0:0,0:0:0:0:
11,230,9952,1,2,0:0:0:0:
32,234,10061,1,2,0:0:0:0:
51,245,10171,2,0,P|45:280|52:332,1,87.5,2|0,0:0|0:0,0:0:0:0:
69,356,10389,5,0,0:0:0:0:
176,294,10608,2,0,B|252:265|271:332|348:286,1,175,8|0,0:0|0:0,0:0:0:0:
294,213,11046,1,2,0:0:0:0:
301,384,11265,1,0,0:0:0:0:
431,272,11484,2,0,P|378:206|295:213,1,175,8|0,0:0|0:0,0:0:0:0:
344,287,11922,5,2,0:0:0:0:
389,112,12141,1,0,0:0:0:0:
215,161,12360,2,0,P|217:126|206:75,1,87.5,8|0,0:0|0:0,0:0:0:0:
87,21,12579,2,0,P|76:63|79:107,1,87.5,2|0,0:0|0:0,0:0:0:0:
91,134,12798,1,2,0:0:0:0:
58,270,13017,5,2,2:0:0:0:
134,265,13126,1,2,2:0:0:0:
49,287,13236,2,0,P|49:322|65:372,1,87.5,8|0,2:0|2:0,2:0:0:0:
209,332,13455,2,0,P|223:300|229:248,1,87.5,2|0,0:0|0:0,0:0:0:0:
224,219,13674,1,2,0:0:0:0:
180,121,13893,5,0,0:0:0:0:
270,64,14112,2,0,B|355:19|363:106|473:39,1,175,8|0,0:0|0:0,0:0:0:0:
469,63,14441,1,0,0:0:0:0:
481,160,14550,2,0,P|471:213|434:247,1,87.5,2|0,0:0|0:0,0:0:0:0:
275,189,14769,2,0,P|270:137|296:92,1,87.5,2|0,0:0|0:0,0:0:0:0:
375,161,14988,2,0,B|420:221|409:304|363:337|363:337|316:316|302:259,1,262.5,8|0,0:0|0:0,0:0:0:0:
298,267,15426,1,6,0:0:0:0:
484,317,15645,1,4,0:0:0:0:
274,360,15864,6,0,B|147:384|147:384|89:353,1,175,8|0,0:0|0:0,0:0:0:0:
81,346,16193,1,0,0:0:0:0:
153,280,16302,2,0,P|175:316|176:360,1,87.5,2|0,0:0|0:0,0:0:0:0:
81,214,16521,2,0,P|58:177|57:133,1,87.5,2|0,0:0|0:0,0:0:0:0:
187,141,16740,5,8,0:0:0:0:
164,146,16849,1,0,0:0:0:0:
141,151,16959,1,0,0:0:0:0:
225,221,17178,1,6,0:0:0:0:
409,261,17397,1,4,0:0:0:0:
314,379,17616,5,0,0:0:0:0:
171,322,17945,1,0,0:0:0:0:
171,322,18054,1,0,0:0:0:0:
84,368,18273,1,0,0:0:0:0:
84,368,18382,1,0,0:0:0:0:
17,214,18711,1,0,0:0:0:0:
133,247,18930,2,0,B|170:239|170:239|219:247,1,70
41,191,19368,5,0,0:0:0:0:
225,221,19587,1,0,0:0:0:0:
406,178,19806,1,0,0:0:0:0:
304,154,20025,1,0,0:0:0:0:
304,154,20134,1,0,0:0:0:0:
494,121,20462,1,0,0:0:0:0:
373,0,20681,2,0,L|388:89,1,70
259,28,21119,1,8,0:0:0:0:
259,28,21338,6,0,P|199:20|146:61,2,105.000004005432,0|2|0,0:0|0:0|0:0,0:0:0:0:
221,106,21995,2,0,L|232:210,1,105.000004005432,8|0,0:0|0:0,0:0:0:0:
136,193,22324,1,0,0:0:0:0:
122,171,22433,2,0,L|133:67,1,105.000004005432,2|0,0:0|0:0,0:0:0:0:
147,276,22871,1,8,0:0:0:0:
147,276,23090,6,0,P|90:275|40:237,2,105.000004005432,0|2|0,0:0|0:0|0:0,0:0:0:0:
230,309,23747,2,0,P|198:348|129:363,1,105.000004005432,8|0,0:0|0:0,0:0:0:0:
147,276,24185,1,2,0:0:0:0:
310,261,24404,1,0,0:0:0:0:
412,355,24623,1,8,0:0:0:0:
412,355,24842,6,0,L|308:344,2,105.000004005432,0|2|0,0:0|0:0|0:0,0:0:0:0:
491,203,25499,2,0,B|449:193|423:229|434:267|434:267|494:284|502:347,1,210.000008010865,8|2,0:0|0:0,0:0:0:0:
417,381,26046,1,0,0:0:0:0:
412,355,26156,1,0,0:0:0:0:
347,232,26375,1,8,0:0:0:0:
347,232,26594,6,0,P|355:172|314:119,2,105.000004005432,0|2|0,0:0|0:0|0:0,0:0:0:0:
269,194,27251,2,0,L|165:205,1,105.000004005432,8|0,0:0|0:0,0:0:0:0:
188,116,27579,1,0,0:0:0:0:
204,95,27689,2,0,L|308:106,1,105.000004005432,2|0,0:0|0:0,0:0:0:0:
101,118,28127,1,8,0:0:0:0:
101,118,28346,6,0,P|100:66|126:21,2,105.000004005432,0|2|0,0:0|0:0|0:0,0:0:0:0:
69,202,29003,2,0,P|29:168|12:119,1,105.000004005432,8|0,0:0|0:0,0:0:0:0:
101,118,29441,1,2,0:0:0:0:
122,280,29660,1,0,0:0:0:0:
252,214,29879,1,8,0:0:0:0:
252,214,30098,6,0,L|148:203,2,105.000004005432,0|2|0,0:0|0:0|0:0,0:0:0:0:
328,313,30754,2,0,B|408:273|420:352|508:285,1,157.500006008148,8|0,0:0|0:0,0:0:0:0:
512,279,31192,2,0,P|453:289|450:199,1,157.500006008148,2|0,0:0|0:0,0:0:0:0:
460,177,31630,2,0,B|344:126|344:217|235:156,1,210.000008010865,8|2,0:0|0:0,0:0:0:0:
304,70,32287,1,0,0:0:0:0:
410,43,32506,2,0,P|461:31|512:43,1,105.000004005432,8|0,0:0|0:0,0:0:0:0:
357,147,32944,2,0,P|306:159|255:147,1,105.000004005432,2|0,0:0|0:0,0:0:0:0:
181,76,33382,6,0,B|180:57|146:44|146:44|99:119|160:128|129:200,1,210.000008010865,8|2,0:0|0:0,0:0:0:0:
124,306,34039,1,0,0:0:0:0:
222,264,34258,2,0,P|230:314|214:364,1,105.000004005432,8|0,0:0|0:0,0:0:0:0:
26,346,34696,2,0,P|18:294|35:245,1,105.000004005432,2|0,0:0|0:0,0:0:0:0:
131,200,35134,1,8,0:0:0:0:
131,200,35353,6,0,L|235:187,2,105.000004005432,0|2|0,0:0|0:0|0:0,0:0:0:0:
277,87,36010,2,0,P|318:118|340:165,1,105.000004005432,8|0,0:0|0:0,0:0:0:0:
249,278,36338,1,0,0:0:0:0:
224,287,36448,2,0,P|217:235|234:186,1,105.000004005432,2|0,0:0|0:0,0:0:0:0:
352,248,36886,1,8,0:0:0:0:
352,248,37105,6,0,L|456:261,2,105.000004005432,0|2|0,0:0|0:0|0:0,0:0:0:0:
182,365,37762,2,0,P|232:374|280:355,1,105.000004005432,8|0,0:0|0:0,0:0:0:0:
249,278,38090,1,0,0:0:0:0:
224,287,38200,1,2,0:0:0:0:
88,377,38419,1,0,0:0:0:0:
15,274,38638,1,8,0:0:0:0:
15,274,38857,6,0,P|7:214|48:161,2,105.000004005432,0|2|0,0:0|0:0|0:0,0:0:0:0:
93,236,39514,2,0,L|197:247,1,105.000004005432,8|0,0:0|0:0,0:0:0:0:
174,158,39842,1,0,0:0:0:0:
158,137,39952,2,0,L|54:148,1,105.000004005432,2|0,0:0|0:0,0:0:0:0:
261,160,40390,1,8,0:0:0:0:
261,160,40609,6,0,P|262:108|236:63,2,105.000004005432,0|2|0,0:0|0:0|0:0,0:0:0:0:
309,266,41265,2,0,B|425:317|425:226|534:287,1,210.000008010865,8|2,0:0|0:0,0:0:0:0:
465,347,41922,1,0,0:0:0:0:
372,198,42141,1,8,0:0:0:0:
372,198,42360,6,0,P|453:179|513:185,2,105.000004005432,0|2|0,0:0|0:0|0:0,0:0:0:0:
261,160,43017,2,0,P|210:144|158:141,1,105.000004005432,8|0,0:0|0:0,0:0:0:0:
77,205,43346,1,0,0:0:0:0:
57,222,43455,1,2,0:0:0:0:
158,141,43674,1,0,0:0:0:0:
97,300,43893,1,8,0:0:0:0:
97,300,44112,6,0,P|37:308|-16:267,2,105.000004005432,0|2|0,0:0|0:0|0:0,0:0:0:0:
195,263,44769,2,0,P|267:285|237:349,1,157.500006008148,8|0,0:0|0:0,0:0:0:0:
205,354,45207,2,0,B|272:324|299:400|375:328,1,157.500006008148,2|0,0:0|0:0,0:0:0:0:
388,320,45645,6,0,P|379:264|508:308,1,262.500010013581,8|0,0:0|0:0,0:0:0:0:
478,307,46302,1,2,0:0:0:0:
460,297,46411,1,2,0:0:0:0:
445,283,46521,2,0,P|433:225|461:120,1,157.500006008148,8|0,0:0|0:0,0:0:0:0:
447,92,46959,2,0,P|407:158|402:208,1,105.000004005432,2|0,0:0|0:0,0:0:0:0:
271,146,47397,6,0,B|161:97|161:184|86:170|34:119|58:57,1,262.500010013581,8|0,0:0|0:0,0:0:0:0:
88,65,48054,1,2,0:0:0:0:
108,66,48163,1,2,0:0:0:0:
121,82,48273,2,0,P|133:140|105:245,1,157.500006008148,8|0,0:0|0:0,0:0:0:0:
119,273,48711,2,0,P|159:207|164:157,1,105.000004005432,2|0,0:0|0:0,0:0:0:0:
16,255,49149,6,0,P|34:329|69:370,1,125.999996154785,8|0,0:0|0:0,0:0:0:0:
163,343,49587,1,10,0:0:0:0:
263,327,49806,1,0,0:0:0:0:
179,360,50025,1,10,0:0:0:0:
279,344,50243,1,0,0:0:0:0:
378,360,50462,1,10,0:0:0:0:
479,345,50680,1,0,0:0:0:0:
415,265,50900,2,0,B|366:165|443:165|394:53,1,188.999994232178,10|0,0:0|0:0,0:0:0:0:
373,45,51338,2,0,P|361:108|385:184,1,125.999996154785,8|0,0:0|0:0,0:0:0:0:
512,108,51776,6,0,P|476:94|433:103,2,62.9999980773926,8|0|0,0:0|0:0|0:0,0:0:0:0:
492,12,52214,1,8,0:0:0:0:
362,20,52433,1,8,0:0:0:0:
248,65,52652,6,0,L|90:55,1,125.999996154785,8|0,0:0|0:0,0:0:0:0:
28,95,53090,1,10,0:0:0:0:
44,195,53309,1,0,0:0:0:0:
11,111,53528,1,10,0:0:0:0:
27,211,53746,1,0,0:0:0:0:
116,259,53966,1,10,0:0:0:0:
100,359,54184,1,0,0:0:0:0:
196,323,54404,2,0,B|296:372|296:295|408:344,1,188.999994232178,10|0,0:0|0:0,0:0:0:0:
416,365,54842,2,0,P|353:377|277:353,1,125.999996154785,8|0,0:0|0:0,0:0:0:0:
342,221,55280,6,0,P|358:268|349:313,2,62.9999980773926,8|0|0,0:0|0:0|0:0,0:0:0:0:
254,257,55718,1,8,0:0:0:0:
279,129,55937,1,8,0:0:0:0:
377,214,56156,6,0,P|424:230|506:211,1,125.999996154785,8|2,0:0|0:0,0:0:0:0:
437,114,56594,2,0,L|348:104,1,62.9999980773926,2|0,0:0|0:0,0:0:0:0:
430,33,56813,2,0,L|492:40,1,62.9999980773926,2|0,0:0|0:0,0:0:0:0:
374,106,57032,2,0,P|327:43|206:66,1,188.999994232178,8|0,0:0|0:0,0:0:0:0:
193,69,57470,2,0,P|151:78|68:34,1,125.999996154785,2|2,0:0|0:0,0:0:0:0:
1,152,57908,6,0,L|21:282,1,125.999996154785,8|2,0:0|0:0,0:0:0:0:
114,252,58346,2,0,P|146:246|191:277,1,62.9999980773926,2|0,0:0|0:0,0:0:0:0:
133,340,58565,2,0,P|103:350|73:344,1,62.9999980773926,2|0,0:0|0:0,0:0:0:0:
173,256,58784,2,0,B|313:241|313:241|367:280,1,188.999994232178,8|0,0:0|0:0,0:0:0:0:
383,291,59222,2,0,B|436:328|436:328|516:320,1,125.999996154785,2|2,0:0|0:0,0:0:0:0:
394,0,59660,6,0,B|341:141|456:152|384:290|384:290|406:220|380:152|338:114|261:127,1,503.999984619141,10|0,0:0|0:0,0:0:0:0:
103,120,60754,5,2,0:0:0:0:
86,106,60864,1,2,0:0:0:0:
71,89,60973,2,0,P|131:71|193:75,1,125.999996154785,10|0,0:0|0:0,0:0:0:0:
277,47,61411,6,0,B|294:105|245:148|245:148|293:179|290:252,1,188.999994232178,8|0,0:0|0:0,0:0:0:0:
199,223,61849,2,0,B|162:214|162:214|124:223,1,62.9999980773926,2|0,0:0|0:0,0:0:0:0:
105,187,62068,2,0,B|68:196|68:196|30:187,1,62.9999980773926,2|0,0:0|0:0,0:0:0:0:
4,272,62287,6,0,B|67:286|88:356|88:356|77:313|104:274,1,188.999994232178,8|0,0:0|0:0,0:0:0:0:
172,332,62725,6,0,P|204:342|232:333,1,62.9999980773926,2|0,0:0|0:0,0:0:0:0:
271,357,62944,2,0,P|301:353|333:364,1,62.9999980773926,2|0,0:0|0:0,0:0:0:0:
418,356,63163,5,2,0:0:0:0:
503,318,63309,1,2,0:0:0:0:
463,294,63455,1,2,0:0:0:0:
370,288,63601,5,2,0:0:0:0:
285,250,63747,1,2,0:0:0:0:
325,226,63893,1,2,0:0:0:0:
342,179,64039,6,0,B|359:154|327:141|353:88,1,66.4999982242585,10|0,0:0|0:0,0:0:0:0:
351,83,64258,5,0,0:0:0:0:
417,122,64368,1,0,0:0:0:0:
360,55,64477,2,0,P|331:47|287:46,1,66.4999982242585,10|0,0:0|0:0,0:0:0:0:
205,83,64696,5,0,0:0:0:0:
138,122,64806,1,0,0:0:0:0:
194,56,64915,2,0,B|182:37|187:19|187:19|205:19|211:39,1,70,10|0,0:0|0:0,0:0:0:0:
231,163,65134,5,0,0:0:0:0:
208,240,65243,1,0,0:0:0:0:
250,315,65353,2,0,B|251:327|272:341|272:341|264:305|281:287,1,70,10|0,0:0|0:0,0:0:0:0:
209,178,65572,5,0,0:0:0:0:
185,255,65681,1,0,0:0:0:0:
110,312,65791,2,0,B|64:288|55:335|-4:300,2,102.666669799805,10|2|2,0:0|0:0|0:0,0:0:0:0:
185,255,66229,1,2,0:0:0:0:
250,315,66448,5,0,0:0:0:0:
333,261,66667,2,0,B|409:232|413:297|505:253,1,175,8|0,0:0|0:0,0:0:0:0:
356,175,67105,1,2,0:0:0:0:
371,343,67324,1,0,0:0:0:0:
443,181,67543,2,0,P|413:107|298:108,1,175,8|0,0:0|0:0,0:0:0:0:
356,175,67981,5,2,0:0:0:0:
401,0,68200,1,0,0:0:0:0:
232,45,68419,6,0,P|187:42|118:63,1,87.5,8|0,0:0|0:0,0:0:0:0:
21,139,68638,2,0,P|66:136|135:157,1,87.5,2|0,0:0|0:0,0:0:0:0:
135,155,68857,1,2,0:0:0:0:
126,291,69076,5,2,0:0:0:0:
157,363,69185,1,2,0:0:0:0:
106,289,69295,2,0,P|75:263|59:215,1,87.5,8|0,0:0|0:0,0:0:0:0:
213,119,69514,2,0,P|221:161|207:202,1,87.5,2|0,0:0|0:0,0:0:0:0:
189,226,69733,1,2,0:0:0:0:
269,286,69951,5,0,0:0:0:0:
349,226,70170,2,0,B|391:252|442:233|442:233|400:210|393:165,1,175,8|0,0:0|0:0,0:0:0:0:
479,153,70608,1,2,0:0:0:0:
374,316,70827,1,0,0:0:0:0:
340,104,71046,2,0,P|422:89|479:151,1,175,8|0,0:0|0:0,0:0:0:0:
394,174,71484,5,2,0:0:0:0:
363,5,71703,1,0,0:0:0:0:
232,116,71922,6,0,B|191:131|185:102|139:120,1,87.5,8|0,0:0|0:0,0:0:0:0:
0,195,72141,2,0,B|38:179|44:208|85:193,1,87.5,2|0,0:0|0:0,0:0:0:0:
100,41,72360,2,0,P|62:93|67:144,1,87.5,8|0,0:0|0:0,0:0:0:0:
132,268,72579,2,0,P|170:216|165:165,1,87.5,2|0,0:0|0:0,0:0:0:0:
20,280,72798,6,0,P|29:322|59:353,1,87.5,8|0,0:0|0:0,0:0:0:0:
206,345,73017,1,0,0:0:0:0:
216,325,73127,1,0,0:0:0:0:
206,306,73236,2,0,P|249:301|292:308,1,87.5,8|0,0:0|0:0,0:0:0:0:
320,320,73455,5,0,0:0:0:0:
402,378,73674,2,0,B|437:332|427:289|427:289|388:260|388:209,1,175,8|0,0:0|0:0,0:0:0:0:
477,215,74112,1,2,0:0:0:0:
320,320,74331,1,0,0:0:0:0:
347,144,74550,2,0,P|431:144|477:215,1,175,8|0,0:0|0:0,0:0:0:0:
389,222,74988,5,2,0:0:0:0:
434,47,75207,1,0,0:0:0:0:
259,96,75426,6,0,P|250:51|212:-9,1,87.5,8|0,0:0|0:0,0:0:0:0:
100,81,75645,2,0,P|91:123|94:167,1,87.5,2|0,0:0|0:0,0:0:0:0:
106,195,75864,1,2,0:0:0:0:
268,218,76083,5,2,0:0:0:0:
220,279,76192,1,2,0:0:0:0:
257,199,76302,2,0,P|229:176|181:156,1,87.5,8|0,0:0|0:0,0:0:0:0:
113,276,76521,2,0,P|116:310|136:358,1,87.5,2|0,0:0|0:0,0:0:0:0:
158,379,76740,1,2,0:0:0:0:
241,324,76959,5,0,0:0:0:0:
324,379,77178,2,0,B|391:390|425:341|425:341|414:308|440:272,1,175,8|0,0:0|0:0,0:0:0:0:
449,258,77506,1,0,0:0:0:0:
446,160,77616,2,0,P|432:201|395:231,1,87.5,2|0,0:0|0:0,0:0:0:0:
310,186,77835,2,0,P|287:149|279:106,1,87.5,2|0,0:0|0:0,0:0:0:0:
422,130,78054,2,0,B|415:176|377:199|377:199|296:150|329:45,1,262.5,8|0,0:0|0:0,0:0:0:0:
341,18,78492,1,6,0:0:0:0:
171,51,78711,1,4,0:0:0:0:
26,14,78930,6,0,B|19:143|19:143|58:196,1,175,8|0,0:0|0:0,0:0:0:0:
67,203,79258,1,0,0:0:0:0:
123,122,79368,2,0,P|84:105|38:110,1,87.5,2|0,0:0|0:0,0:0:0:0:
27,292,79587,2,0,P|68:301|112:289,1,87.5,2|0,0:0|0:0,0:0:0:0:
222,244,79806,6,0,P|286:239|331:255,1,87.5,8|0,0:0|2:0,2:0:0:0:
336,254,80025,1,0,2:0:0:0:
404,336,80243,1,6,0:0:0:0:
480,261,80463,1,0,0:0:0:0:
485,238,80572,1,0,0:0:0:0:
490,215,80681,5,6,0:0:0:0:
457,131,80900,1,0,0:0:0:0:
490,47,81119,2,0,B|406:21|403:75|316:33,1,157.500006008148,2|0,0:0|0:0,0:0:0:0:
292,45,81557,2,0,P|344:73|398:76,1,105.000004005432,2|0,0:0|0:0,0:0:0:0:
242,115,81995,2,0,L|133:121,1,105.000004005432,2|0,0:0|0:0,0:0:0:0:
114,201,82324,1,0,0:0:0:0:
89,194,82433,6,0,P|53:143|57:80,2,105.000004005432,2|0|2,0:0|0:0|0:0,0:0:0:0:
98,320,83090,1,0,0:0:0:0:
217,362,83309,2,0,B|264:294|214:223|214:223|169:242|184:301,1,210.000008010865,2|2,0:0|0:0,0:0:0:0:
280,304,83966,1,0,0:0:0:0:
280,304,84185,6,0,P|354:321|411:291,2,105.000004005432,2|0|2,0:0|0:0|0:0,0:0:0:0:
336,214,84842,1,0,0:0:0:0:
449,268,85061,2,0,B|484:252|522:264|522:264|498:227|490:201,1,105.000004005432,2|0,0:0|0:0,0:0:0:0:
377,115,85499,2,0,P|289:116|233:199,1,157.500006008148,2|0,0:0|0:0,0:0:0:0:
231,186,85937,6,0,B|154:142|146:216|84:198|28:177|21:108|64:60,1,262.500010013581,2|0,0:0|0:0,0:0:0:0:
61,65,86594,1,0,0:0:0:0:
133,209,86813,2,0,P|82:208|28:251,2,105.000004005432,2|0|2,0:0|0:0|0:0,0:0:0:0:
191,322,87470,1,0,0:0:0:0:
286,238,87689,6,0,L|398:248,1,105.000004005432,2|0,0:0|0:0,0:0:0:0:
472,334,88127,5,2,0:0:0:0:
428,337,88273,1,2,0:0:0:0:
392,363,88419,1,2,0:0:0:0:
348,360,88565,1,12,0:0:0:0:
