osu file format v14

[General]
AudioFilename: audio.mp3
AudioLeadIn: 0
PreviewTime: 63306
Countdown: 0
SampleSet: Soft
StackLeniency: 0.3
Mode: 0
LetterboxInBreaks: 0
WidescreenStoryboard: 0

[Editor]
Bookmarks: 177,10949,25256,35993,39562,49418,63417
DistanceSpacing: 1.2
BeatDivisor: 8
GridSize: 16
TimelineZoom: 3

[Metadata]
Title:Wild Side (TV Size)
TitleUnicode:Wild Side (TV Size)
Artist:ALI
ArtistUnicode:ALI
Creator:Kroytz
Version:kimchii's Extreme
Source:BEASTARS
Tags:-Anime Ver.- ビースターズ BST BAND Version Alien Liberty International Jazz Anime Japanese English French Opening OP Night Mare Luna Yuuya_ke HowRengar Kowari DeviousPanda Kazato Asa Shizuku- BarkingMadDog BMD kimchii42 -Mikan
BeatmapID:2253082
BeatmapSetID:1055990

[Difficulty]
HPDrainRate:5.5
CircleSize:3.9
OverallDifficulty:8.6
ApproachRate:9.5
SliderMultiplier:2
SliderTickRate:1

[Events]
//Background and Video events
0,0,"BG.png",0,0
Video,-500,"video.mp4"
//Break Periods
//Storyboard Layer 0 (Background)
//Storyboard Layer 1 (Fail)
//Storyboard Layer 2 (Pass)
//Storyboard Layer 3 (Foreground)
//Storyboard Layer 4 (Overlay)
//Storyboard Sound Samples

[TimingPoints]
195,535.714285714286,4,2,6,50,1,0
261,-100,4,2,20,5,0,0
328,-100,4,2,6,50,0,0
462,-100,4,2,20,5,0,0
563,413.793103448276,4,2,6,50,1,0
563,-83.3333333333333,4,2,6,50,0,0
666,-83.3333333333333,4,2,20,5,0,0
769,-125,4,2,6,50,0,0
873,-125,4,2,20,5,0,0
976,-200,4,2,6,50,0,0
1080,-200,4,2,20,5,0,0
1222,419.58041958042,4,2,6,50,1,0
1222,-200,4,2,6,50,0,0
1641,428.571428571429,4,2,6,50,1,0
1855,495.867768595041,4,2,6,50,1,0
1916,-100,4,2,6,25,0,0
1978,431.654676258993,4,2,6,50,1,0
2409,465.116279069767,4,2,6,50,1,0
2641,483.870967741935,4,2,6,80,1,1
2641,-35.84229390681,4,2,6,80,0,1
3124,461.538461538462,4,2,6,80,1,1
3470,379.746835443038,4,2,6,80,1,1
3564,-100,4,2,6,5,0,0
3659,504.201680672269,4,2,3,35,1,0
3659,-100,4,2,3,35,0,0
4037,468.75,4,2,3,35,1,0
4037,-200,4,2,3,35,0,0
4505,413.793103448276,4,2,3,35,1,0
4918,508.474576271186,4,2,3,35,1,0
5299,427.046263345196,4,2,3,35,1,0
5512,434.782608695652,4,2,3,35,1,0
5512,-200,4,2,3,35,0,0
5838,419.58041958042,4,2,1,35,1,0
6257,431.654676258993,4,2,1,35,1,0
6688,487.80487804878,4,2,1,35,1,0
7053,465.116279069767,4,2,1,35,1,0
7285,413.793103448276,4,2,1,35,1,0
7285,-200,4,2,1,35,0,0
7595,434.782608695652,4,2,1,35,1,0
8029,441.176470588235,4,2,1,35,1,0
8470,517.241379310345,4,2,1,35,1,0
8857,454.545454545455,4,2,1,35,1,0
9084,413.793103448276,4,2,1,35,1,0
9084,-200,4,2,1,35,0,0
9394,428.571428571429,4,2,1,35,1,0
9822,437.956204379562,4,2,1,35,1,0
10259,512.820512820513,4,2,1,35,1,0
10643,425.531914893617,4,2,1,35,1,0
10855,392.156862745098,4,2,1,35,1,0
10953,447.761194029851,4,2,1,50,1,0
10953,-83.3333333333333,4,2,1,50,0,0
11288,-83.3333333333333,4,2,1,50,0,0
11400,-83.3333333333333,4,2,1,35,0,0
11736,-83.3333333333333,4,2,1,50,0,0
11848,-62.5,4,2,1,35,0,0
12072,-62.5,4,2,1,50,0,0
12184,-62.5,4,2,1,35,0,0
12296,425.531914893617,4,2,1,50,1,0
12296,-62.5,4,2,1,50,0,0
12721,447.761194029851,4,2,1,50,1,0
12721,-62.5,4,2,1,50,0,0
12888,-62.5,4,2,20,5,0,0
12944,-62.5,4,2,1,50,0,0
13112,-62.5,4,2,20,5,0,0
13168,-62.5,4,2,1,50,0,0
13616,442.80442804428,4,2,1,50,1,0
13616,-62.5,4,2,1,50,0,0
14058,-62.5,4,2,1,50,0,0
14501,437.956204379562,4,2,1,50,1,0
14719,-62.5,4,2,1,50,0,0
14938,447.761194029851,4,2,1,50,1,0
14938,-62.5,4,2,1,50,0,0
15385,-57.1428571428571,4,2,1,50,0,0
16057,-62.5,4,2,1,50,0,0
16281,447.761194029851,4,2,1,50,1,0
16504,-62.5,4,2,1,50,0,0
17176,-62.5,4,2,1,50,0,0
17624,461.538461538462,4,2,1,50,1,0
17624,-44.4444444444445,4,2,1,50,0,0
18085,447.761194029851,4,2,2,50,1,0
18085,-55.5555555555556,4,2,2,50,0,0
18308,-55.5555555555556,4,2,1,50,0,0
18980,-55.5555555555556,4,2,1,50,0,0
19428,-50,4,2,1,50,0,0
19876,454.545454545455,4,2,1,50,1,0
20330,447.761194029851,4,2,1,50,1,0
20441,-55.5555555555556,4,2,1,50,0,0
21673,444.444444444444,4,2,1,50,1,0
22117,-55.5555555555556,4,2,1,50,0,0
22673,-50,4,2,1,50,0,0
23012,447.761194029851,4,2,1,50,1,0
23012,-55.5555555555556,4,2,1,50,0,0
23463,449.438202247191,4,2,1,50,1,0
23463,-55.5555555555556,4,2,1,50,0,0
24361,-66.6666666666667,4,2,1,50,0,0
24811,434.782608695652,4,2,1,50,1,0
24811,-66.6666666666667,4,2,1,50,0,0
25245,461.538461538462,4,2,4,50,1,0
25245,-50,4,2,4,50,0,0
25591,-50,4,2,10,50,0,0
25706,444.444444444444,4,2,6,50,1,0
25706,-58.8235294117647,4,2,6,50,0,0
25927,-58.8235294117647,4,2,1,50,0,0
26150,-50,4,2,4,50,0,0
26372,-50,4,2,1,50,0,0
26594,-50,4,2,6,50,0,0
26817,-50,4,2,1,50,0,0
26928,-50,4,2,10,50,0,0
27039,447.761194029851,4,2,1,50,1,0
27094,-50,4,2,20,5,0,0
27150,-100,4,2,10,50,0,0
27262,-100,4,2,1,50,0,0
27374,-50,4,2,10,50,0,0
27486,-50,4,2,6,50,0,0
27598,-50,4,2,6,50,0,0
27710,-83.3333333333333,4,2,1,50,0,0
27934,-83.3333333333333,4,2,1,50,0,0
28382,-83.3333333333333,4,2,1,50,0,0
28830,-50,4,2,4,50,0,0
29053,-50,4,2,1,50,0,0
29165,-50,4,2,10,50,0,0
29277,-58.8235294117647,4,2,1,50,0,0
29389,-58.8235294117647,4,2,10,50,0,0
29501,-58.8235294117647,4,2,1,50,0,0
29725,434.782608695652,4,2,4,50,1,0
29725,-50,4,2,4,50,0,0
29942,-50,4,2,1,50,0,0
30159,-50,4,2,6,50,0,0
30377,-50,4,2,1,50,0,0
30485,-51.2820512820513,4,2,10,50,0,0
30594,468.75,4,2,1,50,1,0
30652,-100,4,2,20,5,0,0
30711,-100,4,2,10,50,0,0
30828,-100,4,2,1,50,0,0
30945,-100,4,2,10,50,0,0
31062,447.761194029851,4,2,6,50,1,0
31062,-50,4,2,6,50,0,0
31173,-50,4,2,6,50,0,0
31285,-83.3333333333333,4,2,1,50,0,0
31509,-83.3333333333333,4,2,1,50,0,0
31957,454.545454545455,4,2,1,50,1,0
32184,-83.3333333333333,4,2,1,50,0,0
32411,451.127819548872,4,2,4,50,1,0
32411,-45.4545454545455,4,2,4,50,0,0
32749,-45.4545454545455,4,2,10,50,0,0
32862,-66.6666666666667,4,2,1,50,0,0
32974,-66.6666666666667,4,2,10,50,0,0
33087,-66.6666666666667,4,2,1,50,0,0
33313,-45.4545454545455,4,2,4,50,0,0
33538,-45.4545454545455,4,2,1,50,0,0
33764,437.956204379562,4,2,6,50,1,0
33764,-45.4545454545455,4,2,6,50,0,0
33982,-45.4545454545455,4,2,1,50,0,0
34092,-45.4545454545455,4,2,10,50,0,0
34201,451.127819548872,4,2,1,50,1,0
34257,-45.4545454545455,4,2,20,5,0,0
34313,-100,4,2,10,50,0,0
34426,-100,4,2,1,50,0,0
34539,-45.4545454545455,4,2,10,50,0,0
34652,-45.4545454545455,4,2,6,50,0,0
34764,-45.4545454545455,4,2,6,50,0,0
34877,-71.4285714285714,4,2,1,50,0,0
35103,-71.4285714285714,4,2,1,50,0,0
35998,447.761194029851,4,2,4,50,1,0
35998,-71.4285714285714,4,2,4,50,0,0
36109,-71.4285714285714,4,2,10,50,0,0
36221,-71.4285714285714,4,2,10,50,0,0
36333,-80,4,2,10,50,0,0
36557,-80,4,2,20,5,0,0
36669,-80,4,2,10,50,0,0
36781,-80,4,2,10,50,0,0
36893,-80,4,2,4,50,0,0
37005,-80,4,2,10,50,0,0
37229,-100,4,2,20,5,0,0
37341,-50,4,2,1,50,0,0
37789,-50,4,2,4,50,0,0
37900,-50,4,2,1,50,0,0
38236,-57.1428571428571,4,2,6,50,0,0
38460,-57.1428571428571,4,2,1,50,0,0
38684,437.956204379562,4,2,4,50,1,0
38684,-66.6666666666667,4,2,4,50,0,0
38793,-66.6666666666667,4,2,1,50,0,0
39121,-80,4,2,6,50,0,0
39340,-80,4,2,6,50,0,0
39559,454.545454545455,4,2,1,50,1,0
39559,-55.5555555555556,4,2,1,50,0,0
39729,-55.5555555555556,4,2,20,5,0,0
39786,-55.5555555555556,4,2,1,50,0,0
40013,-55.5555555555556,4,2,1,50,0,0
40695,-50,4,2,1,50,0,0
40865,-50,4,2,20,5,0,0
40922,-50,4,2,1,50,0,0
41377,444.444444444444,4,2,1,50,1,0
41599,-55.5555555555556,4,2,1,50,0,0
42154,-59.8802395209581,4,2,1,50,0,0
42265,447.761194029851,4,2,1,50,1,0
42488,-50,4,2,1,50,0,0
42656,-50,4,2,20,5,0,0
42712,-50,4,2,1,50,0,0
43160,451.127819548872,4,2,1,50,1,0
43385,-55.5555555555556,4,2,1,50,0,0
44287,-50,4,2,1,50,0,0
44456,-50,4,2,20,5,0,0
44513,434.782608695652,4,2,1,50,1,0
44513,-50,4,2,1,50,0,0
44947,447.761194029851,4,2,1,50,1,0
45170,-55.5555555555556,4,2,1,50,0,0
45394,-50,4,2,1,50,0,0
45730,-55.5555555555556,4,2,1,50,0,0
46066,-50,4,2,1,50,0,0
46234,-50,4,2,20,5,0,0
46290,-50,4,2,1,50,0,0
46514,413.793103448276,4,2,1,50,1,0
46720,476.190476190476,4,2,1,50,1,0
46839,461.538461538462,4,2,1,50,1,0
46839,-41.6666666666667,4,2,1,50,0,0
47012,-41.6666666666667,4,2,20,5,0,0
47069,421.052631578947,4,2,1,50,1,0
47069,-41.6666666666667,4,2,1,50,0,0
47174,441.176470588235,4,2,1,50,1,0
47394,461.538461538462,4,2,1,50,1,0
47624,-40,4,2,1,50,0,0
47740,387.096774193548,4,2,1,50,1,0
47740,-35.7142857142857,4,2,1,50,0,0
47836,545.454545454546,4,2,1,50,1,0
47972,422.535211267606,4,2,3,50,1,0
47972,-37.037037037037,4,2,3,50,0,0
48183,447.761194029851,4,2,3,50,1,0
48183,-37.037037037037,4,2,3,50,0,0
48406,444.444444444444,4,2,1,50,1,0
48406,-37.037037037037,4,2,1,50,0,0
48850,500,4,2,1,50,1,0
48850,-50,4,2,1,50,0,0
49100,422.535211267606,4,2,1,50,1,0
49205,434.782608695652,4,2,1,50,1,0
49422,461.538461538462,4,2,2,50,1,0
49652,-100,4,2,3,50,0,0
50114,437.956204379562,4,2,3,50,1,0
50332,444.444444444444,4,2,3,50,1,0
51220,447.761194029851,4,2,3,50,1,0
54354,437.956204379562,4,2,3,50,1,0
54791,446.927374301676,4,2,3,50,1,0
55684,-71.4285714285714,4,2,3,50,0,0
56578,447.761194029851,4,2,3,50,1,0
57921,461.538461538462,4,2,3,50,1,0
58382,447.761194029851,4,2,3,50,1,0
60173,434.782608695652,4,2,3,50,1,0
60607,468.75,4,2,3,50,1,0
61075,444.444444444444,4,2,3,60,1,0
61519,-76.9230769230769,4,2,3,60,0,0
61963,447.761194029851,4,2,3,60,1,0
61963,-66.6666666666667,4,2,3,60,0,0
62186,-100,4,2,3,60,0,0
62410,-52.6315789473684,4,2,3,60,0,0
62634,-100,4,2,3,60,0,0
62858,468.75,4,2,3,60,1,0
62858,-43.4782608695652,4,2,3,60,0,0
63092,-100,4,2,3,60,0,0
63326,434.782608695652,4,2,1,70,1,0
63326,-50,4,2,1,70,0,0
63543,-50,4,2,5,70,0,0
63760,447.761194029851,4,2,4,80,1,1
63760,-40,4,2,4,80,0,1
63983,-40,4,2,1,80,0,1
64207,-45.4545454545455,4,2,4,80,0,1
64319,-45.4545454545455,4,2,1,80,0,1
64655,-40,4,2,4,80,0,1
64767,-40,4,2,1,80,0,1
64879,-40,4,2,6,80,0,1
64991,-40,4,2,10,80,0,1
65103,-45.4545454545455,4,2,1,80,0,1
65215,-45.4545454545455,4,2,6,80,0,1
65551,-40,4,2,1,80,0,1
65662,-40,4,2,6,80,0,1
65774,-40,4,2,1,80,0,1
65998,434.782608695652,4,2,4,80,1,1
65998,-40,4,2,4,80,0,1
66106,-45.4545454545455,4,2,1,80,0,1
66215,-45.4545454545455,4,2,6,80,0,1
66378,-45.4545454545455,4,2,20,5,0,1
66432,-33.3333333333333,4,2,4,80,0,1
66541,-33.3333333333333,4,2,1,80,0,1
66650,-45.4545454545455,4,2,1,80,0,1
66758,-45.4545454545455,4,2,6,80,0,1
66867,458.015267175573,4,2,4,80,1,1
66867,-45.4545454545455,4,2,4,80,0,1
66981,-45.4545454545455,4,2,1,80,0,1
67096,-45.4545454545455,4,2,1,80,0,1
67325,441.176470588235,4,2,4,80,1,1
67325,-33.3333333333333,4,2,4,80,0,1
67435,-33.3333333333333,4,2,1,80,0,1
67545,-33.3333333333333,4,2,6,80,0,1
67655,-33.3333333333333,4,2,1,80,0,1
67766,-50,4,2,4,80,0,1
67876,-50,4,2,1,80,0,1
67986,-50,4,2,6,80,0,1
68097,-50,4,2,1,80,0,1
68207,-58.8235294117647,4,2,4,80,0,1
68317,-58.8235294117647,4,2,1,80,0,1
68427,-58.8235294117647,4,2,6,80,0,1
68536,-58.8235294117647,4,2,1,80,0,1
68648,447.761194029851,4,2,4,80,1,1
68648,-66.6666666666667,4,2,4,80,0,1
68759,-66.6666666666667,4,2,10,80,0,1
68871,-66.6666666666667,4,2,1,80,0,1
69095,451.127819548872,4,2,4,80,1,1
69095,-100,4,2,4,80,0,1
69207,-100,4,2,1,80,0,1
69546,-76.9230769230769,4,2,4,80,0,1
69658,-76.9230769230769,4,2,1,80,0,1
69997,-66.6666666666667,4,2,4,80,0,1
70110,-66.6666666666667,4,2,1,80,0,1
70222,-66.6666666666667,4,2,1,80,0,1
70448,-50,4,2,6,80,0,1
70786,-44.4444444444445,4,2,6,80,0,1
70899,444.444444444444,4,2,4,80,1,1
70899,-35.7142857142857,4,2,4,80,0,1
71121,-45.4545454545455,4,2,1,80,0,1
71343,-45.4545454545455,4,2,4,80,0,1
71454,-45.4545454545455,4,2,1,80,0,1
71565,-45.4545454545455,4,2,1,80,0,1
71787,-40,4,2,4,80,0,1
71899,-40,4,2,1,80,0,1
72232,-45.4545454545455,4,2,4,80,0,1
72343,-45.4545454545455,4,2,1,80,0,1
72454,-45.4545454545455,4,2,6,80,0,1
72676,447.761194029851,4,2,4,80,1,1
72676,-40,4,2,4,80,0,1
72843,-40,4,2,20,5,0,1
72899,-40,4,2,6,80,0,1
73123,-40,4,2,4,80,0,1
73235,-40,4,2,6,80,0,1
73795,-45.4545454545455,4,2,1,80,0,1
74019,-45.4545454545455,4,2,4,80,0,1
74131,-45.4545454545455,4,2,1,80,0,1
74243,491.803278688525,4,2,6,80,1,1
74243,-45.4545454545455,4,2,6,80,0,1
74488,454.545454545455,4,2,5,80,1,1
74488,-40,4,2,5,80,0,1
74715,-40,4,2,1,80,0,1
74942,434.782608695652,4,2,1,80,1,1
74942,-45.4545454545455,4,2,1,80,0,1
75376,454.545454545455,4,2,1,80,1,1
75376,-66.6666666666667,4,2,1,80,0,1
75603,-50,4,2,1,80,0,1
75830,-36.3636363636364,4,2,5,80,0,1
75944,-36.3636363636364,4,2,5,80,0,1
76057,-28.5714285714286,4,2,1,80,0,1
76285,447.761194029851,4,2,1,80,1,1
76285,-40,4,2,1,80,0,1
76508,-40,4,2,1,80,0,1
76732,434.782608695652,4,2,1,80,1,1
76732,-36.3636363636364,4,2,1,80,0,1
77166,461.538461538462,4,2,1,80,1,1
77166,-33.3333333333333,4,2,1,80,0,1
77396,-33.3333333333333,4,2,1,80,0,1
77627,447.761194029851,4,2,1,80,1,1
77962,480,4,2,1,80,1,0
77962,-33.3333333333333,4,2,1,80,0,0
78322,444.444444444444,4,2,1,35,1,0
78322,-200,4,2,1,35,0,0
79210,491.803278688525,4,2,1,35,1,0
79578,447.761194029851,4,2,1,35,1,0
79637,461.538461538462,4,2,1,35,1,0
79801,454.545454545455,4,2,1,35,1,0
79801,-166.666666666667,4,2,1,35,0,0
80141,416.666666666667,4,2,1,35,1,0
80557,447.761194029851,4,2,1,35,1,0
81004,491.803278688525,4,2,1,35,1,0
81372,461.538461538462,4,2,1,35,1,0
81440,461.538461538462,4,2,1,35,1,0
81555,-100,4,2,1,15,0,0
81602,322.58064516129,4,2,1,50,1,0
81682,447.761194029851,4,2,1,50,1,0
81682,-83.3333333333333,4,2,1,50,0,0
84816,444.444444444444,4,2,1,50,1,0
84927,-83.3333333333333,4,2,1,50,0,0
85260,468.75,4,2,1,50,1,0
85611,447.761194029851,4,2,6,60,1,0
85611,-100,4,2,6,60,0,0
85834,434.782608695652,4,2,6,60,1,0
85834,-76.9230769230769,4,2,6,60,0,0
86051,394.736842105263,4,2,6,60,1,0
86149,447.761194029851,4,2,6,60,1,0
86149,-58.8235294117647,4,2,6,60,0,0
86372,-76.9230769230769,4,2,6,60,0,0
86596,-100,4,2,6,60,0,0
86820,434.782608695652,4,2,6,60,1,0
87037,495.867768595041,4,2,6,60,1,0
87284,447.761194029851,4,2,6,60,1,0
87284,-133.333333333333,4,2,6,60,0,0
87451,-133.333333333333,4,2,1,60,0,0
87715,447.761194029851,4,2,1,80,1,0
87715,-28.5714285714286,4,2,1,80,0,0
88386,-28.5714285714286,4,2,1,20,0,0

[Colours]
Combo1 : 108,0,54
Combo2 : 0,64,128
Combo3 : 0,128,192
Combo4 : 255,255,70
Combo5 : 0,210,0
Combo6 : 192,192,192
Combo7 : 139,139,139
Combo8 : 155,0,0

[HitObjects]
39,49,195,102,0,B|36:61|36:61|46:68,1,25,2|0,0:0|0:0,0:0:0:0:
118,51,328,2,0,B|121:25|121:25|102:12,1,50,2|0,0:0|0:0,0:0:0:0:
2,195,563,6,0,B|19:170|19:170|46:186,1,59.9999981689454,2|0,0:0|0:0,0:0:0:0:
123,157,769,2,0,B|142:158|142:158|142:178,1,40,2|0,0:0|0:0,0:0:0:0:
200,238,976,2,0,B|205:248|205:248|194:254,1,25,2|0,0:0|0:0,0:0:0:0:
149,347,1222,101,2,0:0:0:0:
242,332,1326,1,2,0:0:0:0:
338,373,1431,1,2,0:0:0:0:
384,383,1536,1,2,0:0:0:0:
406,384,1641,1,2,0:0:0:0:
418,381,1748,1,2,0:0:0:0:
425,375,1855,2,0,L|433:327,1,25,2|0,0:0|0:0,0:0:0:0:
512,261,1978,5,0,3:2:0:0:
494,264,2049,1,0,3:2:0:0:
476,267,2121,1,0,3:2:0:0:
456,279,2193,101,0,3:2:0:0:
438,276,2265,1,0,3:2:0:0:
421,273,2337,1,0,3:2:0:0:
388,252,2409,5,0,3:2:0:0:
277,30,2641,102,0,B|288:10|349:-58|542:-15|498:175|428:207|361:229|296:195|296:195|397:264|310:390|247:367|183:336|179:293|177:264|177:264|148:333|56:321|23:258|59:163|146:191,1,1063.99995616455,6|0,1:2|2:0,0:0:0:0:
134,189,3659,1,2,1:3:0:0:
0,0,4037,22,0,L|17:101,1,100
104,26,4918,1,0,0:0:0:0:
0,112,5299,1,0,0:0:0:0:
116,15,5512,6,0,L|128:88,1,75
147,200,6257,1,0,0:0:0:0:
220,38,6688,1,0,0:0:0:0:
132,111,7053,1,0,0:0:0:0:
232,27,7285,102,0,L|244:100,1,75
263,212,8029,1,0,0:0:0:0:
336,50,8470,1,0,0:0:0:0:
250,127,8857,1,0,0:0:0:0:
348,39,9084,6,0,L|360:112,1,75
379,224,9822,1,0,0:0:0:0:
452,62,10259,1,0,0:0:0:0:
366,139,10643,1,0,0:0:0:0:
464,51,10855,101,0,0:0:0:0:
512,147,10953,2,0,P|441:169|424:234,1,119.999996337891,2|2,0:0|0:3,0:0:0:0:
504,298,11288,1,0,0:0:0:0:
438,219,11400,2,0,P|390:275|323:266,1,119.999996337891,2|2,0:0|0:3,0:0:0:0:
284,201,11736,1,0,0:0:0:0:
253,384,11848,6,0,P|247:306|188:255,1,160,2|2,0:0|0:3,0:0:0:0:
41,183,12184,1,0,0:0:0:0:
192,237,12296,2,0,P|113:236|58:290,1,160,2|2,0:0|0:3,0:0:0:0:
43,373,12615,1,0,0:0:0:0:
140,114,12721,102,0,L|14:91,1,120,2|0,0:0|0:0,0:0:0:0:
6,77,12944,2,0,L|124:97,1,120,2|0,0:3|0:0,0:0:0:0:
152,103,13168,5,2,0:0:0:0:
124,1,13280,1,0,0:0:0:0:
236,118,13392,101,2,0:3:0:0:
208,16,13504,1,0,0:0:0:0:
320,133,13616,6,0,L|302:227,1,80,2|0,0:0|0:0,0:0:0:0:
393,78,13837,2,0,L|372:-33,1,80,2|0,0:3|0:0,0:0:0:0:
488,126,14058,1,2,0:0:0:0:
410,164,14169,1,0,0:0:0:0:
508,117,14280,2,0,L|490:211,1,80,2|0,0:3|0:0,0:0:0:0:
455,384,14501,101,2,0:0:0:0:
455,384,14719,2,0,P|396:323|372:324,1,80,2|0,0:3|0:0,0:0:0:0:
361,243,14938,2,0,P|278:263|267:284,1,80,2|0,0:0|0:0,0:0:0:0:
171,384,15161,6,0,L|189:290,1,80,2|0,0:3|0:0,0:0:0:0:
45,98,15385,2,0,L|75:271,1,175.00000166893,2|2,0:0|0:3,0:0:0:0:
90,354,15721,1,0,0:0:0:0:
191,193,15833,101,2,0:0:0:0:
113,251,15945,1,0,0:0:0:0:
211,179,16057,2,0,L|193:85,1,80,2|0,0:3|0:0,0:0:0:0:
36,48,16281,5,2,0:0:0:0:
120,68,16392,1,0,0:0:0:0:
174,1,16504,2,0,L|268:19,1,80,2|0,0:3|0:0,0:0:0:0:
512,65,16728,102,0,L|418:83,1,80,2|0,0:0|0:0,0:0:0:0:
413,100,16952,2,0,L|507:82,1,80,2|0,0:3|0:0,0:0:0:0:
412,303,17176,1,2,0:0:0:0:
287,230,17288,1,0,0:0:0:0:
428,313,17400,6,0,L|419:360,1,40,2|2,0:3|0:3,0:0:0:0:
444,323,17512,2,0,L|435:370,1,40,2|2,0:3|0:3,0:0:0:0:
500,180,17624,2,0,P|270:136|277:37,1,337.500012874604,4|0,0:0|0:0,0:0:0:0:
276,1,18085,1,4,0:0:0:0:
276,1,18308,102,0,P|200:36|170:18,1,89.9999972534181,2|0,0:3|0:0,0:0:0:0:
169,10,18532,2,0,P|209:26|252:15,1,89.9999972534181,8|0,1:2|0:0,0:0:0:0:
109,91,18756,6,0,P|40:42|41:7,1,89.9999972534181,2|0,0:3|0:0,0:0:0:0:
46,1,18980,2,0,P|51:43|83:75,1,89.9999972534181,2|0,0:0|0:0,0:0:0:0:
206,223,19204,101,2,0:3:0:0:
108,204,19316,1,0,0:0:0:0:
10,185,19428,2,0,P|44:210|91:361,1,200,8|2,1:2|0:3,0:0:0:0:
0,384,19764,1,2,0:3:0:0:
207,282,19876,5,2,0:0:0:0:
179,384,19989,1,0,0:0:0:0:
293,267,20103,101,2,0:3:0:0:
265,369,20216,1,0,0:0:0:0:
345,197,20330,5,8,1:2:0:0:
373,299,20441,2,0,L|393:179,2,89.9999972534181,0|2|0,0:0|0:3|0:0,0:0:0:0:
492,384,20777,102,0,L|470:265,1,89.9999972534181,2|0,0:0|0:0,0:0:0:0:
442,102,21001,1,2,0:3:0:0:
512,189,21113,1,0,0:0:0:0:
428,85,21225,6,0,P|385:73|350:98,1,89.9999972534181,8|0,1:2|0:0,0:0:0:0:
277,142,21449,2,0,P|319:153|354:128,1,89.9999972534181,2|2,0:3|0:3,0:0:0:0:
237,22,21673,101,2,0:0:0:0:
179,160,21784,1,0,0:0:0:0:
165,80,21895,1,2,0:3:0:0:
151,0,22006,1,0,0:0:0:0:
0,73,22117,6,0,P|44:76|91:111,1,89.9999972534181,8|0,1:2|0:0,0:0:0:0:
193,240,22339,1,2,0:3:0:0:
179,160,22450,2,0,P|135:171|96:214,1,89.9999972534181,0|2,0:0|0:0,0:0:0:0:
0,267,22673,2,0,P|43:273|145:402,1,200
274,217,23012,101,8,1:2:0:0:
246,319,23123,1,0,0:0:0:0:
280,196,23235,2,0,L|302:315,1,89.9999972534181,2|2,0:3|0:3,0:0:0:0:
510,384,23463,5,2,0:0:0:0:
408,356,23575,1,0,0:0:0:0:
484,290,23687,101,2,0:3:0:0:
382,262,23800,1,0,0:0:0:0:
461,189,23912,6,0,L|342:167,1,89.9999972534181,8|0,1:2|0:0,0:0:0:0:
292,4,24137,2,0,L|411:26,1,89.9999972534181,2|0,0:3|0:0,0:0:0:0:
259,110,24361,102,0,L|165:127,1,75.0000028610231,2|0,0:0|0:0,0:0:0:0:
161,113,24586,2,0,L|254:95,1,75.0000028610231,2|0,0:3|0:0,0:0:0:0:
36,246,24811,2,0,B|61:100|61:100|2:183,1,225.000008583069,8|2,3:2|3:0,0:0:0:0:
0,30,25245,6,0,B|65:72|65:72|291:30,1,300,6|0,0:0|0:0,0:0:0:0:
312,0,25706,2,0,L|295:85,1,85.0000016212464,8|2,1:2|0:0,0:0:0:0:
263,257,25928,1,2,0:3:0:0:
263,257,26150,102,0,B|308:204|308:204|285:333,1,200,2|2,0:0|0:3,0:0:0:0:
210,384,26483,1,0,0:0:0:0:
427,270,26594,6,0,B|378:283|378:283|344:245,1,100,10|0,1:2|0:0,0:0:0:0:
205,90,26817,1,2,0:3:0:0:
105,149,26928,102,0,B|272:117,1,150,2|0,0:3|0:0,0:3:0:0:
272,116,27150,2,0,B|261:173,1,50,0|2,0:0|0:3,0:0:0:0:
512,253,27374,5,0,0:0:0:0:
449,83,27486,2,0,B|489:24|489:24|495:81,1,100,10|0,1:2|0:0,0:0:0:0:
434,238,27710,102,0,B|349:221,1,59.9999981689454,2|0,0:3|0:0,0:0:0:0:
301,75,27934,2,0,B|385:58,1,59.9999981689454,2|0,0:0|0:0,0:0:0:0:
250,228,28158,1,2,0:3:0:0:
337,182,28270,2,0,B|320:266,1,59.9999981689454,0|8,0:0|0:0,0:0:0:0:
160,290,28494,1,0,0:0:0:0:
247,244,28606,2,0,B|230:328,1,59.9999981689454,2|2,0:3|0:3,0:0:0:0:
42,384,28830,6,0,B|74:332|74:332|42:156,1,200,2|2,0:0|0:3,0:0:0:0:
29,104,29165,1,0,0:0:0:0:
0,64,29277,2,0,B|120:87,1,85.0000016212464,8|0,1:2|0:0,0:0:0:0:
293,122,29501,1,2,0:3:0:0:
293,122,29725,102,0,B|240:77|240:77|369:100,1,200,2|2,0:0|0:3,0:0:0:0:
512,126,30051,1,0,0:0:0:0:
459,0,30159,6,0,B|471:49|471:49|439:99,1,100,10|0,1:2|0:0,0:0:0:0:
331,280,30377,1,2,0:3:0:0:
245,216,30485,102,0,B|405:244,1,150,2|0,0:3|0:0,0:0:0:0:
419,246,30711,2,0,B|408:183,1,50,0|2,0:0|0:3,0:0:0:0:
170,287,30945,5,0,0:0:0:0:
212,76,31062,2,0,B|197:145|197:145|152:97,1,100,10|0,1:2|0:0,0:0:0:0:
47,12,31285,102,0,B|105:0,1,59.9999981689454,2|0,0:3|0:0,0:0:0:0:
74,155,31509,2,0,B|85:96,1,59.9999981689454,2|0,0:0|0:0,0:0:0:0:
91,319,31733,1,2,0:3:0:0:
0,253,31845,2,0,B|58:241,1,59.9999981689454,0|8,0:0|1:2,0:0:0:0:
198,382,32070,1,0,0:0:0:0:
107,316,32184,2,0,B|165:304,1,59.9999981689454,2|2,0:3|0:3,0:0:0:0:
512,210,32411,6,0,B|438:163|438:163|190:210,1,330.000010070801,2|0,0:0|0:0,0:0:0:0:
164,237,32862,2,0,B|180:136,1,75.0000028610231,8|0,1:2|0:0,0:0:0:0:
200,1,33087,1,2,0:3:0:0:
200,1,33313,102,0,B|141:50|141:50|283:25,1,220.000006713867,2|2,0:0|0:3,0:0:0:0:
410,0,33651,1,0,0:0:0:0:
358,192,33764,6,0,B|334:141|334:141|368:98,1,110.000003356934,10|0,1:2|0:0,0:0:0:0:
512,169,33982,1,2,0:3:0:0:
260,223,34092,102,0,B|423:251,1,165.000005035401,2|0,0:3|0:0,0:0:0:0:
448,256,34313,2,0,B|437:193,1,50,0|2,0:0|0:3,0:0:0:0:
200,295,34539,5,0,0:0:0:0:
135,142,34652,2,0,B|213:128|213:128|182:194,1,110.000003356934,10|0,1:2|0:0,0:0:0:0:
112,384,34877,102,0,B|98:305,1,69.9999978637696,2|0,0:3|0:0,0:0:0:0:
14,207,35103,2,0,B|88:222,1,69.9999978637696,2|0,0:0|0:0,0:0:0:0:
137,47,35328,1,2,0:3:0:0:
89,23,35441,1,0,0:0:0:0:
43,0,35554,2,0,B|56:78,1,69.9999978637696,8|0,1:2|0:0,0:0:0:0:
198,140,35779,2,0,B|184:61,1,69.9999978637696,2|2,0:3|0:3,0:0:0:0:
298,384,35998,5,2,0:0:0:0:
230,246,36109,1,0,0:0:0:0:
283,304,36221,101,2,0:3:0:0:
155,224,36333,2,0,B|212:243|212:243|289:180,1,125,0|2,0:0|0:0,0:0:0:0:
417,0,36669,5,2,0:3:0:0:
329,125,36781,1,0,0:0:0:0:
354,51,36893,101,2,0:0:0:0:
347,201,37005,2,0,B|335:141|335:141|242:106,1,125
446,384,37341,6,0,B|487:354|487:354|476:302,1,100,8|0,1:2|0:0,0:0:0:0:
401,275,37565,2,0,B|359:304|359:304|370:356,1,100,2|0,0:3|0:0,0:0:0:0:
502,3,37789,102,0,L|420:101,1,100,2|0,0:0|0:0,0:0:0:0:
426,158,38012,2,0,L|299:136,1,100,2|0,0:3|0:0,0:0:0:0:
25,88,38236,6,0,L|81:156,1,87.500000834465,10|0,1:2|0:0,0:0:0:0:
96,232,38460,2,0,L|183:217,1,87.500000834465,2|0,0:3|0:0,0:0:0:0:
445,163,38684,102,0,L|393:225,1,75.0000028610231,2|0,0:0|0:0,0:0:0:0:
404,297,38902,2,0,L|324:283,1,75.0000028610231,2|0,0:3|0:0,0:0:0:0:
79,237,39121,6,0,L|127:295,1,62.5,10|0,1:2|0:0,0:0:0:0:
116,359,39340,2,0,L|190:346,1,62.5,0|0,3:0|3:0,0:0:0:0:
253,3,39559,102,0,L|253:156,1,134.999995880127,6|0,0:0|0:0,0:0:0:0:
254,157,39786,2,0,L|363:137,1,89.9999972534181,2|0,0:3|0:0,0:0:0:0:
465,17,40013,2,0,P|420:21|387:52,1,89.9999972534181,8|0,1:2|0:0,0:0:0:0:
489,221,40240,5,2,0:3:0:0:
461,119,40354,2,0,L|441:239,1,89.9999972534181,0|2,0:0|0:0,0:0:0:0:
417,380,40581,101,0,0:0:0:0:
339,171,40695,2,0,L|311:337,1,150,2|0,0:3|0:0,0:0:0:0:
310,340,40922,2,0,P|285:269|257:253,1,100,8|0,1:2|0:0,0:0:0:0:
189,222,41149,2,0,P|114:234|94:259,1,100,2|2,0:3|0:3,0:0:0:0:
7,384,41377,1,2,0:0:0:0:
7,384,41599,6,0,L|27:264,1,89.9999972534181,2|0,0:3|0:0,0:0:0:0:
0,104,41821,2,0,P|47:162|79:167,1,89.9999972534181,8|0,1:2|0:0,0:0:0:0:
294,256,42043,101,2,0:3:0:0:
223,336,42154,2,0,L|200:216,1,83.4999973880769,0|2,0:0|0:0,0:0:0:0:
158,0,42376,5,0,0:0:0:0:
76,193,42488,2,0,P|143:162|177:97,1,150,2|0,0:3|0:0,0:0:0:0:
174,78,42712,2,0,P|216:139|247:148,1,100,8|0,1:2|0:0,0:0:0:0:
320,160,42936,2,0,P|388:128|401:98,1,100,2|2,0:3|0:3,0:0:0:0:
428,0,43160,1,2,0:0:0:0:
428,0,43385,102,0,L|447:109,1,89.9999972534181,2|0,0:3|0:0,0:0:0:0:
511,234,43611,2,0,P|449:191|416:194,1,89.9999972534181,8|0,1:2|0:0,0:0:0:0:
340,359,43836,5,2,0:3:0:0:
426,297,43949,2,0,L|306:319,1,89.9999972534181,0|2,0:0|0:0,0:0:0:0:
115,353,44175,101,0,0:0:0:0:
347,203,44287,2,0,L|188:232,1,150,2|0,0:3|0:0,0:0:0:0:
182,234,44513,2,0,P|213:167|206:135,1,100,8|0,1:2|0:0,0:0:0:0:
180,66,44730,2,0,P|118:23|85:26,1,100,2|2,0:3|0:3,0:0:0:0:
0,18,44947,1,2,0:0:0:0:
0,18,45170,6,0,L|22:138,1,89.9999972534181,2|0,0:3|0:0,0:0:0:0:
83,236,45394,2,0,P|21:193|-11:196,1,100,8|0,1:2|0:0,0:0:0:0:
231,324,45618,101,2,0:3:0:0:
134,384,45730,2,0,L|153:263,1,89.9999972534181,0|2,0:0|0:0,0:0:0:0:
176,109,45954,5,0,0:0:0:0:
311,301,46066,2,0,P|241:275|202:214,1,150,2|0,0:3|0:0,0:0:0:0:
195,196,46290,101,8,1:2:0:0:
322,197,46402,2,0,P|298:143|312:91,1,100,0|2,0:0|0:3,0:0:0:0:
412,68,46617,1,2,0:3:0:0:
330,0,46720,5,2,0:0:0:0:
512,31,46839,2,0,P|441:73|409:176,1,179.999994506836,8|0,3:2|0:0,0:0:0:0:
410,177,47069,101,0,3:0:0:0:
498,221,47174,5,8,3:2:0:0:
364,259,47284,1,0,3:0:0:0:
468,377,47394,101,0,3:0:0:0:
473,351,47470,1,0,3:0:0:0:
478,325,47547,1,0,3:0:0:0:
483,299,47624,2,0,L|421:314,1,62.5,0|0,1:0|0:0,0:0:0:0:
329,383,47740,2,0,P|369:327|364:259,1,139.999995727539,0|8,3:0|3:0,0:0:0:0:
283,159,47972,6,0,P|349:157|403:119,1,135.000000514984,2|0,1:3|0:0,0:0:0:0:
372,24,48183,2,0,P|289:31|233:98,1,135.000000514984,2|0,1:3|0:0,0:0:0:0:
121,383,48406,102,0,P|155:307|125:225,1,135.000000514984,8|8,3:2|3:2,0:0:0:0:
65,151,48628,1,8,3:2:0:0:
13,256,48739,1,8,3:0:0:0:
1,54,48850,6,0,P|50:120|182:127,1,200,4|8,1:2|3:0,0:0:0:0:
251,62,49205,1,8,3:0:0:0:
358,212,49422,37,4,0:0:0:0:
358,212,49652,6,0,L|320:179,1,50,2|0,0:3|0:0,0:0:0:0:
331,54,49883,2,0,L|321:103,1,50,2|0,0:2|0:0,0:0:0:0:
208,157,50114,2,0,L|255:140,1,50,2|0,0:3|0:0,0:0:0:0:
455,154,50332,102,0,L|406:146,1,50,2|0,0:2|0:0,0:0:0:0:
448,136,50554,2,0,L|399:128,1,50,2|0,0:3|0:0,0:0:0:0:
301,240,50776,6,0,L|350:231,1,50,2|0,0:2|0:0,0:0:0:0:
308,221,50998,2,0,L|357:212,1,50,2|0,0:3|0:0,0:0:0:0:
429,378,51220,102,0,L|420:328,1,50,2|0,0:2|0:0,0:0:0:0:
415,303,51443,1,2,0:3:0:0:
329,334,51667,5,2,0:2:0:0:
308,221,51891,1,2,0:3:0:0:
214,384,52115,102,0,L|164:375,1,50,2|0,0:2|0:0,0:0:0:0:
111,239,52339,2,0,L|160:247,1,50,2|0,0:3|0:0,0:0:0:0:
235,260,52563,2,0,L|227:309,1,50,2|0,0:2|0:0,0:0:0:0:
90,363,52787,2,0,L|98:314,1,50,2|0,0:3|0:0,0:0:0:0:
20,176,53011,6,0,L|70:167,1,50,2|0,0:2|0:0,0:0:0:0:
95,162,53234,1,2,0:3:0:0:
64,76,53458,101,2,0:2:0:0:
177,56,53682,2,0,L|185:104,1,50,2|0,0:3|0:0,0:0:0:0:
259,200,53906,6,0,L|267:151,1,50,2|0,0:2|0:0,0:0:0:0:
274,192,54130,2,0,L|282:143,1,50,2|0,0:3|0:0,0:0:0:0:
399,16,54354,2,0,L|300:33,1,100,2|2,0:2|0:3,0:0:0:0:
319,295,54791,102,0,L|369:286,1,50,2|0,0:2|0:0,0:0:0:0:
394,282,55014,1,2,0:3:0:0:
394,373,55237,5,2,0:2:0:0:
507,354,55461,1,2,0:3:0:0:
473,156,55684,102,0,B|423:206|423:206|357:184,1,139.999995727539,2|2,0:2|0:3,0:0:0:0:
68,55,56131,2,0,B|117:4|117:4|183:26,1,139.999995727539,2|2,0:2|0:3,0:0:0:0:
6,180,56578,6,0,L|75:167,1,50,2|0,0:2|0:0,0:0:0:0:
203,278,56801,102,0,L|170:240,1,50,2|0,0:3|0:0,0:0:0:0:
45,251,57025,2,0,L|94:241,1,50,2|0,0:2|0:0,0:0:0:0:
148,128,57249,2,0,L|131:175,1,50,2|0,0:3|0:0,0:0:0:0:
143,378,57473,6,0,L|133:329,1,50,2|0,0:2|0:0,0:0:0:0:
123,373,57697,2,0,L|113:324,1,50,2|0,0:3|0:0,0:0:0:0:
232,223,57921,102,0,L|222:271,1,50,2|0,0:2|0:0,0:0:0:0:
212,228,58151,2,0,L|202:276,1,50,2|0,0:3|0:0,0:0:0:0:
292,365,58382,6,0,L|342:356,1,50,2|0,0:2|0:0,0:0:0:0:
367,351,58605,1,2,0:3:0:0:
336,265,58829,101,2,0:2:0:0:
449,243,59053,2,0,L|496:234,1,50,2|0,0:3|0:0,0:0:0:0:
278,38,59277,6,0,L|269:88,1,50,2|0,0:2|0:0,0:0:0:0:
379,184,59501,2,0,L|388:135,1,50,2|0,0:3|0:0,0:0:0:0:
401,60,59725,2,0,L|352:50,1,50,2|0,0:2|0:0,0:0:0:0:
255,161,59949,2,0,L|303:170,1,50,2|0,0:3|0:0,0:0:0:0:
498,233,60173,102,0,L|478:121,1,100,2|2,0:2|0:3,0:0:0:0:
162,10,60607,6,0,L|171:60,1,50,2|0,0:2|0:0,0:0:0:0:
175,86,60841,1,2,0:3:0:0:
84,86,61075,102,0,L|96:155,1,50,2|0,0:2|0:0,0:0:0:0:
104,204,61297,2,0,L|116:273,1,50,2|0,0:3|0:0,0:0:0:0:
6,162,61519,6,0,L|21:252,1,64.9999970245363,2|0,0:2|0:0,0:0:0:0:
31,307,61741,2,0,L|46:397,1,64.9999970245363,2|0,0:3|0:0,0:0:0:0:
277,135,61963,102,0,L|173:117,1,75.0000028610231,2|0,0:2|0:0,0:0:0:0:
183,119,62186,2,0,L|193:180,1,50,2|0,0:3|0:0,0:0:0:0:
360,288,62410,6,0,L|256:306,1,94.9999974632264,2|0,0:2|0:0,0:0:0:0:
248,308,62634,2,0,L|260:236,1,50,2|0,0:3|0:0,0:0:0:0:
428,22,62858,102,0,L|305:0,1,115.000002193451,2|0,0:2|0:0,0:0:0:0:
296,0,63092,2,0,L|308:71,1,50,2|8,0:3|0:0,0:0:0:0:
512,315,63326,6,0,P|501:266|467:231,1,100,2|0,0:0|0:0,0:0:0:0:
404,371,63543,2,0,P|370:336|360:288,1,100,12|0,0:0|0:0,0:0:0:0:
512,36,63760,70,0,P|440:131|321:122,1,250,6|8,0:0|1:2,0:0:0:0:
244,0,64095,1,0,0:0:0:0:
311,136,64207,2,0,P|257:141|228:185,1,110.000003356934,2|0,0:0|0:0,0:0:0:0:
186,341,64431,1,8,1:2:0:0:
101,215,64543,1,0,0:0:0:0:
200,362,64655,2,0,L|176:224,1,125,2|0,0:0|0:0,0:0:0:0:
2,68,64879,2,0,L|26:206,1,125,10|0,1:2|0:0,0:0:0:0:
57,384,65103,6,0,B|57:326|109:293,1,110.000003356934,2|2,0:0|0:0,0:0:0:0:
262,264,65327,2,0,B|322:277|342:332,1,110.000003356934,8|2,1:2|0:0,0:0:0:0:
132,197,65551,102,0,L|281:171,1,125,2|2,0:0|0:0,0:0:0:0:
381,65,65774,2,0,L|232:39,1,125,8|0,1:2|0:0,0:0:0:0:
444,259,65998,5,2,0:0:0:0:
356,157,66106,1,0,0:0:0:0:
463,281,66215,2,0,P|460:192|513:122,1,165.000005035401,10|0,1:2|0:0,0:0:0:0:
512,43,66432,102,0,B|470:61|470:61|336:36,1,150.000005722046,2|0,0:0|0:0,0:0:0:0:
212,12,66650,2,0,B|224:64|224:64|174:114,1,110.000003356934,8|2,1:2|0:0,0:0:0:0:
0,46,66867,2,0,B|38:8|38:8|91:24,1,110.000003356934,2|0,0:0|0:0,0:0:0:0:
135,212,67096,2,0,B|83:196|83:196|65:128,1,110.000003356934,8|0,1:2|0:0,0:0:0:0:
420,62,67325,6,0,B|391:88|391:88|427:202,1,150.000005722046,2|0,0:0|0:0,0:0:0:0:
476,366,67545,1,10,1:2:0:0:
348,274,67655,1,0,0:0:0:0:
495,380,67766,2,0,L|357:355,1,100,2|0,0:0|0:0,0:0:0:0:
202,203,67986,2,0,L|340:179,1,100,10|0,1:2|0:0,0:0:0:0:
137,384,68207,102,0,P|166:355|177:314,1,85.0000016212464,2|0,0:0|0:0,0:0:0:0:
164,3,68427,2,0,P|134:31|123:72,1,85.0000016212464,10|0,1:2|0:0,0:0:0:0:
301,187,68648,6,0,P|270:165|233:162,1,75.0000028610231,2|0,0:0|0:0,0:0:0:0:
0,199,68871,2,0,P|30:220|67:223,1,75.0000028610231,8|0,1:2|0:0,0:0:0:0:
144,168,69095,102,0,L|157:229,1,50,2|0,0:0|0:0,0:0:0:0:
170,287,69320,2,0,L|160:239,1,50,8|0,1:2|0:0,0:0:0:0:
326,52,69546,6,0,L|233:38,1,64.9999970245363,2|0,0:0|0:0,0:0:0:0:
111,20,69771,2,0,L|176:30,1,64.9999970245363,8|0,1:2|0:0,0:0:0:0:
450,248,69997,102,0,L|471:145,1,75.0000028610231,2|0,0:0|0:0,0:0:0:0:
501,2,70222,2,0,L|486:76,1,75.0000028610231,8|0,1:2|0:0,0:0:0:0:
250,269,70448,6,0,P|288:237|337:230,1,100,10|0,1:2|0:0,0:0:0:0:
300,384,70673,2,0,P|348:377|387:345,1,100,10|0,1:2|0:0,0:0:0:0:
63,383,70899,102,0,P|120:260|75:131,1,279.999991455078,6|8,0:0|1:2,0:0:0:0:
0,47,71232,1,0,0:0:0:0:
98,139,71343,2,0,P|93:85|120:38,1,110.000003356934,2|0,0:0|0:0,0:0:0:0:
347,177,71565,1,8,1:2:0:0:
206,114,71676,1,0,0:0:0:0:
380,192,71787,2,0,L|242:216,1,125,2|0,0:0|0:0,0:0:0:0:
32,36,72010,2,0,L|169:11,1,125,8|0,1:2|0:0,0:0:0:0:
432,342,72232,6,0,P|381:326|346:285,1,110.000003356934,2|0,0:0|0:0,0:0:0:0:
316,112,72454,2,0,P|334:61|377:28,1,110.000003356934,10|0,1:2|0:0,0:0:0:0:
253,384,72676,102,0,L|211:142,1,187.5,2|0,0:0|0:0,0:0:0:0:
216,173,72899,1,10,1:2:0:0:
154,366,73011,1,0,0:0:0:0:
83,75,73123,5,2,0:0:0:0:
14,289,73235,2,0,B|97:274|97:274|63:346,1,125,2|10,0:0|1:2,0:0:0:0:
0,136,73459,102,0,B|63:171|63:171|239:142,1,250,2|0,0:0|0:0,0:0:0:0:
383,18,73795,6,0,B|363:70|363:70|386:119,1,110.000003356934,8|0,1:2|0:0,0:0:0:0:
495,257,74019,2,0,B|459:213|459:213|405:209,1,110.000003356934,2|0,0:0|0:0,0:0:0:0:
232,234,74243,2,0,B|287:225|287:225|317:180,1,110.000003356934,10|0,1:2|0:0,0:0:0:0:
162,0,74488,102,0,B|140:133,1,125,8|0,1:2|0:0,0:0:0:0:
121,137,74715,2,0,B|142:3,1,125,2|8,0:0|1:2,0:0:0:0:
20,269,74942,6,0,B|-1:153,1,110.000003356934,2|0,0:0|0:0,0:0:0:0:
14,134,75159,2,0,B|35:249,1,110.000003356934,8|0,1:2|0:0,0:0:0:0:
232,384,75376,102,0,P|267:337|267:296,1,75.0000028610231,2|0,0:0|0:0,0:0:0:0:
365,270,75603,2,0,P|391:311|393:361,1,100,2|0,0:0|0:0,0:0:0:0:
509,229,75830,6,0,P|460:182|395:164,1,137.500001311302,12|0,0:0|0:0,0:0:0:0:
340,66,76057,2,0,P|416:25|503:30,1,175.00000166893,2|0,0:0|0:0,0:0:0:0:
161,158,76285,102,0,L|130:-15,1,125,12|0,0:0|0:0,0:0:0:0:
37,0,76508,2,0,L|60:123,1,125,2|0,0:0|0:0,0:0:0:0:
351,208,76732,6,0,L|382:35,1,137.500001311302,12|0,0:0|0:0,0:0:0:0:
476,37,76949,2,0,L|444:213,1,137.500001311302,2|0,0:0|0:0,0:0:0:0:
165,334,77166,102,0,L|134:161,1,150.000005722046,12|0,0:0|0:0,0:0:0:0:
38,153,77396,2,0,L|65:308,1,150.000005722046,2|8,0:0|0:0,0:0:0:0:
347,384,77627,5,12,0:0:0:0:
373,236,77738,1,8,0:0:0:0:
448,350,77850,101,8,0:0:0:0:
474,203,77962,1,8,0:0:0:0:
474,203,78322,86,0,L|373:220,1,100,2|2,0:3|0:3,0:0:0:0:
411,124,79210,1,2,0:3:0:0:
366,246,79637,1,2,0:3:0:0:
420,97,79801,6,0,L|344:110,1,74.9999977111817,0|2,0:0|0:3,0:0:0:0:
237,127,80557,1,2,0:3:0:0:
394,7,81004,1,2,0:3:0:0:
325,113,81440,2,0,L|313:40,1,50,2|0,0:3|0:0,0:0:0:0:
201,6,81682,102,0,P|173:59|116:84,1,119.999996337891,2|2,0:0|0:3,0:0:0:0:
29,0,82017,1,0,0:0:0:0:
114,66,82129,2,0,P|61:90|35:143,1,119.999996337891,8|2,1:2|0:3,0:0:0:0:
136,191,82465,1,0,0:0:0:0:
1,231,82577,6,0,P|49:245|78:324,1,119.999996337891,2|2,0:0|0:3,0:0:0:0:
0,384,82913,1,0,0:0:0:0:
65,311,83025,2,0,P|89:364|144:384,1,119.999996337891,8|2,1:2|0:3,0:0:0:0:
215,297,83361,1,0,0:0:0:0:
289,384,83473,102,0,L|347:372,1,59.9999981689454,2|0,0:0|0:2,0:0:0:0:
469,300,83696,2,0,L|409:288,1,59.9999981689454,2|0,0:3|0:0,0:0:0:0:
290,234,83920,6,0,P|344:209|365:153,1,119.999996337891,8|2,1:2|0:3,0:0:0:0:
385,15,84256,1,0,0:0:0:0:
382,154,84368,2,0,P|358:100|304:77,1,119.999996337891,2|2,0:0|0:3,0:0:0:0:
162,58,84704,1,0,0:0:0:0:
253,316,84816,101,8,1:2:0:0:
253,236,84927,2,0,L|253:156,2,59.9999981689454,0|2|2,0:0|0:3|0:0,0:0:0:0:
253,3,85260,5,8,1:2:0:0:
40,384,85611,70,0,B|23:366|23:366|37:341,1,50,2|0,0:0|0:0,0:0:0:0:
125,324,85834,2,0,B|147:347|147:347|132:376,1,64.9999970245363,2|0,0:0|0:0,0:0:0:0:
0,125,86051,5,2,0:0:0:0:
7,135,86149,2,0,B|26:172|26:172|80:165,1,85.0000016212464,2|0,0:0|0:0,0:0:0:0:
135,232,86372,2,0,B|167:233|167:233|180:203,1,64.9999970245363,2|0,0:0|0:0,0:0:0:0:
268,178,86596,2,0,B|281:156|281:156|266:137,1,50,2|0,0:0|0:0,0:0:0:0:
256,128,86820,1,2,0:0:0:0:
416,304,87037,101,8,3:2:0:0:
419,279,87119,1,0,3:2:0:0:
424,256,87202,1,0,3:2:0:0:
428,232,87284,2,0,L|435:189,1,37.5000014305115,0|0,3:2|3:0,0:0:0:0:
329,332,87451,1,8,3:2:0:0:
186,0,87715,6,0,B|200:106|200:106|302:135|302:135|205:183|205:183|209:288|209:288|135:212|135:212|35:248|35:248|85:153|85:153|20:69|20:69|125:87|125:87|181:4|181:4,1,1050.00001001358,6|0,3:2|0:0,2:0:0:0:
