osu file format v14

[General]
AudioFilename: audio.mp3
AudioLeadIn: 0
PreviewTime: 63306
Countdown: 0
SampleSet: Soft
StackLeniency: 0.2
Mode: 0
LetterboxInBreaks: 0
WidescreenStoryboard: 0

[Editor]
DistanceSpacing: 0.7
BeatDivisor: 4
GridSize: 4
TimelineZoom: 2.5

[Metadata]
Title:Wild Side (TV Size)
TitleUnicode:Wild Side (TV Size)
Artist:ALI
ArtistUnicode:ALI
Creator:Kroytz
Version:and that's called JAZZ!
Source:BEASTARS
Tags:-Anime Ver.- ビースターズ BST BAND Version Alien Liberty International Jazz Anime Japanese English French Opening OP Night Mare Luna Yuuya_ke HowRengar Kowari DeviousPanda Kazato Asa Shizuku- BarkingMadDog BMD kimchii42 -Mikan
BeatmapID:2206954
BeatmapSetID:1055990

[Difficulty]
HPDrainRate:5.5
CircleSize:3
OverallDifficulty:9.2
ApproachRate:9.5
SliderMultiplier:2.1
SliderTickRate:1

[Events]
//Background and Video events
Video,-500,"video.mp4"
0,0,"BG.png",0,0
//Break Periods
//Storyboard Layer 0 (Background)
//Storyboard Layer 1 (Fail)
//Storyboard Layer 2 (Pass)
//Storyboard Layer 3 (Foreground)
//Storyboard Layer 4 (Overlay)
//Storyboard Sound Samples

[TimingPoints]
195,535.714285714286,4,2,6,50,1,0
563,413.793103448276,4,2,6,50,1,0
563,-40,4,2,6,50,0,0
666,-40,4,2,20,5,0,0
769,-40,4,2,6,50,0,0
873,-40,4,2,20,5,0,0
976,-40,4,2,6,50,0,0
1080,-40,4,2,20,5,0,0
1222,419.58041958042,4,2,6,50,1,0
1222,-40,4,2,6,50,0,0
1641,428.571428571429,4,2,6,50,1,0
1855,495.867768595041,4,2,6,50,1,0
1978,431.654676258993,4,2,6,50,1,0
2409,465.116279069767,4,2,6,50,1,0
2641,483.870967741935,4,2,6,80,1,1
2641,-29.6,4,2,6,80,0,1
3124,461.538461538462,4,2,6,80,1,1
3470,379.746835443038,4,2,6,80,1,1
3659,504.201680672269,4,2,3,35,1,0
4037,468.75,4,2,3,35,1,0
4505,413.793103448276,4,2,3,35,1,0
4918,508.474576271186,4,2,3,35,1,0
5299,427.046263345196,4,2,3,35,1,0
5512,434.782608695652,4,2,3,35,1,0
5512,-138.888888888889,4,2,3,35,0,0
5783,-138.888888888889,4,2,20,5,0,0
5838,419.58041958042,4,2,1,35,1,0
6257,431.654676258993,4,2,1,35,1,0
6688,487.80487804878,4,2,1,35,1,0
7053,465.116279069767,4,2,1,35,1,0
7285,413.793103448276,4,2,1,35,1,0
7285,-138.888888888889,4,2,1,35,0,0
7543,-138.888888888889,4,2,20,5,0,0
7595,434.782608695652,4,2,1,35,1,0
8029,441.176470588235,4,2,1,35,1,0
8470,517.241379310345,4,2,1,35,1,0
8857,454.545454545455,4,2,1,35,1,0
9084,413.793103448276,4,2,1,35,1,0
9084,-138.888888888889,4,2,1,35,0,0
9342,-138.888888888889,4,2,20,5,0,0
9394,428.571428571429,4,2,1,35,1,0
9822,437.956204379562,4,2,1,35,1,0
10259,512.820512820513,4,2,1,35,1,0
10643,425.531914893617,4,2,1,35,1,0
10855,392.156862745098,4,2,1,35,1,0
10953,447.761194029851,4,2,1,50,1,0
12296,425.531914893617,4,2,1,50,1,0
12721,447.761194029851,4,2,1,50,1,0
12721,-75.187969924812,4,2,1,50,0,0
12888,-75.187969924812,4,2,20,5,0,0
12944,-75.187969924812,4,2,1,50,0,0
13112,-75.187969924812,4,2,20,5,0,0
13168,-100,4,2,1,50,0,0
13616,442.80442804428,4,2,1,50,1,0
13616,-76.9230769230769,4,2,1,50,0,0
13782,-76.9230769230769,4,2,20,5,0,0
13837,-76.9230769230769,4,2,1,50,0,0
14501,437.956204379562,4,2,1,50,1,0
14938,447.761194029851,4,2,1,50,1,0
15385,-76.9230769230769,4,2,1,50,0,0
16281,447.761194029851,4,2,1,50,1,0
16281,-76.9230769230769,4,2,1,50,0,0
17400,-111.111111111111,4,2,1,50,0,0
17624,461.538461538462,4,2,1,50,1,0
17624,-43.4782608695652,4,2,1,50,0,0
18085,447.761194029851,4,2,2,50,1,0
18085,-43.4782608695652,4,2,2,50,0,0
18308,-100,4,2,1,50,0,0
18980,-76.9230769230769,4,2,1,50,0,0
19876,454.545454545455,4,2,1,50,1,0
19876,-100,4,2,1,50,0,0
20330,447.761194029851,4,2,1,50,1,0
21673,444.444444444444,4,2,1,50,1,0
21673,-76.9230769230769,4,2,1,50,0,0
22117,-76.9230769230769,4,2,1,50,0,0
22561,-76.9230769230769,4,2,1,50,0,0
23012,447.761194029851,4,2,1,50,1,0
23012,-76.9230769230769,4,2,1,50,0,0
23463,449.438202247191,4,2,1,50,1,0
23912,-66.6666666666667,4,2,1,50,0,0
24361,-55.5555555555556,4,2,1,50,0,0
24811,434.782608695652,4,2,1,50,1,0
24811,-50,4,2,1,50,0,0
25245,461.538461538462,4,2,4,50,1,0
25245,-66.6666666666667,4,2,4,50,0,0
25475,-66.6666666666667,4,2,1,50,0,0
25591,-66.6666666666667,4,2,10,50,0,0
25706,444.444444444444,4,2,6,50,1,0
25706,-66.6666666666667,4,2,6,50,0,0
25928,-66.6666666666667,4,2,1,50,0,0
26150,-66.6666666666667,4,2,4,50,0,0
26372,-66.6666666666667,4,2,1,50,0,0
26594,-66.6666666666667,4,2,6,50,0,0
26817,-66.6666666666667,4,2,1,50,0,0
26928,-66.6666666666667,4,2,10,50,0,0
27039,447.761194029851,4,2,1,50,1,0
27039,-66.6666666666667,4,2,1,50,0,0
27150,-66.6666666666667,4,2,10,50,0,0
27262,-66.6666666666667,4,2,1,50,0,0
27374,-66.6666666666667,4,2,10,50,0,0
27486,-66.6666666666667,4,2,6,50,0,0
27598,-66.6666666666667,4,2,6,50,0,0
27710,-66.6666666666667,4,2,1,50,0,0
27934,-66.6666666666667,4,2,1,50,0,0
28382,-66.6666666666667,4,2,1,50,0,0
28830,-66.6666666666667,4,2,4,50,0,0
29053,-66.6666666666667,4,2,1,50,0,0
29165,-66.6666666666667,4,2,10,50,0,0
29277,-66.6666666666667,4,2,1,50,0,0
29389,-66.6666666666667,4,2,10,50,0,0
29501,-66.6666666666667,4,2,1,50,0,0
29725,434.782608695652,4,2,4,50,1,0
29725,-66.6666666666667,4,2,4,50,0,0
29942,-66.6666666666667,4,2,1,50,0,0
30159,-66.6666666666667,4,2,6,50,0,0
30377,-66.6666666666667,4,2,1,50,0,0
30485,-66.6666666666667,4,2,10,50,0,0
30594,468.75,4,2,1,50,1,0
30711,-100,4,2,10,50,0,0
30828,-100,4,2,1,50,0,0
30945,-100,4,2,10,50,0,0
31062,447.761194029851,4,2,6,50,1,0
31062,-66.6666666666667,4,2,6,50,0,0
31173,-66.6666666666667,4,2,6,50,0,0
31285,-66.6666666666667,4,2,1,50,0,0
31509,-66.6666666666667,4,2,1,50,0,0
31957,454.545454545455,4,2,1,50,1,0
31957,-66.6666666666667,4,2,1,50,0,0
32411,451.127819548872,4,2,4,50,1,0
32411,-57.1428571428571,4,2,4,50,0,0
32636,-57.1428571428571,4,2,1,50,0,0
32749,-57.1428571428571,4,2,10,50,0,0
32862,-57.1428571428571,4,2,1,50,0,0
32974,-57.1428571428571,4,2,10,50,0,0
33087,-57.1428571428571,4,2,1,50,0,0
33313,-57.1428571428571,4,2,4,50,0,0
33538,-57.1428571428571,4,2,1,50,0,0
33764,437.956204379562,4,2,6,50,1,0
33764,-57.1428571428571,4,2,6,50,0,0
33982,-57.1428571428571,4,2,1,50,0,0
34092,-57.1428571428571,4,2,10,50,0,0
34201,451.127819548872,4,2,1,50,1,0
34201,-57.1428571428571,4,2,1,50,0,0
34313,-57.1428571428571,4,2,10,50,0,0
34426,-57.1428571428571,4,2,1,50,0,0
34539,-57.1428571428571,4,2,10,50,0,0
34652,-57.1428571428571,4,2,6,50,0,0
34764,-57.1428571428571,4,2,6,50,0,0
34877,-57.1428571428571,4,2,1,50,0,0
35103,-57.1428571428571,4,2,1,50,0,0
35998,447.761194029851,4,2,4,50,1,0
35998,-50,4,2,4,50,0,0
36109,-50,4,2,10,50,0,0
36221,-50,4,2,10,50,0,0
36333,-100,4,2,10,50,0,0
36557,-100,4,2,20,5,0,0
36669,-50,4,2,10,50,0,0
36781,-50,4,2,10,50,0,0
36893,-50,4,2,4,50,0,0
37005,-100,4,2,10,50,0,0
37229,-100,4,2,20,5,0,0
37341,-71.4285714285714,4,2,1,50,0,0
37677,-71.4285714285714,4,2,20,5,0,0
37789,-50,4,2,4,50,0,0
38012,-50,4,2,1,50,0,0
38236,-58.8235294117647,4,2,6,50,0,0
38460,-58.8235294117647,4,2,1,50,0,0
38684,437.956204379562,4,2,4,50,1,0
38684,-71.4285714285714,4,2,4,50,0,0
38902,-71.4285714285714,4,2,1,50,0,0
39121,-90.9090909090909,4,2,6,50,0,0
39340,-90.9090909090909,4,2,6,50,0,0
39559,454.545454545455,4,2,1,50,1,0
39559,-66.6666666666667,4,2,1,50,0,0
40013,-86.9565217391304,4,2,1,50,0,0
40922,-86.9565217391304,4,2,1,50,0,0
41377,444.444444444444,4,2,1,50,1,0
41599,-86.9565217391304,4,2,1,50,0,0
42265,447.761194029851,4,2,1,50,1,0
42265,-86.9565217391304,4,2,1,50,0,0
43160,451.127819548872,4,2,1,50,1,0
43160,-86.9565217391304,4,2,1,50,0,0
43385,-86.9565217391304,4,2,1,50,0,0
44513,434.782608695652,4,2,1,50,1,0
44730,-86.9565217391304,4,2,1,50,0,0
44947,447.761194029851,4,2,1,50,1,0
44947,-86.9565217391304,4,2,1,50,0,0
45394,-86.9565217391304,4,2,1,50,0,0
46066,-86.9565217391304,4,2,1,50,0,0
46514,413.793103448276,4,2,1,50,1,0
46720,476.190476190476,4,2,1,50,1,0
46839,461.538461538462,4,2,1,50,1,0
47069,421.052631578947,4,2,1,50,1,0
47174,441.176470588235,4,2,1,50,1,0
47394,461.538461538462,4,2,1,50,1,0
47740,387.096774193548,4,2,1,50,1,0
47740,-40,4,2,1,50,0,0
47836,545.454545454546,4,2,1,50,1,0
47972,422.535211267606,4,2,3,50,1,0
47972,-40,4,2,3,50,0,0
48183,447.761194029851,4,2,3,50,1,0
48183,-40,4,2,3,50,0,0
48406,444.444444444444,4,2,1,50,1,0
48406,-40,4,2,1,50,0,0
48850,500,4,2,1,50,1,0
48850,-50,4,2,1,50,0,0
49100,422.535211267606,4,2,1,50,1,0
49205,434.782608695652,4,2,1,50,1,0
49422,461.538461538462,4,2,2,50,1,0
49422,-125,4,2,2,50,0,0
49652,-125,4,2,3,50,0,0
50114,437.956204379562,4,2,3,50,1,0
50332,444.444444444444,4,2,3,50,1,0
50332,-125,4,2,3,50,0,0
51220,447.761194029851,4,2,3,50,1,0
53682,-125,4,2,3,50,0,0
54354,437.956204379562,4,2,3,50,1,0
54791,446.927374301676,4,2,3,50,1,0
55461,-100,4,2,3,50,0,0
55684,-125,4,2,3,50,0,0
56578,447.761194029851,4,2,3,50,1,0
56801,-100,4,2,3,50,0,0
57921,461.538461538462,4,2,3,50,1,0
58382,447.761194029851,4,2,3,50,1,0
58382,-90.9090909090909,4,2,3,50,0,0
59277,-86.9565217391304,4,2,3,50,0,0
60173,434.782608695652,4,2,3,50,1,0
60607,468.75,4,2,3,50,1,0
61075,444.444444444444,4,2,3,60,1,0
61075,-100,4,2,3,60,0,0
61963,447.761194029851,4,2,3,60,1,0
61963,-80,4,2,3,60,0,0
62410,-66.6666666666667,4,2,3,60,0,0
62634,-100,4,2,3,60,0,0
62858,468.75,4,2,3,60,1,0
62858,-57.1428571428571,4,2,3,60,0,0
63092,-57.1428571428571,4,2,3,60,0,0
63209,-57.1428571428571,4,2,1,60,0,0
63326,434.782608695652,4,2,1,70,1,0
63326,-50,4,2,1,70,0,0
63543,-50,4,2,5,70,0,0
63760,447.761194029851,4,2,4,80,1,1
63760,-35.7142857142857,4,2,4,80,0,1
63983,-35.7142857142857,4,2,1,80,0,1
64207,-43.4782608695652,4,2,4,80,0,1
64319,-43.4782608695652,4,2,1,80,0,1
64655,-43.4782608695652,4,2,4,80,0,1
64879,-43.4782608695652,4,2,6,80,0,1
64991,-43.4782608695652,4,2,10,80,0,1
65103,-55.5555555555556,4,2,1,80,0,1
65215,-55.5555555555556,4,2,6,80,0,1
65327,-47.6190476190476,4,2,6,80,0,1
65551,-40,4,2,1,80,0,1
65662,-40,4,2,6,80,0,1
65774,-43.4782608695652,4,2,1,80,0,1
65998,434.782608695652,4,2,4,80,1,1
65998,-43.4782608695652,4,2,4,80,0,1
66161,-43.4782608695652,4,2,20,5,0,1
66215,-43.4782608695652,4,2,6,80,0,1
66324,-43.4782608695652,4,2,6,80,0,1
66432,-40,4,2,4,80,0,1
66650,-40,4,2,1,80,0,1
66758,-40,4,2,6,80,0,1
66867,458.015267175573,4,2,4,80,1,1
66867,-40,4,2,4,80,0,1
66981,-43.4782608695652,4,2,1,80,0,1
67096,-43.4782608695652,4,2,1,80,0,1
67325,441.176470588235,4,2,4,80,1,1
67325,-40,4,2,4,80,0,1
67545,-40,4,2,6,80,0,1
67655,-40,4,2,1,80,0,1
67766,-35.7142857142857,4,2,4,80,0,1
67876,-35.7142857142857,4,2,1,80,0,1
67986,-43.4782608695652,4,2,6,80,0,1
68097,-43.4782608695652,4,2,1,80,0,1
68207,-35.7142857142857,4,2,4,80,0,1
68372,-35.7142857142857,4,2,20,5,0,1
68427,-35.7142857142857,4,2,6,80,0,1
68648,447.761194029851,4,2,4,80,1,1
68648,-35.7142857142857,4,2,4,80,0,1
68759,-35.7142857142857,4,2,10,80,0,1
68871,-35.7142857142857,4,2,1,80,0,1
69095,451.127819548872,4,2,4,80,1,1
69095,-50,4,2,4,80,0,1
69207,-50,4,2,1,80,0,1
69546,-44.4444444444445,4,2,4,80,0,1
69658,-44.4444444444445,4,2,1,80,0,1
69997,-40,4,2,4,80,0,1
70110,-40,4,2,1,80,0,1
70222,-40,4,2,1,80,0,1
70448,-36.3636363636364,4,2,6,80,0,1
70786,-36.3636363636364,4,2,6,80,0,0
70899,444.444444444444,4,2,4,80,1,1
70899,-31.25,4,2,4,80,0,1
71121,-31.25,4,2,1,80,0,1
71343,-38.4615384615385,4,2,4,80,0,1
71565,-38.4615384615385,4,2,1,80,0,1
71787,-44.4444444444445,4,2,4,80,0,1
71899,-44.4444444444445,4,2,1,80,0,1
72232,-40,4,2,4,80,0,1
72343,-40,4,2,1,80,0,1
72454,-36.3636363636364,4,2,6,80,0,1
72676,447.761194029851,4,2,4,80,1,1
72676,-40,4,2,4,80,0,1
72787,-40,4,2,1,80,0,1
72899,-44.4444444444445,4,2,6,80,0,1
73123,-44.4444444444445,4,2,4,80,0,1
73235,-44.4444444444445,4,2,6,80,0,1
73459,-32.258064516129,4,2,6,80,0,1
73795,-32.258064516129,4,2,1,80,0,1
74019,-40,4,2,4,80,0,1
74131,-40,4,2,6,80,0,1
74243,491.803278688525,4,2,6,80,1,1
74488,454.545454545455,4,2,5,80,1,1
74488,-40,4,2,5,80,0,1
74658,-40,4,2,20,5,0,1
74715,-40,4,2,1,80,0,1
74942,434.782608695652,4,2,1,80,1,1
74942,-43.4782608695652,4,2,1,80,0,1
75105,-43.4782608695652,4,2,20,5,0,1
75159,-43.4782608695652,4,2,1,80,0,1
75376,454.545454545455,4,2,1,80,1,1
75376,-47.6190476190476,4,2,1,80,0,1
75546,-47.6190476190476,4,2,20,5,0,1
75603,-47.6190476190476,4,2,1,80,0,1
75830,-31.7460317460317,4,2,5,80,0,1
76171,-31.7460317460317,4,2,20,5,0,1
76285,447.761194029851,4,2,1,80,1,1
76285,-36.3636363636364,4,2,1,80,0,1
76452,-36.3636363636364,4,2,20,5,0,1
76508,-66.6666666666667,4,2,1,80,0,1
76732,434.782608695652,4,2,1,80,1,1
76732,-36.3636363636364,4,2,1,80,0,1
76895,-36.3636363636364,4,2,20,5,0,1
76949,-66.6666666666667,4,2,1,80,0,1
77166,461.538461538462,4,2,1,80,1,1
77166,-33.3333333333333,4,2,1,80,0,1
77627,447.761194029851,4,2,1,80,1,1
77627,-40,4,2,1,80,0,1
77962,480,4,2,1,80,1,0
77962,-40,4,2,1,80,0,0
78322,444.444444444444,4,2,1,35,1,0
79210,491.803278688525,4,2,1,35,1,0
79578,447.761194029851,4,2,1,35,1,0
79637,461.538461538462,4,2,1,35,1,0
79801,454.545454545455,4,2,1,35,1,0
79801,-111.111111111111,4,2,1,35,0,0
80028,-111.111111111111,4,2,20,5,0,0
80088,-111.111111111111,4,2,1,35,0,0
80141,416.666666666667,4,2,1,35,1,0
80557,447.761194029851,4,2,1,35,1,0
81004,491.803278688525,4,2,1,35,1,0
81372,461.538461538462,4,2,1,35,1,0
81440,461.538461538462,4,2,1,35,1,0
81602,322.58064516129,4,2,1,35,1,0
81682,447.761194029851,4,2,1,50,1,0
83473,-83.3333333333333,4,2,1,50,0,0
84816,444.444444444444,4,2,1,50,1,0
84816,-83.3333333333333,4,2,1,50,0,0
85260,468.75,4,2,1,50,1,0
85611,447.761194029851,4,2,6,60,1,0
85834,434.782608695652,4,2,6,60,1,0
85834,-100,4,2,6,60,0,0
86051,394.736842105263,4,2,6,60,1,0
86149,447.761194029851,4,2,6,60,1,0
86820,434.782608695652,4,2,6,60,1,0
87037,495.867768595041,4,2,6,60,1,0
87284,447.761194029851,4,2,6,60,1,0
87284,-142.857142857143,4,2,6,60,0,0
87451,-30.3030303030303,4,2,1,60,0,0
87715,447.761194029851,4,2,1,80,1,0
87715,-24.5,4,2,1,80,0,0
88386,-24.5,4,2,1,20,0,0

[Colours]
Combo1 : 108,0,54
Combo2 : 0,64,128
Combo3 : 0,128,192
Combo4 : 255,255,70
Combo5 : 0,210,0
Combo6 : 192,192,192
Combo7 : 139,139,139
Combo8 : 155,0,0

[HitObjects]
255,271,195,101,2,0:0:0:0:
255,271,328,1,2,0:0:0:0:
255,271,563,6,0,B|253:215|205:184|205:184|198:210,1,131.25,2|0,0:0|0:0,0:0:0:0:
21,135,769,2,0,B|70:161|121:135|121:135|101:115,1,131.25,2|0,0:0|0:0,0:0:0:0:
255,0,976,2,0,B|207:28|205:85|205:85|232:78,1,131.25,2|0,0:0|0:0,0:0:0:0:
490,384,1222,101,2,0:0:0:0:
501,361,1326,1,2,0:0:0:0:
427,270,1431,1,2,0:0:0:0:
386,379,1536,1,2,0:0:0:0:
512,338,1641,1,2,0:0:0:0:
438,247,1748,1,2,0:0:0:0:
256,376,1855,1,2,0:0:0:0:
1,245,1978,5,0,3:2:0:0:
7,268,2049,1,0,3:2:0:0:
13,291,2121,1,0,3:2:0:0:
19,314,2193,1,0,3:2:0:0:
25,337,2265,1,0,3:2:0:0:
32,360,2337,1,0,3:2:0:0:
38,384,2409,1,0,3:2:0:0:
194,62,2641,102,0,B|120:-6|75:68|-18:39|-18:39|21:195|188:180|188:180|188:238|156:282|156:282|224:310|256:376|256:376|288:310|356:282|356:282|324:238|324:180|324:180|495:195|528:39|528:39|431:68|393:-6|313:66,1,1492.96879271418,4|0,1:2|1:3,0:0:0:0:
486,379,4037,21,0,0:0:0:0:
486,379,4505,1,0,0:0:0:0:
486,379,4918,1,0,0:0:0:0:
486,379,5299,5,0,0:0:0:0:
486,379,5512,2,0,L|394:355,1,94.500002307129
486,284,5838,101,0,0:0:0:0:
486,284,6257,1,0,0:0:0:0:
486,284,6688,1,0,0:0:0:0:
486,284,7053,5,0,0:0:0:0:
486,284,7285,2,0,L|394:260,1,94.500002307129
486,189,7595,101,0,0:0:0:0:
486,189,8029,1,0,0:0:0:0:
486,189,8470,1,0,0:0:0:0:
486,189,8857,5,0,0:0:0:0:
486,189,9084,2,0,L|391:164,1,94.500002307129
486,94,9394,101,0,0:0:0:0:
486,94,9822,1,0,0:0:0:0:
486,94,10259,1,0,0:0:0:0:
486,94,10643,5,0,0:0:0:0:
367,33,10855,1,0,0:0:0:0:
367,33,10953,102,0,P|317:21|266:33,1,105,2|2,0:0|0:3,0:0:0:0:
165,144,11400,2,0,P|216:155|267:144,1,105,2|2,0:0|0:3,0:0:0:0:
72,20,11848,6,0,L|31:172,1,157.5,2|0,0:0|0:0,0:0:0:0:
0,281,12296,1,2,0:0:0:0:
110,253,12402,1,0,0:0:0:0:
189,333,12508,2,0,L|176:383,1,52.5,2|0,0:3|0:0,0:0:0:0:
299,305,12721,102,0,L|399:276,1,104.737495684948,2|0,0:0|0:0,0:0:0:0:
465,224,12944,2,0,L|363:251,1,104.737495684948,2|0,0:3|0:0,0:0:0:0:
220,225,13168,2,0,L|207:175,1,52.5,2|0,0:0|0:0,0:0:0:0:
299,305,13392,2,0,L|286:355,1,52.5,2|0,0:3|0:0,0:0:0:0:
137,107,13616,2,0,P|180:82|231:81,1,102.374995313645,2|0,0:0|0:0,0:0:0:0:
299,148,13837,5,2,0:3:0:0:
114,202,13948,1,0,0:0:0:0:
60,16,14058,1,2,0:0:0:0:
484,94,14280,1,2,0:3:0:0:
299,148,14501,1,2,0:0:0:0:
439,281,14719,102,0,L|452:331,1,52.5,2|0,0:3|0:0,0:0:0:0:
484,94,14938,2,0,L|521:56,1,52.5,2|0,0:0|0:0,0:0:0:0:
299,148,15161,2,0,L|248:134,1,52.5,2|0,0:3|0:0,0:0:0:0:
62,50,15385,6,0,B|26:14|26:14|-23:81|28:159,1,204.749990627289,2|0,0:0|0:0,0:0:0:0:
4,245,15833,1,2,0:0:0:0:
67,308,15945,1,0,0:0:0:0:
154,285,16057,1,2,0:3:0:0:
177,198,16169,1,0,0:0:0:0:
113,135,16281,102,0,L|47:152,1,68.2499968757631,2|0,0:0|0:0,0:0:0:0:
241,260,16504,2,0,L|311:278,1,68.2499968757631,2|0,0:3|0:0,0:0:0:0:
239,133,16728,2,0,L|221:67,1,68.2499968757631,2|0,0:0|0:0,0:0:0:0:
114,261,16952,2,0,L|96:327,1,68.2499968757631,2|0,0:3|0:0,0:0:0:0:
385,384,17176,1,2,0:0:0:0:
483,339,17288,1,0,0:0:0:0:
509,233,17400,2,0,L|473:233,1,23.6249992790222,2|2,0:3|0:3,0:0:0:0:
509,204,17512,2,0,L|481:203,1,23.6249992790222,2|2,0:3|0:3,0:0:0:0:
512,48,17624,6,0,B|455:-10|455:-10|455:84|455:84|487:184|412:230|412:230|337:184|369:100,1,483.000009212494,4|4,0:0|0:0,0:0:0:0:
177,384,18308,101,2,0:3:0:0:
366,86,18532,1,8,1:2:0:0:
163,140,18756,2,0,L|112:153,1,52.5,2|0,0:3|0:0,0:0:0:0:
375,222,18980,2,0,L|506:257,1,136.499993751526,2|2,0:0|0:3,0:0:0:0:
45,237,19428,6,0,P|7:181|11:114,1,136.499993751526,8|2,1:2|0:3,0:0:0:0:
152,253,19764,1,2,0:3:0:0:
152,253,19876,2,0,L|138:303,1,52.5,2|0,0:0|0:0,0:0:0:0:
0,384,20103,2,0,L|50:370,1,52.5,2|0,0:3|0:0,0:0:0:0:
278,308,20330,1,8,1:2:0:0:
249,206,20441,1,0,0:0:0:0:
264,339,20553,1,2,0:3:0:0:
264,339,20777,102,0,P|316:339|362:314,1,105,2|2,0:0|0:3,0:0:0:0:
435,222,21113,1,0,0:0:0:0:
466,334,21225,2,0,L|479:384,1,52.5,8|0,1:2|0:0,0:0:0:0:
264,339,21449,2,0,L|251:289,1,52.5,2|2,0:3|0:3,0:0:0:0:
276,109,21673,6,0,B|315:86|315:86|403:109,1,136.499993751526,2|2,0:0|0:3,0:0:0:0:
512,139,22006,1,0,0:0:0:0:
259,121,22117,2,0,L|193:103,1,68.2499968757631,8|0,1:2|0:0,0:0:0:0:
369,204,22339,2,0,L|434:221,1,68.2499968757631,2|0,0:3|0:0,0:0:0:0:
105,145,22561,2,0,P|99:79|139:23,1,136.499993751526,2|2,0:0|0:3,0:0:0:0:
193,103,22895,1,0,0:0:0:0:
166,262,23012,2,0,P|182:232|185:198,1,68.2499968757631,8|0,1:2|0:0,0:0:0:0:
384,46,23235,2,0,P|387:79|402:109,1,68.2499968757631,2|2,0:3|0:3,0:0:0:0:
512,259,23463,101,2,0:0:0:0:
435,222,23575,1,0,0:0:0:0:
351,242,23687,1,2,0:3:0:0:
303,313,23800,1,0,0:0:0:0:
166,262,23912,6,0,P|147:227|145:188,1,78.7500030040742,8|0,1:2|0:0,0:0:0:0:
213,29,24137,2,0,P|210:68|192:102,1,78.7500030040742,2|0,0:3|0:0,0:0:0:0:
0,262,24361,102,0,P|0:215|22:173,1,94.499997116089,2|0,0:0|0:0,0:0:0:0:
45,0,24586,2,0,P|66:41|67:88,1,94.499997116089,2|0,0:3|0:0,0:0:0:0:
78,363,24811,6,0,B|28:394|-14:363|-14:363|80:281|196:359,1,315,8|2,3:2|3:0,0:0:0:0:
334,353,25245,102,0,P|260:376|186:353,1,157.500006008148,6|2,0:0|0:3,0:0:0:0:
431,309,25591,1,0,0:0:0:0:
431,309,25706,2,0,L|451:385,1,78.7500030040742,8|2,1:2|0:0,0:0:0:0:
260,256,25928,2,0,L|280:179,1,78.7500030040742,2|0,0:3|0:0,0:0:0:0:
61,0,26150,6,0,B|29:53|29:53|54:145,1,157.500006008148,2|2,0:0|0:3,0:0:0:0:
196,94,26483,1,0,0:0:0:0:
89,280,26594,2,0,B|120:226|120:226|95:134,1,157.500006008148,10|2,1:2|0:3,0:0:0:0:
71,311,26928,102,0,L|147:290,1,78.7500030040742,2|2,0:3|0:0,0:3:0:0:
280,179,27150,1,0,0:0:0:0:
196,94,27262,1,2,0:3:0:0:
395,149,27374,1,0,0:0:0:0:
248,293,27486,2,0,L|171:313,1,78.7500030040742,10|0,1:2|0:0,0:0:0:0:
332,85,27710,5,2,0:3:0:0:
415,170,27822,1,0,0:0:0:0:
501,87,27934,2,0,L|480:10,1,78.7500030040742,2|0,0:0|0:0,0:0:0:0:
280,179,28158,101,2,0:3:0:0:
363,264,28270,1,0,0:0:0:0:
512,77,28382,2,0,L|491:0,1,78.7500030040742,8|0,1:2|0:0,0:0:0:0:
383,285,28606,1,2,0:3:0:0:
312,64,28718,1,2,0:3:0:0:
157,236,28830,6,0,B|108:264|108:264|11:238,1,157.500006008148,2|2,0:0|0:3,0:0:0:0:
115,84,29165,1,0,0:0:0:0:
115,84,29277,2,0,L|95:161,1,78.7500030040742,8|0,1:2|0:0,0:0:0:0:
312,64,29501,2,0,L|292:141,1,78.7500030040742,2|0,0:3|0:0,0:0:0:0:
228,384,29725,102,0,B|277:356|277:356|374:382,1,157.500006008148,2|2,0:0|0:3,0:0:0:0:
408,137,30051,1,0,0:0:0:0:
512,341,30159,2,0,B|463:369|463:369|366:343,1,157.500006008148,10|2,1:2|0:3,0:0:0:0:
97,270,30485,6,0,L|174:291,1,78.7500030040742,2|2,0:3|0:0,0:0:0:0:
408,137,30711,1,0,0:0:0:0:
449,265,30828,1,2,0:3:0:0:
458,39,30945,1,0,0:0:0:0:
280,179,31062,2,0,L|203:158,1,78.7500030040742,10|0,1:2|0:0,0:0:0:0:
438,133,31285,1,2,0:3:0:0:
274,17,31397,1,0,0:0:0:0:
293,209,31509,102,0,L|216:188,1,78.7500030040742,2|0,0:0|0:0,0:0:0:0:
87,0,31733,2,0,L|107:76,1,78.7500030040742,2|0,0:3|0:0,0:0:0:0:
11,281,31957,2,0,L|66:225,1,78.7500030040742,8|0,1:2|0:0,0:0:0:0:
274,17,32184,1,2,0:3:0:0:
290,3,32297,1,2,0:3:0:0:
480,291,32411,6,0,P|492:202|437:131,1,183.750001752377,2|2,0:0|0:3,0:0:0:0:
375,233,32749,1,0,0:0:0:0:
415,359,32862,2,0,P|454:381|500:382,1,91.8750008761883,8|0,1:2|0:0,0:0:0:0:
354,211,33087,2,0,P|308:212|268:234,1,91.8750008761883,2|0,0:3|0:0,0:0:0:0:
133,384,33313,102,0,L|85:206,1,183.750001752377,2|2,0:0|0:3,0:0:0:0:
205,9,33651,1,0,0:0:0:0:
263,114,33764,2,0,P|174:126|103:71,1,183.750001752377,10|2,1:2|0:3,0:0:0:0:
368,53,34092,6,0,L|456:76,1,91.8750008761883,2|2,0:3|0:0,0:0:0:0:
172,1,34313,1,0,0:0:0:0:
263,114,34426,2,0,P|262:160|241:200,1,91.8750008761883,2|0,0:3|0:0,0:0:0:0:
1,324,34652,102,0,L|89:301,1,91.8750008761883,10|0,1:2|0:0,0:0:0:0:
354,229,34877,1,2,0:3:0:0:
253,383,34990,1,0,0:0:0:0:
451,238,35103,2,0,L|363:261,1,91.8750008761883,2|0,0:0|0:0,0:0:0:0:
189,318,35328,2,0,L|253:383,1,91.8750008761883,2|0,0:3|0:0,0:0:0:0:
506,128,35554,2,0,L|418:151,1,91.8750008761883,8|0,1:2|0:0,0:0:0:0:
241,199,35779,1,2,0:3:0:0:
436,0,35892,1,2,0:3:0:0:
122,147,35998,6,0,P|96:101|96:49,1,105,2|0,0:0|0:0,0:0:0:0:
265,224,36221,1,2,0:3:0:0:
58,72,36333,102,0,P|84:26|129:0,1,105,0|2,0:0|0:0,0:0:0:0:
291,126,36669,6,0,P|290:178|265:224,1,105,2|0,0:3|0:0,0:0:0:0:
89,300,36893,1,2,0:0:0:0:
258,77,37005,102,0,P|302:104|329:149,1,105
476,375,37341,6,0,P|459:298|445:376,1,220.499993270874,8|0,1:2|0:0,0:0:0:0:
507,16,37789,102,0,P|406:0|327:64,1,210,2|2,0:0|0:3,0:0:0:0:
438,116,38124,1,0,0:0:0:0:
41,81,38236,2,0,P|128:94|184:162,1,178.500003404617,10|2,1:2|0:3,0:0:0:0:
69,200,38572,1,0,0:0:0:0:
425,209,38684,2,0,P|361:243|327:307,1,146.999995513916,2|2,0:0|0:3,0:0:0:0:
445,329,39012,1,0,0:0:0:0:
157,279,39121,2,0,P|187:327|184:384,1,115.50000352478,10|0,1:2|3:0,0:0:0:0:
256,108,39450,1,0,3:0:0:0:
93,351,39559,6,0,B|-12:379|-12:379|7:333,1,157.500006008148,6|2,0:0|0:3,0:0:0:0:
69,200,39899,1,0,0:0:0:0:
157,279,40013,2,0,L|215:263,1,60.3750011515618,8|0,1:2|0:0,0:0:0:0:
10,215,40240,2,0,L|69:200,1,60.3750011515618,2|0,0:3|0:0,0:0:0:0:
248,255,40468,1,2,0:0:0:0:
324,179,40581,1,0,0:0:0:0:
411,264,40695,102,0,L|426:205,1,60.3750011515618,2|0,0:3|0:0,0:0:0:0:
189,34,40922,2,0,L|220:150,1,120.750002303124,8|2,1:2|0:3,0:0:0:0:
400,103,41263,1,2,0:3:0:0:
476,27,41377,1,2,0:0:0:0:
475,340,41599,6,0,L|533:355,1,60.3750011515618,2|0,0:3|0:0,0:0:0:0:
294,294,41821,2,0,L|411:264,1,120.750002303124,8|2,1:2|0:3,0:0:0:0:
211,379,42154,1,0,0:0:0:0:
352,309,42265,2,0,L|293:293,1,60.3750011515618,2|0,0:0|0:0,0:0:0:0:
148,146,42488,2,0,L|178:263,1,120.750002303124,2|8,0:3|1:2,0:0:0:0:
476,27,42936,101,2,0:3:0:0:
447,135,43048,1,2,0:3:0:0:
368,55,43160,2,0,L|325:12,1,60.3750011515618,2|0,0:0|0:0,0:0:0:0:
468,130,43385,2,0,L|452:188,1,60.3750011515618,2|0,0:3|0:0,0:0:0:0:
246,160,43611,2,0,B|324:138|324:138|358:158,1,120.750002303124,8|2,1:2|0:3,0:0:0:0:
395,314,43949,1,0,0:0:0:0:
395,314,44062,2,0,L|381:253,1,60.3750011515618,2|0,0:0|0:0,0:0:0:0:
164,35,44287,1,2,0:3:0:0:
67,384,44513,1,8,1:2:0:0:
26,238,44730,2,0,L|84:222,1,60.3750011515618,2|2,0:3|0:3,0:0:0:0:
181,254,44947,6,0,P|182:194|151:143,1,120.750002303124,2|2,0:0|0:3,0:0:0:0:
47,121,45282,1,0,0:0:0:0:
151,144,45394,2,0,L|209:128,1,60.3750011515618,8|0,1:2|0:0,0:0:0:0:
84,222,45618,2,0,L|26:238,1,60.3750011515618,2|0,0:3|0:0,0:0:0:0:
241,118,45842,1,2,0:0:0:0:
164,35,45954,1,0,0:0:0:0:
84,222,46066,2,0,P|83:281|114:332,1,120.750002303124,2|8,0:3|1:2,0:0:0:0:
214,351,46402,101,0,0:0:0:0:
355,207,46514,1,2,0:3:0:0:
181,254,46617,1,2,0:3:0:0:
388,304,46720,1,2,0:0:0:0:
411,1,46839,1,8,3:2:0:0:
411,1,47069,5,0,3:0:0:0:
486,131,47174,1,8,3:2:0:0:
355,207,47284,1,0,3:0:0:0:
281,76,47394,1,0,3:0:0:0:
315,85,47470,1,0,3:0:0:0:
349,94,47547,1,0,3:0:0:0:
383,104,47624,101,0,1:0:0:0:
107,123,47740,2,0,L|71:-7,1,131.25,0|8,3:0|3:0,0:0:0:0:
461,329,47972,2,0,L|494:202,1,131.25,2|0,1:3|0:0,0:0:0:0:
36,384,48183,2,0,L|2:257,1,131.25,2|0,1:3|0:0,0:0:0:0:
355,207,48406,1,8,3:2:0:0:
307,384,48517,1,8,3:2:0:0:
242,143,48628,2,0,L|208:16,1,131.25,8|8,3:2|3:0,0:0:0:0:
355,207,48850,6,0,P|277:272|177:254,1,210,4|8,1:2|3:0,0:0:0:0:
512,0,49205,1,8,3:0:0:0:
0,84,49422,37,4,0:0:0:0:
8,115,49652,1,2,0:3:0:0:
16,146,49883,1,2,0:2:0:0:
24,176,50114,1,2,0:3:0:0:
33,207,50332,2,0,L|75:134,1,84,2|2,0:2|0:3,0:0:0:0:
148,6,50776,1,2,0:2:0:0:
222,132,50998,1,2,0:3:0:0:
66,330,51220,5,2,0:2:0:0:
66,330,51443,1,2,0:3:0:0:
66,330,51667,1,2,0:2:0:0:
222,132,51891,1,2,0:3:0:0:
66,330,52115,101,2,0:2:0:0:
133,265,52339,1,2,0:3:0:0:
224,242,52563,1,2,0:2:0:0:
314,265,52787,1,2,0:3:0:0:
383,329,53011,5,2,0:2:0:0:
383,329,53234,1,2,0:3:0:0:
383,329,53458,1,2,0:2:0:0:
405,238,53682,2,0,L|415:197,1,42,2|0,0:3|0:0,0:0:0:0:
501,382,53906,2,0,L|473:302,1,84,2|2,0:2|0:3,0:0:0:0:
384,43,54354,1,2,0:2:0:0:
384,43,54572,1,2,0:3:0:0:
473,302,54791,101,2,0:2:0:0:
482,271,55014,1,2,0:3:0:0:
490,241,55237,1,2,0:2:0:0:
498,210,55461,1,2,0:3:0:0:
128,341,55684,6,0,P|87:349|46:341,1,84,2|2,0:2|0:3,0:0:0:0:
383,43,56131,2,0,P|424:34|465:42,1,84,2|2,0:2|0:3,0:0:0:0:
87,253,56578,1,2,0:2:0:0:
0,166,56801,101,2,0:3:0:0:
117,134,57025,1,2,0:2:0:0:
87,253,57249,1,2,0:3:0:0:
30,47,57473,5,2,0:2:0:0:
237,101,57697,1,2,0:3:0:0:
87,253,57921,1,2,0:2:0:0:
87,253,58151,1,2,0:3:0:0:
330,177,58382,102,0,P|354:130|348:59,1,115.50000352478,2|2,0:2|0:3,0:0:0:0:
150,14,58829,1,2,0:2:0:0:
351,68,59053,2,0,L|406:52,1,57.7500017623902,2|0,0:3|0:0,0:0:0:0:
202,221,59277,2,0,L|86:252,1,120.750002303124,2|2,0:2|0:3,0:0:0:0:
237,101,59725,1,2,0:2:0:0:
183,319,59949,1,2,0:3:0:0:
512,344,60173,5,2,0:2:0:0:
406,315,60390,1,2,0:3:0:0:
301,287,60607,1,2,0:2:0:0:
0,369,60841,101,2,0:3:0:0:
484,237,61075,1,2,0:2:0:0:
484,237,61297,1,2,0:3:0:0:
1,105,61519,1,2,0:2:0:0:
183,319,61741,1,2,0:3:0:0:
361,84,61963,6,0,P|415:49|480:52,1,131.25,2|2,0:2|0:3,0:0:0:0:
512,63,62298,1,0,0:0:0:0:
337,151,62410,102,0,P|334:86|403:20,1,157.500006008148,2|2,0:2|0:3,0:0:0:0:
426,12,62746,1,0,0:0:0:0:
383,205,62858,6,0,P|309:154|302:66,1,183.750001752377,2|2,0:2|0:3,0:0:0:0:
317,35,63209,1,8,0:0:0:0:
448,193,63326,102,0,P|406:223|355:227,1,105,2|0,0:0|0:0,0:0:0:0:
225,2,63543,2,0,P|272:23|301:65,1,105,12|0,0:0|0:0,0:0:0:0:
184,354,63760,86,0,B|25:418|-84:320|70:260|95:335,1,293.999991027832,6|8,0:0|1:2,0:0:0:0:
89,323,64095,1,0,0:0:0:0:
287,384,64207,2,0,P|289:324|257:274,1,120.750002303124,2|0,0:0|0:0,0:0:0:0:
55,4,64431,2,0,P|23:54|25:113,1,120.750002303124,8|0,1:2|0:0,0:0:0:0:
257,274,64655,6,0,L|490:211,1,241.500004606247,2|10,0:0|1:2,0:0:0:0:
317,0,64991,1,0,0:0:0:0:
208,103,65103,2,0,L|117:79,1,94.499997116089,2|2,0:0|0:0,0:0:0:0:
397,200,65327,2,0,L|507:169,1,110.249996635437,8|2,1:2|0:0,0:0:0:0:
194,360,65551,102,0,P|154:310|152:246,1,131.25,2|2,0:0|0:0,0:0:0:0:
349,0,65774,2,0,P|348:59|315:108,1,120.750002303124,8|0,1:2|0:0,0:0:0:0:
24,242,65998,2,0,P|1:162|76:187,1,181.125003454685,2|0,0:0|0:0,0:0:0:0:
54,253,66215,2,0,P|67:297|27:274,1,120.750002303124,10|0,1:2|0:0,0:0:0:0:
257,273,66432,6,0,B|352:202|440:272|440:272|388:312,1,262.5,2|8,0:0|1:2,0:0:0:0:
293,384,66758,1,2,0:0:0:0:
375,140,66867,1,2,0:0:0:0:
385,117,66981,1,0,0:0:0:0:
512,384,67096,2,0,L|480:267,1,120.750002303124,8|0,1:2|0:0,0:0:0:0:
220,0,67325,102,0,P|265:118|387:117,1,262.5,2|10,0:0|1:2,0:0:0:0:
512,28,67655,1,0,0:0:0:0:
325,28,67766,2,0,L|286:169,1,146.999995513916,2|0,0:0|0:0,0:0:0:0:
480,267,67986,2,0,L|448:384,1,120.750002303124,10|0,1:2|0:0,0:0:0:0:
130,318,68207,6,0,B|194:277|194:277|333:314,1,220.499993270874,2|0,0:0|0:0,0:0:0:0:
104,332,68427,2,0,B|0:304|0:304|34:284,1,146.999995513916,10|0,1:2|0:0,0:0:0:0:
325,28,68648,2,0,B|352:131|352:131|314:109,1,146.999995513916,2|0,0:0|0:0,0:0:0:0:
256,384,68871,1,8,1:2:0:0:
162,197,68983,1,0,0:0:0:0:
366,327,69095,102,0,P|418:324|464:300,1,105,2|0,0:0|0:0,0:0:0:0:
462,340,69320,2,0,P|496:301|512:251,1,105,8|0,1:2|0:0,0:0:0:0:
166,297,69546,6,0,P|109:283|70:241,1,118.125004506111,2|0,0:0|0:0,0:0:0:0:
8,313,69771,2,0,P|-21:263|-17:204,1,118.125004506111,8|0,1:2|0:0,0:0:0:0:
321,151,69997,102,0,P|376:117|409:61,1,131.25,2|0,0:0|0:0,0:0:0:0:
512,125,70222,2,0,P|528:62|511:0,1,131.25,8|0,1:2|0:0,0:0:0:0:
6,0,70448,6,0,L|43:139,1,144.375001376867,10|0,1:2|0:0,0:0:0:0:
506,384,70673,2,0,L|469:245,1,144.375001376867,10|0,1:2|0:0,0:0:0:0:
172,38,70899,102,0,B|129:81|129:81|224:153|316:81|316:81|306:117|324:158,1,336,6|8,0:0|1:2,0:0:0:0:
469,245,71232,1,0,0:0:0:0:
343,1,71343,2,0,P|281:116|343:231,1,272.999987503052,2|8,0:0|1:2,0:0:0:0:
512,125,71676,1,0,0:0:0:0:
397,344,71787,6,0,L|282:315,1,118.125004506111,2|0,0:0|0:0,0:0:0:0:
97,267,72010,1,8,1:2:0:0:
321,151,72121,1,0,0:0:0:0:
62,356,72232,102,0,P|13:316|2:253,1,131.25,2|0,0:0|0:0,0:0:0:0:
94,0,72454,2,0,P|149:44|161:113,1,144.375001376867,10|0,1:2|0:0,0:0:0:0:
97,267,72676,6,0,L|224:233,1,131.25,2|0,0:0|0:0,0:0:0:0:
512,375,72899,2,0,L|397:344,1,118.125004506111,10|0,1:2|0:0,0:0:0:0:
66,93,73123,101,2,0:0:0:0:
88,283,73235,1,2,0:0:0:0:
251,0,73347,1,10,1:2:0:0:
79,299,73459,6,0,B|42:364|42:364|168:330|168:330|207:265|207:265|334:229|334:229|296:295,1,488.250003725052,2|8,0:0|1:2,0:0:0:0:
278,326,73907,1,0,0:0:0:0:
126,185,74019,2,0,L|0:218,1,131.25,2|0,0:0|0:0,0:0:0:0:
343,1,74243,1,10,1:2:0:0:
512,160,74365,1,0,0:0:0:0:
511,40,74488,102,0,P|423:77|392:167,1,196.875,8|0,1:2|0:0,0:0:0:0:
296,294,74715,2,0,P|317:234|296:173,1,131.25,2|8,0:0|1:2,0:0:0:0:
56,35,74942,6,0,P|-4:4|29:62,1,181.125003454685,2|0,0:0|0:0,0:0:0:0:
112,240,75159,2,0,P|93:183|111:126,1,120.750002303124,8|0,1:2|0:0,0:0:0:0:
384,315,75376,102,0,L|223:358,1,165.374994953156,2|0,0:0|0:0,0:0:0:0:
88,360,75603,2,0,L|194:331,1,110.249996635437,2|0,0:0|0:0,0:0:0:0:
512,160,75830,6,0,B|306:-15|245:212|53:32,1,496.125014667392,12|0,0:0|0:0,0:0:0:0:
3,187,76285,102,0,P|85:122|187:146,1,216.562502065301,12|0,0:0|0:0,0:0:0:0:
112,240,76508,2,0,P|95:202|95:163,1,78.7500030040742,2|0,0:0|0:0,0:0:0:0:
477,336,76732,6,0,P|375:359|293:294,1,216.562502065301,12|0,0:0|0:0,0:0:0:0:
401,240,76949,2,0,P|399:279|383:314,1,78.7500030040742,2|0,0:0|0:0,0:0:0:0:
257,42,77166,102,0,B|372:-40|481:43|481:43|423:101,1,315.000012016297,12|2,0:0|0:0,0:0:0:0:
194,330,77512,1,8,0:0:0:0:
3,187,77627,2,0,P|-15:249|4:310,1,131.25,12|8,0:0|0:0,0:0:0:0:
401,240,77850,1,8,0:0:0:0:
26,0,77962,1,8,0:0:0:0:
26,0,78322,85,2,0:3:0:0:
26,0,78766,1,2,0:3:0:0:
26,0,79210,1,2,0:3:0:0:
26,0,79637,5,2,0:3:0:0:
26,0,79801,2,0,L|118:24,1,94.499997116089
26,95,80085,101,2,0:3:0:0:
26,95,80557,1,2,0:3:0:0:
26,95,81004,1,2,0:3:0:0:
26,95,81440,5,2,0:3:0:0:
145,161,81682,102,0,P|195:173|246:161,1,105,2|2,0:0|0:3,0:0:0:0:
347,50,82129,2,0,P|296:39|245:50,1,105,8|2,1:2|0:3,0:0:0:0:
55,332,82577,2,0,L|28:231,1,105,2|2,0:0|0:3,0:0:0:0:
28,231,82913,1,0,0:0:0:0:
170,352,83025,2,0,L|143:251,1,105,8|2,1:2|0:3,0:0:0:0:
143,250,83361,1,0,0:0:0:0:
307,335,83473,6,0,P|366:354|424:334,1,125.999996154785,2|2,0:0|0:3,0:0:0:0:
512,266,83808,1,0,0:0:0:0:
366,245,83920,2,0,P|411:203|424:142,1,125.999996154785,8|2,1:2|0:3,0:0:0:0:
408,32,84256,1,0,0:0:0:0:
317,149,84368,102,0,L|195:116,1,125.999996154785,2|2,0:0|0:3,0:0:0:0:
381,42,84704,1,0,0:0:0:0:
222,106,84816,2,0,L|100:73,1,125.999996154785,8|2,1:2|0:3,0:0:0:0:
354,52,85149,1,2,0:0:0:0:
143,250,85260,1,8,1:2:0:0:
143,250,85611,85,2,0:0:0:0:
354,52,85834,1,2,0:0:0:0:
419,333,86051,1,2,0:0:0:0:
305,211,86149,1,2,0:0:0:0:
122,384,86372,5,2,0:0:0:0:
467,172,86596,1,2,0:0:0:0:
0,0,86820,1,2,0:0:0:0:
467,172,87037,101,8,3:2:0:0:
470,146,87119,1,0,3:2:0:0:
474,120,87202,1,0,3:2:0:0:
479,96,87284,2,0,L|485:60,1,36.749998878479,0|0,3:2|3:0,0:0:0:0:
492,25,87451,6,0,L|517:121,1,86.6250008261204,8|0,3:2|3:0,0:0:0:0:
328,288,87715,102,0,B|196:267|196:267|126:377|126:377|104:245|104:245|-21:212|-21:212|95:152|95:152|88:22|88:22|183:115|183:115|305:68|305:68|245:186|245:186|323:281|323:281,1,1285.71428571429,6|0,3:2|0:0,2:0:0:0:
