osu file format v14

[General]
AudioFilename: audio.mp3
AudioLeadIn: 0
PreviewTime: 63306
Countdown: 0
SampleSet: Soft
StackLeniency: 0.2
Mode: 0
LetterboxInBreaks: 0
WidescreenStoryboard: 0

[Editor]
Bookmarks: 3660,10949,25256,39562,49419,78324,81683,88383
DistanceSpacing: 1.1
BeatDivisor: 8
GridSize: 32
TimelineZoom: 2.5

[Metadata]
Title:Wild Side (TV Size)
TitleUnicode:Wild Side (TV Size)
Artist:ALI
ArtistUnicode:ALI
Creator:Kroytz
Version:Yuuya's Light Extra
Source:BEASTARS
Tags:-Anime Ver.- ビースターズ BST BAND Version Alien Liberty International Jazz Anime Japanese English French Opening OP Night Mare Luna Yuuya_ke HowRengar Kowari DeviousPanda Kazato Asa Shizuku- BarkingMadDog BMD kimchii42 -Mikan
BeatmapID:2303351
BeatmapSetID:1055990

[Difficulty]
HPDrainRate:4.5
CircleSize:4
OverallDifficulty:8
ApproachRate:9.2
SliderMultiplier:2.5
SliderTickRate:1

[Events]
//Background and Video events
Video,-500,"video.mp4"
0,0,"BG.png",0,0
//Break Periods
//Storyboard Layer 0 (Background)
//Storyboard Layer 1 (Fail)
//Storyboard Layer 2 (Pass)
//Storyboard Layer 3 (Foreground)
//Storyboard Layer 4 (Overlay)
//Storyboard Sound Samples

[TimingPoints]
195,535.714285714286,4,2,6,50,1,0
462,-100,4,2,20,5,0,0
563,413.793103448276,4,2,6,50,1,0
563,-66.6666666666667,4,2,6,50,0,0
666,-66.6666666666667,4,2,20,5,0,0
769,-71.4285714285714,4,2,6,50,0,0
873,-71.4285714285714,4,2,20,5,0,0
976,-76.9230769230769,4,2,6,50,0,0
1080,-76.9230769230769,4,2,20,5,0,0
1222,419.58041958042,4,2,6,50,1,0
1222,-76.9230769230769,4,2,6,50,0,0
1641,428.571428571429,4,2,6,50,1,0
1855,495.867768595041,4,2,6,50,1,0
1978,431.654676258993,4,2,6,50,1,0
2409,465.116279069767,4,2,6,50,1,0
2641,483.870967741935,4,2,6,80,1,1
2641,-74.0740740740741,4,2,6,80,0,1
3124,461.538461538462,4,2,6,80,1,1
3470,379.746835443038,4,2,6,80,1,1
3564,-100,4,2,20,5,0,0
3659,504.201680672269,4,2,3,35,1,0
4037,468.75,4,2,3,35,1,0
4037,-133.333333333333,4,2,3,35,0,0
4154,-133.333333333333,4,2,3,20,0,0
4505,413.793103448276,4,2,3,35,1,0
4505,-166.666666666667,4,2,3,35,0,0
4608,-166.666666666667,4,2,3,20,0,0
4918,508.474576271186,4,2,3,35,1,0
4918,-200,4,2,3,35,0,0
5045,-200,4,2,3,20,0,0
5299,427.046263345196,4,2,3,35,1,0
5299,-166.666666666667,4,2,3,35,0,0
5405,-166.666666666667,4,2,3,20,0,0
5512,434.782608695652,4,2,3,35,1,0
5512,-86.9565217391304,4,2,3,35,0,0
5729,-86.9565217391304,4,2,20,5,0,0
5838,419.58041958042,4,2,1,35,1,0
5838,-142.857142857143,4,2,1,35,0,0
5942,-142.857142857143,4,2,1,20,0,0
6257,431.654676258993,4,2,1,35,1,0
6257,-166.666666666667,4,2,1,35,0,0
6364,-166.666666666667,4,2,1,20,0,0
6688,487.80487804878,4,2,1,35,1,0
6688,-200,4,2,1,35,0,0
6809,-200,4,2,1,20,0,0
7053,465.116279069767,4,2,1,35,1,0
7053,-166.666666666667,4,2,1,35,0,0
7169,-166.666666666667,4,2,1,20,0,0
7285,413.793103448276,4,2,1,35,1,0
7285,-86.9565217391304,4,2,1,35,0,0
7491,-86.9565217391304,4,2,20,5,0,0
7595,434.782608695652,4,2,1,35,1,0
7595,-142.857142857143,4,2,1,35,0,0
7703,-142.857142857143,4,2,1,20,0,0
8029,441.176470588235,4,2,1,35,1,0
8029,-166.666666666667,4,2,1,35,0,0
8139,-166.666666666667,4,2,1,20,0,0
8470,517.241379310345,4,2,1,35,1,0
8470,-200,4,2,1,35,0,0
8599,-200,4,2,1,20,0,0
8857,454.545454545455,4,2,1,35,1,0
8857,-166.666666666667,4,2,1,35,0,0
8970,-166.666666666667,4,2,1,20,0,0
9084,413.793103448276,4,2,1,35,1,0
9084,-86.9565217391304,4,2,1,35,0,0
9290,-86.9565217391304,4,2,20,5,0,0
9394,428.571428571429,4,2,1,35,1,0
9394,-142.857142857143,4,2,1,35,0,0
9501,-142.857142857143,4,2,1,20,0,0
9822,437.956204379562,4,2,1,35,1,0
9822,-166.666666666667,4,2,1,35,0,0
9931,-166.666666666667,4,2,1,20,0,0
10259,512.820512820513,4,2,1,35,1,0
10259,-200,4,2,1,35,0,0
10387,-200,4,2,1,20,0,0
10643,425.531914893617,4,2,1,35,1,0
10643,-166.666666666667,4,2,1,35,0,0
10749,-166.666666666667,4,2,1,20,0,0
10855,392.156862745098,4,2,1,35,1,0
10953,447.761194029851,4,2,1,50,1,0
12296,425.531914893617,4,2,1,50,1,0
12721,447.761194029851,4,2,1,50,1,0
13616,442.80442804428,4,2,1,50,1,0
14501,437.956204379562,4,2,1,50,1,0
14938,447.761194029851,4,2,1,50,1,0
16281,447.761194029851,4,2,1,50,1,0
17624,461.538461538462,4,2,1,50,1,0
17624,-66.6666666666667,4,2,1,50,0,0
18085,447.761194029851,4,2,2,50,1,0
18085,-100,4,2,2,50,0,0
18308,-100,4,2,1,50,0,0
19876,454.545454545455,4,2,1,50,1,0
20330,447.761194029851,4,2,1,50,1,0
21673,444.444444444444,4,2,1,50,1,0
23012,447.761194029851,4,2,1,50,1,0
23463,449.438202247191,4,2,1,50,1,0
24361,-111.111111111111,4,2,1,50,0,0
24811,434.782608695652,4,2,1,50,1,0
24811,-125,4,2,1,50,0,0
25245,461.538461538462,4,2,4,50,1,0
25245,-80,4,2,4,50,0,0
25475,-80,4,2,1,50,0,0
25591,-80,4,2,10,50,0,0
25706,444.444444444444,4,2,6,50,1,0
25706,-80,4,2,6,50,0,0
25928,-80,4,2,1,50,0,0
26150,-80,4,2,4,50,0,0
26261,-80,4,2,1,50,0,0
26594,-80,4,2,6,50,0,0
26817,-80,4,2,1,50,0,0
26928,-80,4,2,10,50,0,0
27039,447.761194029851,4,2,1,50,1,0
27039,-80,4,2,1,50,0,0
27150,-80,4,2,10,50,0,0
27262,-80,4,2,1,50,0,0
27374,-80,4,2,10,50,0,0
27486,-80,4,2,6,50,0,0
27934,-100,4,2,1,50,0,0
28830,-80,4,2,4,50,0,0
29053,-80,4,2,1,50,0,0
29165,-80,4,2,10,50,0,0
29277,-80,4,2,1,50,0,0
29389,-80,4,2,10,50,0,0
29501,-80,4,2,1,50,0,0
29725,434.782608695652,4,2,4,50,1,0
29725,-80,4,2,4,50,0,0
29942,-80,4,2,1,50,0,0
30159,-80,4,2,6,50,0,0
30377,-80,4,2,1,50,0,0
30485,-80,4,2,10,50,0,0
30594,468.75,4,2,1,50,1,0
30711,-80,4,2,10,50,0,0
30828,-80,4,2,1,50,0,0
30945,-80,4,2,10,50,0,0
31062,447.761194029851,4,2,6,50,1,0
31062,-80,4,2,6,50,0,0
31285,-80,4,2,1,50,0,0
31509,-100,4,2,1,50,0,0
31957,454.545454545455,4,2,1,50,1,0
32411,451.127819548872,4,2,4,50,1,0
32411,-71.4285714285714,4,2,4,50,0,0
32636,-80,4,2,1,50,0,0
32749,-80,4,2,10,50,0,0
32862,-80,4,2,1,50,0,0
32974,-80,4,2,10,50,0,0
33087,-80,4,2,1,50,0,0
33313,-80,4,2,4,50,0,0
33426,-80,4,2,1,50,0,0
33764,437.956204379562,4,2,6,50,1,0
33764,-80,4,2,6,50,0,0
33982,-80,4,2,1,50,0,0
34092,-80,4,2,10,50,0,0
34201,451.127819548872,4,2,1,50,1,0
34201,-80,4,2,1,50,0,0
34313,-80,4,2,10,50,0,0
34426,-80,4,2,1,50,0,0
34539,-80,4,2,10,50,0,0
34652,-80,4,2,6,50,0,0
34877,-80,4,2,1,50,0,0
35103,-100,4,2,1,50,0,0
35998,447.761194029851,4,2,4,50,1,0
35998,-80,4,2,4,50,0,0
36109,-80,4,2,10,50,0,0
36445,-80,4,2,1,50,0,0
36669,-80,4,2,10,50,0,0
36893,-80,4,2,4,50,0,0
37005,-80,4,2,10,50,0,0
37341,-80,4,2,1,50,0,0
37789,-66.6666666666667,4,2,4,50,0,0
37956,-66.6666666666667,4,2,20,5,0,0
38012,-133.333333333333,4,2,1,50,0,0
38236,-71.4285714285714,4,2,6,50,0,0
38404,-71.4285714285714,4,2,20,5,0,0
38460,-142.857142857143,4,2,1,50,0,0
38684,437.956204379562,4,2,4,50,1,0
38684,-76.9230769230769,4,2,4,50,0,0
38848,-76.9230769230769,4,2,20,5,0,0
38902,-153.846153846154,4,2,1,50,0,0
39121,-83.3333333333333,4,2,6,50,0,0
39340,-83.3333333333333,4,2,6,50,0,0
39559,454.545454545455,4,2,1,50,1,0
39559,-100,4,2,1,50,0,0
41377,444.444444444444,4,2,1,50,1,0
42043,-104.166666666667,4,2,1,50,0,0
42265,447.761194029851,4,2,1,50,1,0
43160,451.127819548872,4,2,1,50,1,0
44513,434.782608695652,4,2,1,50,1,0
44947,447.761194029851,4,2,1,50,1,0
46514,413.793103448276,4,2,1,50,1,0
46720,476.190476190476,4,2,1,50,1,0
46839,461.538461538462,4,2,1,50,1,0
46839,-80,4,2,1,50,0,0
47069,421.052631578947,4,2,1,50,1,0
47174,441.176470588235,4,2,1,50,1,0
47174,-80,4,2,1,50,0,0
47394,461.538461538462,4,2,1,50,1,0
47394,-80,4,2,1,50,0,0
47624,-66.6666666666667,4,2,1,50,0,0
47740,387.096774193548,4,2,1,50,1,0
47740,-50,4,2,1,50,0,0
47836,545.454545454546,4,2,1,50,1,0
47972,422.535211267606,4,2,3,50,1,0
47972,-66.6666666666667,4,2,3,50,0,0
48183,447.761194029851,4,2,3,50,1,0
48183,-71.4285714285714,4,2,3,50,0,0
48406,444.444444444444,4,2,1,50,1,0
48406,-66.6666666666667,4,2,1,50,0,0
48850,500,4,2,1,50,1,0
48850,-66.6666666666667,4,2,1,50,0,0
49100,422.535211267606,4,2,1,50,1,0
49205,434.782608695652,4,2,1,50,1,0
49422,461.538461538462,4,2,2,50,1,0
49422,-200,4,2,2,50,0,0
49652,-200,4,2,3,50,0,0
50114,437.956204379562,4,2,3,50,1,0
50332,444.444444444444,4,2,3,50,1,0
50332,-200,4,2,3,50,0,0
51220,447.761194029851,4,2,3,50,1,0
51220,-200,4,2,3,50,0,0
54354,437.956204379562,4,2,3,50,1,0
54354,-200,4,2,3,50,0,0
54791,446.927374301676,4,2,3,50,1,0
55684,-200,4,2,3,50,0,0
56020,-200,4,2,20,5,0,0
56131,-133.333333333333,4,2,3,50,0,0
56466,-133.333333333333,4,2,20,5,0,0
56578,447.761194029851,4,2,3,50,1,0
56578,-100,4,2,3,50,0,0
56745,-100,4,2,20,5,0,0
56801,-200,4,2,3,50,0,0
57921,461.538461538462,4,2,3,50,1,0
58382,447.761194029851,4,2,3,50,1,0
58382,-200,4,2,3,50,0,0
60173,434.782608695652,4,2,3,50,1,0
60173,-200,4,2,3,50,0,0
60607,468.75,4,2,3,50,1,0
60607,-200,4,2,3,50,0,0
61075,444.444444444444,4,2,3,60,1,0
61963,447.761194029851,4,2,3,60,1,0
62410,-114.285714285714,4,2,3,60,0,0
62634,-114.285714285714,4,2,3,60,0,0
62858,468.75,4,2,3,60,1,0
62858,-133.333333333333,4,2,3,60,0,0
63209,-133.333333333333,4,2,1,60,0,0
63326,434.782608695652,4,2,1,70,1,0
63326,-66.6666666666667,4,2,1,70,0,0
63543,-57.1428571428571,4,2,5,70,0,0
63760,447.761194029851,4,2,4,80,1,1
63760,-62.5,4,2,4,80,0,1
63983,-66.6666666666667,4,2,1,80,0,1
64095,-66.6666666666667,4,2,1,80,0,1
64207,-66.6666666666667,4,2,4,80,0,1
64319,-66.6666666666667,4,2,1,80,0,1
64655,-66.6666666666667,4,2,4,80,0,1
64879,-66.6666666666667,4,2,6,80,0,1
64991,-66.6666666666667,4,2,10,80,0,1
65103,-66.6666666666667,4,2,1,80,0,1
65215,-66.6666666666667,4,2,6,80,0,1
65551,-66.6666666666667,4,2,1,80,0,1
65662,-62.5,4,2,6,80,0,1
65998,434.782608695652,4,2,4,80,1,1
65998,-66.6666666666667,4,2,4,80,0,1
66106,-66.6666666666667,4,2,1,80,0,1
66215,-66.6666666666667,4,2,6,80,0,1
66324,-66.6666666666667,4,2,6,80,0,1
66432,-66.6666666666667,4,2,4,80,0,1
66541,-66.6666666666667,4,2,1,80,0,1
66758,-66.6666666666667,4,2,6,80,0,1
66867,458.015267175573,4,2,4,80,1,1
66867,-66.6666666666667,4,2,4,80,0,1
66981,-66.6666666666667,4,2,1,80,0,1
67096,-66.6666666666667,4,2,1,80,0,1
67325,441.176470588235,4,2,4,80,1,1
67325,-66.6666666666667,4,2,4,80,0,1
67435,-66.6666666666667,4,2,1,80,0,1
67545,-66.6666666666667,4,2,6,80,0,1
67655,-66.6666666666667,4,2,1,80,0,1
67766,-66.6666666666667,4,2,4,80,0,1
67876,-66.6666666666667,4,2,1,80,0,1
67986,-66.6666666666667,4,2,6,80,0,1
68097,-66.6666666666667,4,2,1,80,0,1
68207,-66.6666666666667,4,2,4,80,0,1
68427,-66.6666666666667,4,2,6,80,0,1
68538,-66.6666666666667,4,2,1,80,0,1
68648,447.761194029851,4,2,4,80,1,1
68648,-66.6666666666667,4,2,4,80,0,1
68759,-66.6666666666667,4,2,10,80,0,1
68872,-66.6666666666667,4,2,1,80,0,1
69095,451.127819548872,4,2,4,80,1,1
69095,-66.6666666666667,4,2,4,80,0,1
69264,-66.6666666666667,4,2,20,5,0,1
69320,-133.333333333333,4,2,1,80,0,1
69546,-62.5,4,2,4,80,0,1
69715,-62.5,4,2,20,5,0,1
69771,-125,4,2,1,80,0,1
69997,-68.9655172413793,4,2,4,80,0,1
70222,-100,4,2,1,80,0,1
70448,-66.6666666666667,4,2,6,80,0,1
70673,-57.1428571428571,4,2,6,80,0,0
70786,-57.1428571428571,4,2,6,80,0,0
70899,444.444444444444,4,2,4,80,1,1
70899,-62.5,4,2,4,80,0,1
71121,-62.5,4,2,1,80,0,1
71343,-66.6666666666667,4,2,4,80,0,1
71454,-66.6666666666667,4,2,1,80,0,1
71565,-66.6666666666667,4,2,1,80,0,1
72232,-62.5,4,2,4,80,0,1
72343,-62.5,4,2,1,80,0,1
72454,-62.5,4,2,6,80,0,1
72676,447.761194029851,4,2,4,80,1,1
72676,-62.5,4,2,4,80,0,1
72899,-62.5,4,2,6,80,0,1
73123,-62.5,4,2,4,80,0,1
73235,-62.5,4,2,6,80,0,1
73571,-62.5,4,2,1,80,0,1
73795,-66.6666666666667,4,2,1,80,0,1
74019,-66.6666666666667,4,2,4,80,0,1
74131,-66.6666666666667,4,2,1,80,0,1
74243,491.803278688525,4,2,6,80,1,1
74243,-66.6666666666667,4,2,6,80,0,1
74488,454.545454545455,4,2,5,80,1,1
74488,-66.6666666666667,4,2,5,80,0,1
74658,-100,4,2,20,5,0,1
74715,-66.6666666666667,4,2,1,80,0,1
74942,434.782608695652,4,2,1,80,1,1
74942,-71.4285714285714,4,2,1,80,0,1
75376,454.545454545455,4,2,1,80,1,1
75376,-76.9230769230769,4,2,1,80,0,1
75603,-76.9230769230769,4,2,1,80,0,1
75830,-55.5555555555556,4,2,5,80,0,1
76171,-55.5555555555556,4,2,20,5,0,1
76285,447.761194029851,4,2,1,80,1,1
76285,-57.1428571428571,4,2,1,80,0,1
76508,-57.1428571428571,4,2,1,80,0,1
76732,434.782608695652,4,2,1,80,1,1
76732,-62.5,4,2,1,80,0,1
76949,-62.5,4,2,1,80,0,1
77166,461.538461538462,4,2,1,80,1,1
77166,-55.5555555555556,4,2,1,80,0,1
77627,447.761194029851,4,2,1,80,1,1
77962,480,4,2,1,80,1,0
77962,-100,4,2,1,80,0,0
78322,444.444444444444,4,2,1,35,1,0
78322,-133.333333333333,4,2,1,35,0,0
78433,-133.333333333333,4,2,1,20,0,0
78766,-166.666666666667,4,2,1,35,0,0
78877,-166.666666666667,4,2,1,20,0,0
79210,491.803278688525,4,2,1,35,1,0
79210,-200,4,2,1,35,0,0
79332,-200,4,2,1,20,0,0
79578,447.761194029851,4,2,1,35,1,0
79637,461.538461538462,4,2,1,35,1,0
79637,-166.666666666667,4,2,1,35,0,0
79752,-166.666666666667,4,2,1,20,0,0
79801,454.545454545455,4,2,1,35,1,0
80085,-100,4,2,1,20,0,0
80141,416.666666666667,4,2,1,35,1,0
80141,-133.333333333333,4,2,1,35,0,0
80245,-133.333333333333,4,2,1,20,0,0
80557,447.761194029851,4,2,1,35,1,0
80557,-166.666666666667,4,2,1,35,0,0
80668,-166.666666666667,4,2,1,20,0,0
81004,491.803278688525,4,2,1,35,1,0
81004,-200,4,2,1,35,0,0
81126,-200,4,2,1,20,0,0
81372,461.538461538462,4,2,1,35,1,0
81440,461.538461538462,4,2,1,35,1,0
81602,322.58064516129,4,2,1,35,1,0
81682,447.761194029851,4,2,1,50,1,0
81682,-100,4,2,1,50,0,0
84816,444.444444444444,4,2,1,50,1,0
85260,468.75,4,2,1,50,1,0
85611,447.761194029851,4,2,6,60,1,0
85834,434.782608695652,4,2,6,60,1,0
86051,394.736842105263,4,2,6,60,1,0
86149,447.761194029851,4,2,6,60,1,0
86820,434.782608695652,4,2,6,60,1,0
87037,495.867768595041,4,2,6,60,1,0
87284,447.761194029851,4,2,6,60,1,0
87451,-100,4,2,1,60,0,0
87715,447.761194029851,4,2,1,80,1,0
87715,-68.9655172413793,4,2,1,80,0,0
88386,-68.9655172413793,4,2,1,20,0,0

[Colours]
Combo1 : 108,0,54
Combo2 : 0,64,128
Combo3 : 0,128,192
Combo4 : 255,255,70
Combo5 : 0,210,0
Combo6 : 192,192,192
Combo7 : 139,139,139
Combo8 : 155,0,0

[HitObjects]
164,23,195,101,2,0:0:0:0:
170,29,328,2,0,P|175:61|180:106,1,62.5,2|0,0:0|0:0,0:0:0:0:
75,192,563,6,0,P|114:172|174:182,1,93.7500035762788,2|0,0:0|0:0,0:0:0:0:
235,227,769,2,0,P|192:207|148:218,1,87.499997329712,2|0,0:0|0:0,0:0:0:0:
92,278,976,2,0,P|123:261|178:268,1,81.2499962806703,2|0,0:0|0:0,0:0:0:0:
164,382,1222,101,2,0:0:0:0:
168,373,1326,1,2,0:0:0:0:
169,365,1431,5,2,0:0:0:0:
223,359,1536,1,2,0:0:0:0:
275,350,1641,1,2,0:0:0:0:
328,343,1748,1,2,0:0:0:0:
381,337,1855,1,2,0:0:0:0:
434,327,1978,102,0,B|437:304|442:271,1,41.6666666666667,0|0,3:2|3:2,0:0:0:0:
357,169,2121,2,0,P|336:171|304:175,4,41.6666666666667,0|0|0|0|0,3:2|3:2|3:2|3:2|3:2,0:0:0:0:
500,25,2641,6,0,B|438:-2|379:4|336:44|318:95|321:162|367:200|452:191|488:141|484:90|453:45|404:16|364:9|314:20|255:68|308:66|277:126|198:152|153:125,1,644.43748431583,6|0,1:2|0:0,0:0:0:0:
74,40,3659,101,2,1:3:0:0:
6,229,4037,22,0,P|9:252|13:280,1,46.8750017881394
102,200,4505,2,0,P|96:225|91:246,1,37.4999988555909
168,282,4918,2,0,P|156:297|146:310,1,31.25
104,202,5299,2,0,P|98:227|93:248,1,37.4999988555909
70,368,5512,6,0,P|142:364|214:360,1,143.750002741814
250,377,5838,102,0,P|254:355|263:329,1,43.749998664856
245,254,6257,2,0,P|270:247|306:243,1,37.4999988555909
356,197,6688,2,0,P|372:200|399:212,1,31.25
247,256,7053,2,0,P|272:249|308:245,1,37.4999988555909
440,288,7285,6,0,B|425:231|448:199|433:146,1,143.750002741814
402,113,7595,102,0,P|428:110|456:107,1,43.749998664856
297,63,8029,2,0,P|313:49|333:28,1,37.4999988555909
193,98,8470,2,0,P|198:78|203:62,1,31.25
299,65,8857,2,0,P|315:51|335:30,1,37.4999988555909
168,189,9084,6,0,B|131:184|102:159|102:159|89:191|46:216,1,143.750002741814
20,190,9394,102,0,P|16:166|11:143,1,43.749998664856
129,303,9822,2,0,P|134:278|138:254,1,37.4999988555909
44,384,10259,2,0,P|41:360|38:339,1,31.25
131,305,10643,2,0,P|136:280|140:256,1,37.4999988555909
228,360,10855,1,0,0:0:0:0:
232,349,10953,6,0,P|300:335|357:375,1,125,2|2,0:0|0:3,0:0:0:0:
512,262,11400,2,0,P|446:257|398:297,1,125,2|2,0:0|0:3,0:0:0:0:
332,240,11736,1,0,0:0:0:0:
321,230,11848,102,0,B|315:201|287:174|287:174|321:100,1,125,2|2,0:0|0:3,0:0:0:0:
468,158,12184,2,0,P|440:160|399:165,1,62.5,0|2,0:0|0:0,0:0:0:0:
358,21,12402,1,0,0:0:0:0:
347,23,12508,2,0,P|317:17|286:11,1,62.5,2|0,0:3|0:0,0:0:0:0:
208,100,12721,5,2,0:0:0:0:
461,42,12944,1,2,0:3:0:0:
324,219,13168,2,0,P|324:187|321:156,1,62.5,2|0,0:0|0:0,0:0:0:0:
202,3,13392,2,0,P|203:40|202:75,1,62.5,2|0,0:3|0:0,0:0:0:0:
83,154,13616,101,2,0:0:0:0:
308,68,13837,1,2,0:3:0:0:
48,10,14058,1,2,0:0:0:0:
58,4,14169,2,0,P|62:36|66:66,1,62.5,0|2,0:0|0:3,0:0:0:0:
70,73,14390,1,0,0:0:0:0:
74,79,14501,1,2,0:0:0:0:
145,284,14719,5,2,0:3:0:0:
185,93,14938,1,2,0:0:0:0:
3,209,15161,1,2,0:3:0:0:
274,185,15385,102,0,P|267:254|261:325,1,125,2|2,0:0|0:3,0:0:0:0:
212,377,15721,1,0,0:0:0:0:
205,373,15833,2,0,P|233:361|267:359,1,62.5,2|0,0:0|0:0,0:0:0:0:
357,252,16057,2,0,P|389:258|417:268,1,62.5,2|0,0:3|0:0,0:0:0:0:
507,357,16281,5,2,0:0:0:0:
503,362,16392,1,0,0:0:0:0:
499,366,16504,2,0,P|504:332|508:304,1,62.5,2|0,0:3|0:0,0:0:0:0:
349,134,16728,1,2,0:0:0:0:
389,148,16840,1,0,0:0:0:0:
435,143,16952,1,2,0:3:0:0:
468,113,17064,1,0,0:0:0:0:
483,65,17176,102,0,P|448:71|418:74,1,62.5,2|0,0:0|0:0,0:0:0:0:
188,51,17400,1,2,0:3:0:0:
191,58,17512,1,2,0:3:0:0:
195,66,17624,6,0,B|152:51|171:-11|224:-26|275:11|281:69|206:121|220:69|190:105|178:143|178:182,1,281.250010728836,4|0,0:0|0:0,0:0:0:0:
200,262,18085,101,4,0:0:0:0:
71,77,18308,1,2,0:3:0:0:
291,154,18532,1,8,1:2:0:0:
76,265,18756,1,2,0:3:0:0:
220,367,18980,6,0,B|280:360|280:360|287:369|287:369|352:361,1,125,2|2,0:0|0:3,0:0:0:0:
430,301,19316,1,0,0:0:0:0:
423,308,19428,2,0,P|432:239|443:174,1,125,8|2,1:2|0:3,0:0:0:0:
449,56,19764,1,2,0:3:0:0:
466,75,19876,102,0,P|427:72|383:67,1,62.5,2|0,0:0|0:0,0:0:0:0:
265,6,20103,2,0,P|273:42|275:77,1,62.5,2|0,0:3|0:0,0:0:0:0:
171,192,20330,1,8,1:2:0:0:
176,198,20441,2,0,P|173:153|170:126,1,62.5,0|2,0:0|0:3,0:0:0:0:
171,135,20777,6,0,P|165:202|156:269,1,125,2|2,0:0|0:3,0:0:0:0:
228,335,21113,1,0,0:0:0:0:
234,343,21225,2,0,P|270:342|303:348,1,62.5,8|0,1:2|0:0,0:0:0:0:
72,228,21449,2,0,P|37:231|-3:236,1,62.5,2|2,0:3|0:3,0:0:0:0:
262,100,21673,101,2,0:0:0:0:
258,93,21784,1,0,0:0:0:0:
254,86,21895,2,0,P|249:56|256:25,1,62.5,2|0,0:3|0:0,0:0:0:0:
456,80,22117,2,0,P|407:44|350:64,1,125,8|2,1:2|0:3,0:0:0:0:
496,172,22450,6,0,P|491:202|487:245,1,62.5,0|2,0:0|0:0,0:0:0:0:
382,339,22673,2,0,P|375:301|365:262,1,62.5,0|2,0:0|0:3,0:0:0:0:
239,216,22895,1,0,0:0:0:0:
229,211,23012,1,8,1:2:0:0:
220,207,23123,2,0,P|258:200|297:195,2,62.5,0|2|2,0:0|0:3|0:3,0:0:0:0:
113,249,23463,101,2,0:0:0:0:
92,204,23575,1,0,0:0:0:0:
96,154,23687,1,2,0:3:0:0:
127,115,23800,1,0,0:0:0:0:
172,96,23912,2,0,P|167:135|162:172,1,62.5,8|0,1:2|0:0,0:0:0:0:
14,282,24137,2,0,P|11:245|2:202,1,62.5,2|0,0:3|0:0,0:0:0:0:
175,164,24361,6,0,P|178:132|182:101,1,56.2499982833863,2|0,0:0|0:0,0:0:0:0:
17,219,24586,2,0,P|22:249|23:281,1,56.2499982833863,2|0,0:3|0:0,0:0:0:0:
205,358,24811,102,0,P|277:373|332:320,1,150,8|2,3:2|3:0,0:0:0:0:
328,303,25245,6,0,P|260:321|190:261,1,156.25,6|2,0:0|0:3,0:0:0:0:
95,210,25591,1,0,0:0:0:0:
107,213,25706,2,0,P|96:253|106:292,1,78.125,8|2,1:2|0:0,0:0:0:0:
270,117,25928,1,2,0:3:0:0:
263,102,26039,1,0,0:0:0:0:
258,91,26150,102,0,P|266:50|270:12,1,78.125,2|0,0:0|0:0,0:0:0:0:
158,27,26372,1,2,0:3:0:0:
333,182,26594,2,0,P|374:169|420:176,1,78.125,10|0,1:2|0:0,0:0:0:0:
467,89,26817,1,2,0:3:0:0:
465,98,26928,6,0,P|458:136|452:180,1,78.125,2|2,0:3|0:0,0:3:0:0:
406,333,27150,2,0,P|399:294|388:257,1,78.125,0|2,0:0|0:3,0:0:0:0:
266,226,27374,1,0,0:0:0:0:
265,237,27486,1,10,1:2:0:0:
503,308,27710,1,2,0:3:0:0:
274,373,27934,102,0,P|272:312|264:240,1,125,2|2,0:0|0:3,0:0:0:0:
181,157,28270,1,0,0:0:0:0:
174,164,28382,2,0,P|168:194|163:225,1,62.5,8|0,1:2|0:0,0:0:0:0:
19,342,28606,1,2,0:3:0:0:
22,349,28718,1,2,0:3:0:0:
27,356,28830,6,0,B|50:285|13:265|42:189,1,156.25,2|2,0:0|0:3,0:0:0:0:
3,87,29165,1,0,0:0:0:0:
10,96,29277,2,0,P|53:98|93:75,1,78.125,8|0,1:2|0:0,0:0:0:0:
245,1,29501,2,0,P|240:43|235:88,1,78.125,2|0,0:3|0:0,0:0:0:0:
333,162,29725,102,0,B|377:156|401:130|401:130|434:151|488:149,1,156.25,2|2,0:0|0:3,0:0:0:0:
492,45,30051,1,0,0:0:0:0:
485,55,30159,2,0,P|449:49|399:34,1,78.125,10|0,1:2|0:0,0:0:0:0:
410,235,30377,1,2,0:3:0:0:
419,241,30485,6,0,P|417:280|419:319,1,78.125,2|2,0:3|0:0,0:0:0:0:
248,203,30711,2,0,P|246:161|249:105,1,78.125,0|2,0:0|0:3,0:0:0:0:
174,362,30945,1,0,0:0:0:0:
169,378,31062,1,10,1:2:0:0:
344,183,31285,1,2,0:3:0:0:
93,132,31509,102,0,B|66:119|66:119|86:221,1,125,2|2,0:0|0:3,0:0:0:0:
39,295,31845,1,0,0:0:0:0:
32,302,31957,2,0,P|74:305|115:323,1,62.5,8|0,1:2|0:0,0:0:0:0:
256,126,32184,1,2,0:3:0:0:
253,134,32297,1,2,0:3:0:0:
251,140,32411,6,0,B|217:154|177:111|212:54|282:73|321:104,1,174.999994659424,2|2,0:0|0:3,0:0:0:0:
403,148,32749,1,0,0:0:0:0:
413,155,32862,2,0,P|423:114|413:76,1,78.125,8|0,1:2|0:0,0:0:0:0:
230,257,33087,1,2,0:3:0:0:
233,271,33200,1,0,0:0:0:0:
236,287,33313,102,0,P|234:329|231:385,1,78.125,2|0,0:0|0:0,0:0:0:0:
333,204,33538,1,2,0:3:0:0:
123,127,33764,2,0,P|166:134|216:134,1,78.125,10|0,1:2|0:0,0:0:0:0:
247,38,33982,1,2,0:3:0:0:
255,47,34092,6,0,P|249:88|242:137,1,78.125,2|2,0:3|0:0,0:0:0:0:
428,226,34313,2,0,P|430:187|435:148,1,78.125,0|2,0:0|0:3,0:0:0:0:
287,348,34539,1,0,0:0:0:0:
283,338,34652,1,10,1:2:0:0:
333,103,34877,1,2,0:3:0:0:
103,230,35103,102,0,P|170:225|253:222,1,125,2|2,0:0|0:3,0:0:0:0:
309,304,35441,1,0,0:0:0:0:
305,312,35554,2,0,P|245:316|180:322,1,125,8|2,1:2|0:3,0:0:0:0:
108,376,35892,1,2,0:3:0:0:
103,384,35998,5,2,0:0:0:0:
93,306,36109,1,0,0:0:0:0:
83,227,36221,1,2,0:3:0:0:
75,149,36333,2,0,P|80:183|83:227,1,78.125,0|8,0:0|1:2,0:0:0:0:
409,384,36669,101,2,0:3:0:0:
419,306,36781,1,0,0:0:0:0:
429,227,36893,1,2,0:0:0:0:
437,149,37005,2,0,P|432:183|429:227,1,78.125,0|2,0:0|0:3,0:0:0:0:
253,3,37341,5,8,1:2:0:0:
38,92,37565,101,2,0:3:0:0:
42,104,37677,1,2,0:3:0:0:
46,117,37789,6,0,B|105:111|148:105|148:105|158:130|187:153,1,140.625005364418,2|0,0:0|0:0,0:0:0:0:
266,221,38012,2,0,P|261:185|258:166,1,46.8750017881394,2|0,0:3|0:0,0:0:0:0:
308,61,38236,102,0,P|293:124|281:189,1,131.249995994568,10|0,1:2|0:0,0:0:0:0:
162,290,38460,2,0,P|158:264|164:240,1,43.749998664856,2|0,0:3|0:0,0:0:0:0:
336,378,38684,6,0,P|285:343|229:359,1,121.874994421006,2|0,0:0|0:0,0:0:0:0:
394,282,38902,2,0,P|422:278|447:275,1,40.6249981403352,2|0,0:3|0:0,0:0:0:0:
253,121,39121,102,0,B|242:158|242:158|253:199,1,74.9999977111817,10|0,1:2|0:0,0:0:0:0:
508,122,39340,5,0,3:0:0:0:
431,140,39450,1,0,3:0:0:0:
353,160,39559,102,0,P|391:161|430:166,1,62.5,6|0,0:0|0:0,0:0:0:0:
512,46,39786,1,2,0:3:0:0:
434,253,40013,1,8,1:2:0:0:
252,124,40240,1,2,0:3:0:0:
256,134,40354,6,0,P|290:129|322:126,1,62.5,0|2,0:0|0:0,0:0:0:0:
391,8,40581,1,0,0:0:0:0:
399,12,40695,2,0,P|404:45|394:84,1,62.5,2|0,0:3|0:0,0:0:0:0:
182,57,40922,2,0,B|88:43|88:43|99:56|107:67,1,125,8|2,1:2|0:3,0:0:0:0:
107,76,41263,1,2,0:3:0:0:
110,85,41377,1,2,0:0:0:0:
283,21,41599,101,2,0:3:0:0:
207,230,41821,1,8,1:2:0:0:
31,161,42043,2,0,P|95:154|158:149,1,119.624997827854,2|2,0:3|0:0,0:0:0:0:
292,133,42488,1,2,0:3:0:0:
133,300,42712,2,0,P|130:271|122:238,1,62.5,8|0,1:2|0:0,0:0:0:0:
283,362,42936,1,2,0:3:0:0:
278,367,43048,1,2,0:3:0:0:
273,372,43160,6,0,P|275:340|277:306,1,62.5,2|0,0:0|0:0,0:0:0:0:
212,196,43385,1,2,0:3:0:0:
391,283,43611,1,8,1:2:0:0:
152,357,43836,1,2,0:3:0:0:
159,361,43949,102,0,P|154:329|148:299,1,62.5,0|2,0:0|0:0,0:0:0:0:
311,215,44175,1,0,0:0:0:0:
315,221,44287,2,0,P|321:186|332:143,1,62.5,2|0,0:3|0:0,0:0:0:0:
171,39,44513,2,0,P|105:36|69:80,1,125,8|2,1:2|0:3,0:0:0:0:
71,86,44839,1,2,0:3:0:0:
73,93,44947,1,2,0:0:0:0:
221,220,45170,5,2,0:3:0:0:
327,34,45394,2,0,B|383:24|396:64|462:52,1,125,8|2,1:2|0:3,0:0:0:0:
348,193,45730,2,0,P|345:161|340:131,1,62.5,0|2,0:0|0:0,0:0:0:0:
465,278,45954,1,0,0:0:0:0:
463,287,46066,2,0,P|460:255|455:225,1,62.5,2|0,0:3|0:0,0:0:0:0:
307,361,46290,101,8,1:2:0:0:
194,150,46514,1,2,0:3:0:0:
197,157,46617,1,2,0:3:0:0:
201,165,46720,5,2,0:0:0:0:
222,249,46839,2,0,P|260:232|302:238,1,78.125,8|0,3:2|0:0,0:0:0:0:
474,28,47069,101,0,3:0:0:0:
452,116,47174,2,0,P|413:93|370:98,1,78.125,8|0,3:2|3:0,0:0:0:0:
195,1,47394,6,0,P|198:25|202:52,2,52.0833333333333,0|0|0,3:0|3:0|3:0,0:0:0:0:
125,103,47624,101,0,1:0:0:0:
213,146,47740,2,0,B|274:122|274:122|293:51,1,125.000004768372,0|8,3:0|3:0,0:0:0:0:
81,271,47972,6,0,P|87:317|92:364,1,93.7500035762788,2|0,1:3|0:0,0:0:0:0:
80,366,48183,2,0,P|74:319|68:279,1,87.499997329712,2|0,1:3|0:0,0:0:0:0:
318,199,48406,101,8,3:2:0:0:
249,260,48517,1,8,3:2:0:0:
307,324,48628,1,8,3:2:0:0:
373,264,48739,1,8,3:0:0:0:
310,262,48850,6,0,B|362:252|403:282|403:282|450:290|500:250,1,187.5,4|8,1:2|3:0,0:0:0:0:
512,172,49205,1,8,3:0:0:0:
253,3,49422,37,4,0:0:0:0:
0,172,49652,5,2,0:3:0:0:
73,212,49883,1,2,0:2:0:0:
87,303,50114,1,2,0:3:0:0:
23,369,50332,102,0,P|27:335|32:290,1,62.5,2|2,0:2|0:3,0:0:0:0:
173,248,50776,2,0,P|166:207|161:173,1,62.5,2|2,0:2|0:3,0:0:0:0:
27,96,51220,6,0,P|81:112|140:72,1,125,2|2,0:2|0:2,0:0:0:0:
222,189,51891,2,0,P|223:173|225:158,1,20.8333333333333,2|0,0:3|0:0,0:0:0:0:
227,201,52115,101,2,0:2:0:0:
318,226,52339,1,2,0:3:0:0:
387,177,52563,1,2,0:2:0:0:
394,96,52787,1,2,0:3:0:0:
346,28,53011,6,0,P|353:112|357:166,1,125,2|2,0:2|0:2,0:0:0:0:
486,311,53682,1,2,0:3:0:0:
484,304,53794,1,0,0:0:0:0:
483,297,53906,102,0,P|451:283|408:286,1,62.5,2|2,0:2|0:3,0:0:0:0:
317,217,54354,2,0,P|314:248|310:279,1,62.5,2|2,0:2|0:3,0:0:0:0:
204,356,54791,5,2,0:2:0:0:
180,276,55014,1,2,0:3:0:0:
100,248,55237,1,2,0:2:0:0:
59,173,55461,1,2,0:3:0:0:
92,87,55684,102,0,P|107:69|87:87,1,93.75,2|0,0:2|0:0,0:0:0:0:
92,99,56131,2,0,P|97:42|61:79,1,140.625005364418,2|0,0:2|0:0,0:0:0:0:
89,114,56578,6,0,P|141:108|207:101,1,93.75,2|0,0:2|0:0,0:0:0:0:
199,114,56801,102,0,P|205:81|212:45,2,62.5,2|2|2,0:3|0:2|0:3,0:0:0:0:
339,16,57473,5,2,0:2:0:0:
368,90,57697,1,2,0:3:0:0:
251,186,57921,1,2,0:2:0:0:
222,260,58151,1,2,0:3:0:0:
395,335,58382,102,0,P|331:316|290:364,1,125,2|2,0:2|0:2,0:0:0:0:
432,237,59053,2,0,P|434:249|436:268,1,20.8333333333333,2|0,0:3|0:0,0:0:0:0:
424,230,59277,5,2,0:2:0:0:
299,139,59501,1,2,0:3:0:0:
383,82,59725,1,2,0:2:0:0:
310,236,59949,1,2,0:3:0:0:
162,167,60173,102,0,P|191:163|224:158,1,62.5,2|2,0:2|0:3,0:0:0:0:
74,257,60607,2,0,P|42:247|7:248,1,62.5,2|2,0:2|0:3,0:0:0:0:
223,158,61075,5,2,0:2:0:0:
240,238,61297,1,2,0:3:0:0:
171,296,61519,1,2,0:2:0:0:
303,97,61741,1,2,0:3:0:0:
12,136,61963,102,0,P|10:200|45:251,1,125,2|2,0:2|0:3,0:0:0:0:
161,51,62410,6,0,P|113:85|98:144,1,109.375001043081,2|2,0:2|0:3,0:0:0:0:
303,97,62858,102,0,P|242:99|216:119,1,93.7500035762788,2|2,0:2|0:3,0:0:0:0:
169,200,63209,1,8,0:0:0:0:
99,131,63326,6,0,B|109:85|109:85|154:55,1,93.7500035762788,2|0,0:0|0:0,0:0:0:0:
38,247,63543,102,0,B|1:203|1:203|13:138,1,109.375001043081,12|0,0:0|0:0,0:0:0:0:
221,360,63760,86,0,P|122:349|13:340,1,200,6|8,0:0|1:2,0:0:0:0:
174,192,64095,1,0,0:0:0:0:
229,264,64207,2,0,P|279:256|330:250,1,93.7500035762788,2|0,0:0|0:0,0:0:0:0:
344,75,64431,1,8,1:2:0:0:
342,81,64543,1,0,0:0:0:0:
341,88,64655,6,0,B|376:70|376:70|317:7|234:49,1,187.500007152558,2|10,0:0|1:2,0:0:0:0:
385,180,64991,1,0,0:0:0:0:
455,123,65103,2,0,P|470:81|462:33,1,93.7500035762788,2|2,0:0|0:0,0:0:0:0:
419,307,65327,2,0,P|468:302|515:297,1,93.7500035762788,8|2,1:2|0:0,0:0:0:0:
263,173,65551,101,2,0:0:0:0:
318,245,65662,2,0,B|270:207|208:223|208:223|180:262|128:260,1,200,2|0,0:0|0:0,0:0:0:0:
52,355,65998,2,0,P|48:300|17:249,1,93.7500035762788,2|0,0:0|0:0,0:0:0:0:
138,153,66215,2,0,P|142:203|127:247,1,93.7500035762788,10|0,1:2|0:0,0:0:0:0:
4,66,66432,5,2,0:0:0:0:
6,76,66541,1,0,0:0:0:0:
6,86,66650,2,0,P|55:77|104:68,1,93.7500035762788,8|2,1:2|0:0,0:0:0:0:
194,26,66867,2,0,P|146:33|97:42,1,93.7500035762788,2|0,0:0|0:0,0:0:0:0:
291,171,67096,2,0,P|297:124|308:79,1,93.7500035762788,8|0,1:2|0:0,0:0:0:0:
147,256,67325,102,0,P|201:267|252:280,1,93.7500035762788,2|0,0:0|0:0,0:0:0:0:
433,315,67545,1,10,1:2:0:0:
348,337,67655,1,0,0:0:0:0:
262,360,67766,2,0,P|259:308|248:264,1,93.7500035762788,2|0,0:0|0:0,0:0:0:0:
407,150,67986,2,0,P|397:196|394:252,1,93.7500035762788,10|0,1:2|0:0,0:0:0:0:
301,50,68207,6,0,B|253:63|230:103|230:103|184:75|127:82,1,187.500007152558,2|10,0:0|1:2,0:0:0:0:
57,198,68538,1,0,0:0:0:0:
50,208,68648,2,0,P|99:198|149:185,1,93.7500035762788,2|0,0:0|0:0,0:0:0:0:
200,323,68871,2,0,P|249:332|299:345,1,93.7500035762788,8|0,1:2|0:0,0:0:0:0:
346,221,69095,102,0,P|409:228|473:183,1,140.625005364418,2|0,0:0|0:0,0:0:0:0:
512,320,69320,2,0,P|511:296|508:273,1,46.8750017881394,8|0,1:2|0:0,0:0:0:0:
351,135,69546,6,0,B|292:130|271:174|191:157,1,150,2|0,0:0|0:0,0:0:0:0:
152,40,69771,2,0,P|148:64|146:89,1,50,8|0,1:2|0:0,0:0:0:0:
407,2,69997,102,0,P|400:75|389:187,1,181.250005531311,2|8,0:0|1:2,0:0:0:0:
451,278,70335,1,0,0:0:0:0:
441,273,70448,6,0,P|434:324|430:369,1,93.7500035762788,10|0,1:2|0:0,0:0:0:0:
280,150,70673,2,0,P|285:97|291:42,1,109.375001043081,10|0,1:2|0:0,0:0:0:0:
32,226,70899,102,0,B|41:207|42:179|42:179|120:222|90:324,1,200,6|8,0:0|1:2,0:0:0:0:
169,380,71232,1,0,0:0:0:0:
246,323,71343,2,0,P|301:315|352:337,1,93.7500035762788,2|0,0:0|0:0,0:0:0:0:
474,244,71565,1,8,1:2:0:0:
507,333,71676,6,0,B|484:260|535:227|505:141,1,187.500007152558
338,39,72010,1,8,1:2:0:0:
383,115,72121,1,0,0:0:0:0:
447,55,72232,2,0,P|391:59|337:41,1,100,2|0,0:0|0:0,0:0:0:0:
237,213,72454,2,0,P|246:158|253:114,1,100,10|0,1:2|0:0,0:0:0:0:
27,43,72676,102,0,B|83:51|140:27|140:27|127:77|142:123,1,200,2|10,0:0|1:2,0:0:0:0:
52,243,73011,2,0,P|39:188|21:144,1,100,0|2,0:0|0:0,0:0:0:0:
174,355,73235,2,0,P|124:362|75:382,1,100,2|10,0:0|1:2,0:0:0:0:
210,177,73459,1,2,0:0:0:0:
216,189,73571,6,0,P|273:199|315:204,1,100,2|0,0:0|0:0,0:0:0:0:
500,325,73795,1,8,1:2:0:0:
503,333,73907,1,0,0:0:0:0:
506,342,74019,2,0,L|512:231,1,93.7500035762788,2|0,0:0|0:0,0:0:0:0:
309,110,74243,2,0,P|314:151|313:215,1,93.7500035762788,10|0,1:2|0:0,0:0:0:0:
508,23,74488,102,0,P|514:73|512:116,1,93.7500035762788,8|0,1:2|0:0,0:0:0:0:
313,8,74715,1,2,0:0:0:0:
312,15,74828,1,8,1:2:0:0:
310,23,74942,2,0,P|355:29|395:44,1,87.499997329712,2|0,0:0|0:0,0:0:0:0:
163,120,75159,2,0,P|209:101|277:97,1,87.499997329712,8|0,1:2|0:0,0:0:0:0:
126,251,75376,6,0,P|156:220|194:201,1,81.2499962806703,2|0,0:0|0:0,0:0:0:0:
186,349,75603,1,2,0:0:0:0:
183,343,75716,1,0,0:0:0:0:
181,336,75830,102,0,B|159:359|147:380|147:380|111:335|126:253|198:207|272:226|321:278,1,337.499989700318,12|0,0:0|0:0,0:0:0:0:
434,364,76285,6,0,P|436:304|451:247,1,109.375001043081,12|0,0:0|0:0,0:0:0:0:
333,253,76508,2,0,P|344:199|362:148,1,109.375001043081,2|0,0:0|0:0,0:0:0:0:
95,288,76732,102,0,P|84:237|66:193,1,100,12|0,0:0|0:0,0:0:0:0:
168,166,76949,2,0,P|152:118|131:72,1,100,2|0,0:0|0:0,0:0:0:0:
253,3,77166,6,0,P|252:57|253:121,1,112.499996566773,12|0,0:0|0:0,0:0:0:0:
255,224,77396,1,2,0:0:0:0:
256,234,77512,1,8,0:0:0:0:
259,244,77627,101,12,0:0:0:0:
289,144,77738,1,8,0:0:0:0:
209,75,77850,1,8,0:0:0:0:
253,3,77962,5,8,0:0:0:0:
489,248,78322,70,0,P|484:275|480:301,1,46.8750017881394,2|0,0:3|0:0,0:0:0:0:
398,363,78766,2,0,P|393:344|389:326,1,37.4999988555909,2|0,0:3|0:0,0:0:0:0:
289,290,79210,2,0,P|285:307|282:322,1,31.25,2|0,0:3|0:0,0:0:0:0:
400,364,79637,2,0,P|395:345|391:327,1,37.4999988555909,2|0,0:3|0:0,0:0:0:0:
374,231,79801,6,0,B|304:265|304:265|213:234,1,156.25,0|2,0:0|0:3,0:0:0:0:
138,183,80141,102,0,P|133:208|128:239,1,46.8750017881394
243,112,80557,2,0,P|246:136|251:176,1,37.4999988555909,2|0,0:3|0:0,0:0:0:0:
303,11,81004,2,0,P|311:31|320:54,1,31.25,2|0,0:3|0:0,0:0:0:0:
245,114,81440,1,2,0:3:0:0:
483,170,81682,6,0,P|410:162|374:209,1,125,2|2,0:0|0:3,0:0:0:0:
434,360,82129,2,0,P|437:330|443:287,1,62.5,8|0,1:2|0:0,0:0:0:0:
263,249,82353,1,2,0:3:0:0:
262,257,82465,1,0,0:0:0:0:
261,266,82577,102,0,P|203:262|132:256,1,125,2|2,0:0|0:3,0:0:0:0:
47,302,82913,2,0,P|38:274|43:233,1,62.5,0|8,0:0|1:2,0:0:0:0:
195,86,83137,2,0,P|201:117|199:148,1,62.5,0|2,0:0|0:3,0:0:0:0:
103,125,83361,1,0,0:0:0:0:
95,119,83473,6,0,P|92:87|89:56,1,62.5,2|0,0:0|0:0,0:0:0:0:
218,239,83696,1,2,0:3:0:0:
115,383,83920,2,0,P|147:374|195:372,1,62.5,8|0,1:2|0:0,0:0:0:0:
370,252,84144,2,0,P|339:244|309:235,1,62.5,2|0,0:3|0:0,0:0:0:0:
161,146,84368,102,0,P|205:158|269:104,1,125,2|2,0:0|0:3,0:0:0:0:
367,56,84704,2,0,P|361:89|359:131,1,62.5,0|8,0:0|1:2,0:0:0:0:
312,277,84927,1,0,0:0:0:0:
308,284,85038,2,0,P|304:247|293:210,1,62.5,2|2,0:3|0:0,0:0:0:0:
253,3,85260,5,8,1:2:0:0:
256,384,85611,69,2,0:0:0:0:
152,216,85834,1,2,0:0:0:0:
339,91,86051,1,2,0:0:0:0:
338,101,86149,5,2,0:0:0:0:
108,28,86372,1,2,0:0:0:0:
394,4,86596,1,2,0:0:0:0:
288,252,86820,1,2,0:0:0:0:
212,99,87037,101,8,3:2:0:0:
208,84,87119,2,0,P|189:82|157:78,2,41.6666666666667,0|0|0,3:0|0:0|3:2,0:0:0:0:
323,138,87395,1,0,3:0:0:0:
325,129,87451,2,0,P|344:127|368:124,1,31.25,8|0,3:2|3:0,0:0:0:0:
271,278,87715,6,0,B|222:231|224:170|224:170|192:261|209:305|246:374|218:406|134:423|78:398|75:348|91:292|153:275|196:342,1,543.750016593934,6|0,3:2|0:0,2:0:0:0:
