osu file format v14

[General]
AudioFilename: audio.mp3
AudioLeadIn: 0
PreviewTime: 63306
Countdown: 0
SampleSet: Soft
StackLeniency: 0.3
Mode: 0
LetterboxInBreaks: 0
WidescreenStoryboard: 0

[Editor]
Bookmarks: 36099
DistanceSpacing: 1.1
BeatDivisor: 4
GridSize: 32
TimelineZoom: 2.699999

[Metadata]
Title:Wild Side (TV Size)
TitleUnicode:Wild Side (TV Size)
Artist:ALI
ArtistUnicode:ALI
Creator:Kroytz
Version:Shizuku's Expert
Source:BEASTARS
Tags:-Anime Ver.- ビースターズ BST BAND Version Alien Liberty International Jazz Anime Japanese English French Opening OP Night Mare Luna Yuuya_ke HowRengar Kowari DeviousPanda Kazato Asa Shizuku- BarkingMadDog BMD kimchii42 -Mikan
BeatmapID:2217595
BeatmapSetID:1055990

[Difficulty]
HPDrainRate:5
CircleSize:3.8
OverallDifficulty:8.6
ApproachRate:9.3
SliderMultiplier:1.9
SliderTickRate:1

[Events]
//Background and Video events
Video,-500,"video.mp4"
0,0,"BG.png",0,0
//Break Periods
//Storyboard Layer 0 (Background)
//Storyboard Layer 1 (Fail)
//Storyboard Layer 2 (Pass)
//Storyboard Layer 3 (Foreground)
//Storyboard Layer 4 (Overlay)
//Storyboard Sound Samples

[TimingPoints]
195,535.714285714286,4,2,6,50,1,0
563,413.793103448276,4,2,6,50,1,0
563,-57.1428571428571,4,2,6,50,0,0
666,-57.1428571428571,4,2,20,5,0,0
769,-57.1428571428571,4,2,6,50,0,0
873,-57.1428571428571,4,2,20,5,0,0
976,-57.1428571428571,4,2,6,50,0,0
1080,-57.1428571428571,4,2,20,5,0,0
1222,419.58041958042,4,2,6,50,1,0
1222,-57.1428571428571,4,2,6,50,0,0
1641,428.571428571429,4,2,6,50,1,0
1855,495.867768595041,4,2,6,50,1,0
1978,431.654676258993,4,2,6,50,1,0
1978,-57.1428571428571,4,2,6,50,0,0
2409,465.116279069767,4,2,6,50,1,0
2641,483.870967741935,4,2,6,80,1,1
2641,-37.4,4,2,6,80,0,1
3124,461.538461538462,4,2,6,80,1,1
3470,379.746835443038,4,2,6,80,1,1
3659,504.201680672269,4,2,3,35,1,0
4037,468.75,4,2,3,35,1,0
4505,413.793103448276,4,2,3,35,1,0
4918,508.474576271186,4,2,3,35,1,0
5299,427.046263345196,4,2,3,35,1,0
5512,434.782608695652,4,2,3,35,1,0
5512,-83.3333333333333,4,2,3,35,0,0
5675,-83.3333333333333,4,2,20,5,0,0
5838,419.58041958042,4,2,1,35,1,0
6257,431.654676258993,4,2,1,35,1,0
6688,487.80487804878,4,2,1,35,1,0
7053,465.116279069767,4,2,1,35,1,0
7285,413.793103448276,4,2,1,35,1,0
7285,-83.3333333333333,4,2,1,35,0,0
7440,-83.3333333333333,4,2,20,5,0,0
7595,434.782608695652,4,2,1,35,1,0
8029,441.176470588235,4,2,1,35,1,0
8470,517.241379310345,4,2,1,35,1,0
8857,454.545454545455,4,2,1,35,1,0
9084,413.793103448276,4,2,1,35,1,0
9084,-83.3333333333333,4,2,1,35,0,0
9239,-83.3333333333333,4,2,20,5,0,0
9394,428.571428571429,4,2,1,35,1,0
9822,437.956204379562,4,2,1,35,1,0
10259,512.820512820513,4,2,1,35,1,0
10643,425.531914893617,4,2,1,35,1,0
10855,392.156862745098,4,2,1,35,1,0
10953,447.761194029851,4,2,1,50,1,0
12296,425.531914893617,4,2,1,50,1,0
12721,447.761194029851,4,2,1,50,1,0
13616,442.80442804428,4,2,1,50,1,0
14501,437.956204379562,4,2,1,50,1,0
14938,447.761194029851,4,2,1,50,1,0
15385,-76.9230769230769,4,2,1,50,0,0
16281,447.761194029851,4,2,1,50,1,0
16728,-76.9230769230769,4,2,1,50,0,0
17400,-111.111111111111,4,2,1,50,0,0
17624,461.538461538462,4,2,1,50,1,0
17624,-55.5555555555556,4,2,1,50,0,0
18085,447.761194029851,4,2,2,50,1,0
18085,-66.6666666666667,4,2,2,50,0,0
18308,-66.6666666666667,4,2,1,50,0,0
18980,-66.6666666666667,4,2,1,50,0,0
19876,454.545454545455,4,2,1,50,1,0
20330,447.761194029851,4,2,1,50,1,0
20777,-66.6666666666667,4,2,1,50,0,0
21673,444.444444444444,4,2,1,50,1,0
22117,-66.6666666666667,4,2,1,50,0,0
22673,-66.6666666666667,4,2,1,50,0,0
23012,447.761194029851,4,2,1,50,1,0
23123,-66.6666666666667,4,2,1,50,0,0
23463,449.438202247191,4,2,1,50,1,0
23912,-66.6666666666667,4,2,1,50,0,0
24811,434.782608695652,4,2,1,50,1,0
24811,-50,4,2,1,50,0,0
25245,461.538461538462,4,2,4,50,1,0
25245,-66.6666666666667,4,2,4,50,0,0
25475,-66.6666666666667,4,2,1,50,0,0
25594,-66.6666666666667,4,2,10,50,0,0
25706,444.444444444444,4,2,6,50,1,0
25706,-66.6666666666667,4,2,6,50,0,0
25928,-66.6666666666667,4,2,1,50,0,0
26150,-66.6666666666667,4,2,4,50,0,0
26372,-66.6666666666667,4,2,1,50,0,0
26594,-66.6666666666667,4,2,6,50,0,0
26817,-66.6666666666667,4,2,1,50,0,0
26928,-66.6666666666667,4,2,10,50,0,0
27039,447.761194029851,4,2,1,50,1,0
27039,-66.6666666666667,4,2,1,50,0,0
27486,-66.6666666666667,4,2,6,50,0,0
27934,-66.6666666666667,4,2,1,50,0,0
28382,-66.6666666666667,4,2,1,50,0,0
28830,-66.6666666666667,4,2,4,50,0,0
29053,-66.6666666666667,4,2,1,50,0,0
29165,-66.6666666666667,4,2,10,50,0,0
29277,-66.6666666666667,4,2,1,50,0,0
29389,-66.6666666666667,4,2,10,50,0,0
29501,-66.6666666666667,4,2,1,50,0,0
29725,434.782608695652,4,2,4,50,1,0
29725,-66.6666666666667,4,2,4,50,0,0
30051,-66.6666666666667,4,2,1,50,0,0
30159,-66.6666666666667,4,2,6,50,0,0
30377,-66.6666666666667,4,2,1,50,0,0
30485,-66.6666666666667,4,2,10,50,0,0
30594,468.75,4,2,1,50,1,0
30594,-66.6666666666667,4,2,1,50,0,0
30945,-66.6666666666667,4,2,10,50,0,0
31062,447.761194029851,4,2,6,50,1,0
31062,-66.6666666666667,4,2,6,50,0,0
31285,-66.6666666666667,4,2,1,50,0,0
31957,454.545454545455,4,2,1,50,1,0
32070,-66.6666666666667,4,2,1,50,0,0
32411,451.127819548872,4,2,4,50,1,0
32411,-57.1428571428571,4,2,4,50,0,0
32749,-57.1428571428571,4,2,10,50,0,0
32862,-57.1428571428571,4,2,1,50,0,0
32974,-57.1428571428571,4,2,10,50,0,0
33200,-57.1428571428571,4,2,1,50,0,0
33313,-57.1428571428571,4,2,4,50,0,0
33538,-57.1428571428571,4,2,1,50,0,0
33764,437.956204379562,4,2,6,50,1,0
33764,-57.1428571428571,4,2,6,50,0,0
33982,-57.1428571428571,4,2,1,50,0,0
34092,-57.1428571428571,4,2,10,50,0,0
34201,451.127819548872,4,2,1,50,1,0
34201,-57.1428571428571,4,2,1,50,0,0
34539,-57.1428571428571,4,2,10,50,0,0
34652,-57.1428571428571,4,2,6,50,0,0
34877,-57.1428571428571,4,2,1,50,0,0
35103,-57.1428571428571,4,2,1,50,0,0
35998,447.761194029851,4,2,4,50,1,0
35998,-50,4,2,4,50,0,0
36109,-50,4,2,10,50,0,0
36221,-50,4,2,10,50,0,0
36333,-100,4,2,10,50,0,0
36445,-100,4,2,6,50,0,0
36669,-50,4,2,10,50,0,0
36781,-50,4,2,10,50,0,0
36893,-50,4,2,4,50,0,0
37005,-100,4,2,10,50,0,0
37229,-100,4,2,1,50,0,0
37341,-71.4285714285714,4,2,1,50,0,0
37789,-50,4,2,4,50,0,0
38012,-50,4,2,1,50,0,0
38236,-58.8235294117647,4,2,6,50,0,0
38460,-58.8235294117647,4,2,1,50,0,0
38684,437.956204379562,4,2,4,50,1,0
38684,-71.4285714285714,4,2,4,50,0,0
38902,-71.4285714285714,4,2,1,50,0,0
39121,-90.9090909090909,4,2,6,50,0,0
39340,-90.9090909090909,4,2,6,50,0,0
39559,454.545454545455,4,2,1,50,1,0
39559,-66.6666666666667,4,2,1,50,0,0
41036,-66.6666666666667,4,2,1,50,0,0
41377,444.444444444444,4,2,1,50,1,0
41377,-66.6666666666667,4,2,1,50,0,0
42265,447.761194029851,4,2,1,50,1,0
42488,-66.6666666666667,4,2,1,50,0,0
43160,451.127819548872,4,2,1,50,1,0
43160,-66.6666666666667,4,2,1,50,0,0
44513,434.782608695652,4,2,1,50,1,0
44621,-66.6666666666667,4,2,1,50,0,0
44947,447.761194029851,4,2,1,50,1,0
44947,-66.6666666666667,4,2,1,50,0,0
46514,413.793103448276,4,2,1,50,1,0
46720,476.190476190476,4,2,1,50,1,0
46839,461.538461538462,4,2,1,50,1,0
46839,-55.5555555555556,4,2,1,50,0,0
47069,421.052631578947,4,2,1,50,1,0
47174,441.176470588235,4,2,1,50,1,0
47174,-55.5555555555556,4,2,1,50,0,0
47394,461.538461538462,4,2,1,50,1,0
47740,387.096774193548,4,2,1,50,1,0
47740,-62.5,4,2,1,50,0,0
47836,545.454545454546,4,2,1,50,1,0
47972,422.535211267606,4,2,3,50,1,0
47972,-55.5555555555556,4,2,3,50,0,0
48183,447.761194029851,4,2,3,50,1,0
48183,-55.5555555555556,4,2,3,50,0,0
48406,444.444444444444,4,2,1,50,1,0
48406,-55.5555555555556,4,2,1,50,0,0
48850,500,4,2,1,50,1,0
48850,-66.6666666666667,4,2,1,50,0,0
49100,422.535211267606,4,2,1,50,1,0
49205,434.782608695652,4,2,1,50,1,0
49205,-66.6666666666667,4,2,1,50,0,0
49422,461.538461538462,4,2,2,50,1,0
49422,-125,4,2,2,50,0,0
49652,-125,4,2,3,50,0,0
50114,437.956204379562,4,2,3,50,1,0
50332,444.444444444444,4,2,3,50,1,0
51220,447.761194029851,4,2,3,50,1,0
51220,-125,4,2,3,50,0,0
52115,-125,4,2,3,50,0,0
53011,-125,4,2,3,50,0,0
53906,-125,4,2,3,50,0,0
54354,437.956204379562,4,2,3,50,1,0
54354,-125,4,2,3,50,0,0
54791,446.927374301676,4,2,3,50,1,0
54791,-125,4,2,3,50,0,0
56578,447.761194029851,4,2,3,50,1,0
57921,461.538461538462,4,2,3,50,1,0
57921,-125,4,2,3,50,0,0
58382,447.761194029851,4,2,3,50,1,0
58382,-90.9090909090909,4,2,3,50,0,0
59277,-86.9565217391304,4,2,3,50,0,0
60173,434.782608695652,4,2,3,50,1,0
60173,-86.9565217391304,4,2,3,50,0,0
60607,468.75,4,2,3,50,1,0
61075,444.444444444444,4,2,3,60,1,0
61075,-86.9565217391304,4,2,3,60,0,0
61963,447.761194029851,4,2,3,60,1,0
61963,-80,4,2,3,60,0,0
62298,-80,4,2,3,5,0,0
62410,-66.6666666666667,4,2,3,60,0,0
62746,-66.6666666666667,4,2,3,5,0,0
62858,468.75,4,2,3,60,1,0
62858,-57.1428571428571,4,2,3,60,0,0
63209,-57.1428571428571,4,2,1,60,0,0
63326,434.782608695652,4,2,1,70,1,0
63326,-50,4,2,1,70,0,0
63543,-50,4,2,5,70,0,0
63760,447.761194029851,4,2,4,80,1,1
63760,-45.4545454545455,4,2,4,80,0,1
63983,-45.4545454545455,4,2,1,80,0,1
64207,-45.4545454545455,4,2,4,80,0,1
64319,-45.4545454545455,4,2,1,80,0,1
64655,-45.4545454545455,4,2,4,80,0,1
64879,-45.4545454545455,4,2,6,80,0,1
64991,-45.4545454545455,4,2,10,80,0,1
65103,-45.4545454545455,4,2,1,80,0,1
65215,-45.4545454545455,4,2,6,80,0,1
65551,-45.4545454545455,4,2,1,80,0,1
65998,434.782608695652,4,2,4,80,1,1
65998,-45.4545454545455,4,2,4,80,0,1
66106,-45.4545454545455,4,2,1,80,0,1
66215,-45.4545454545455,4,2,6,80,0,1
66324,-45.4545454545455,4,2,6,80,0,1
66432,-45.4545454545455,4,2,4,80,0,1
66650,-45.4545454545455,4,2,1,80,0,1
66758,-45.4545454545455,4,2,6,80,0,1
66867,458.015267175573,4,2,4,80,1,1
66867,-45.4545454545455,4,2,4,80,0,1
66981,-45.4545454545455,4,2,1,80,0,1
67096,-45.4545454545455,4,2,1,80,0,1
67325,441.176470588235,4,2,4,80,1,1
67325,-45.4545454545455,4,2,4,80,0,1
67545,-45.4545454545455,4,2,6,80,0,1
67655,-45.4545454545455,4,2,1,80,0,1
67766,-45.4545454545455,4,2,4,80,0,1
67876,-45.4545454545455,4,2,1,80,0,1
67986,-45.4545454545455,4,2,6,80,0,1
68097,-45.4545454545455,4,2,1,80,0,1
68207,-45.4545454545455,4,2,4,80,0,1
68427,-45.4545454545455,4,2,6,80,0,1
68538,-45.4545454545455,4,2,1,80,0,1
68648,447.761194029851,4,2,4,80,1,1
68648,-45.4545454545455,4,2,4,80,0,1
68871,-45.4545454545455,4,2,1,80,0,1
69095,451.127819548872,4,2,4,80,1,1
69095,-45.4545454545455,4,2,4,80,0,1
69320,-45.4545454545455,4,2,1,80,0,1
69546,-45.4545454545455,4,2,4,80,0,1
69771,-45.4545454545455,4,2,1,80,0,1
69997,-45.4545454545455,4,2,4,80,0,1
70222,-45.4545454545455,4,2,1,80,0,1
70448,-45.4545454545455,4,2,6,80,0,1
70786,-45.4545454545455,4,2,6,80,0,0
70899,444.444444444444,4,2,4,80,1,1
70899,-45.4545454545455,4,2,4,80,0,1
71121,-45.4545454545455,4,2,1,80,0,1
71343,-45.4545454545455,4,2,4,80,0,1
71454,-45.4545454545455,4,2,1,80,0,1
71565,-45.4545454545455,4,2,1,80,0,1
72232,-45.4545454545455,4,2,4,80,0,1
72343,-45.4545454545455,4,2,1,80,0,1
72454,-45.4545454545455,4,2,6,80,0,1
72676,447.761194029851,4,2,4,80,1,1
72676,-45.4545454545455,4,2,4,80,0,1
72787,-45.4545454545455,4,2,1,80,0,1
72899,-45.4545454545455,4,2,6,80,0,1
73123,-45.4545454545455,4,2,4,80,0,1
73235,-45.4545454545455,4,2,6,80,0,1
73795,-45.4545454545455,4,2,1,80,0,1
74019,-45.4545454545455,4,2,4,80,0,1
74243,491.803278688525,4,2,6,80,1,1
74488,454.545454545455,4,2,5,80,1,1
74488,-45.4545454545455,4,2,5,80,0,1
74715,-45.4545454545455,4,2,1,80,0,1
74942,434.782608695652,4,2,1,80,1,1
74942,-45.4545454545455,4,2,1,80,0,1
75376,454.545454545455,4,2,1,80,1,1
75376,-45.4545454545455,4,2,1,80,0,1
75830,-45.4545454545455,4,2,5,80,0,1
76171,-45.4545454545455,4,2,20,5,0,1
76285,447.761194029851,4,2,1,80,1,1
76285,-45.4545454545455,4,2,1,80,0,1
76732,434.782608695652,4,2,1,80,1,1
76732,-45.4545454545455,4,2,1,80,0,1
77166,461.538461538462,4,2,1,80,1,1
77166,-45.4545454545455,4,2,1,80,0,1
77627,447.761194029851,4,2,1,80,1,1
77627,-45.4545454545455,4,2,1,80,0,1
77962,480,4,2,1,80,1,0
77962,-45.4545454545455,4,2,1,80,0,0
78322,444.444444444444,4,2,1,35,1,0
79210,491.803278688525,4,2,1,35,1,0
79578,447.761194029851,4,2,1,35,1,0
79637,461.538461538462,4,2,1,35,1,0
79801,454.545454545455,4,2,1,35,1,0
79801,-111.111111111111,4,2,1,35,0,0
80028,-111.111111111111,4,2,20,5,0,0
80088,-111.111111111111,4,2,1,35,0,0
80141,416.666666666667,4,2,1,35,1,0
80557,447.761194029851,4,2,1,35,1,0
81004,491.803278688525,4,2,1,35,1,0
81372,461.538461538462,4,2,1,35,1,0
81440,461.538461538462,4,2,1,35,1,0
81602,322.58064516129,4,2,1,35,1,0
81682,447.761194029851,4,2,1,50,1,0
81682,-66.6666666666667,4,2,1,50,0,0
82017,-66.6666666666667,4,2,1,50,0,0
82129,-66.6666666666667,4,2,1,50,0,0
83137,-66.6666666666667,4,2,1,50,0,0
83361,-66.6666666666667,4,2,1,50,0,0
83473,-66.6666666666667,4,2,1,50,0,0
84816,444.444444444444,4,2,1,50,1,0
84927,-66.6666666666667,4,2,1,50,0,0
85260,468.75,4,2,1,50,1,0
85260,-33.3333333333333,4,2,1,50,0,0
85377,-33.3333333333333,4,2,20,5,0,0
85611,447.761194029851,4,2,6,60,1,0
85611,-33.3333333333333,4,2,6,60,0,0
85834,434.782608695652,4,2,6,60,1,0
85834,-33.3333333333333,4,2,6,60,0,0
86051,394.736842105263,4,2,6,60,1,0
86149,447.761194029851,4,2,6,60,1,0
86820,434.782608695652,4,2,6,60,1,0
87037,495.867768595041,4,2,6,60,1,0
87284,447.761194029851,4,2,6,60,1,0
87715,447.761194029851,4,2,1,80,1,0
87715,-45.4545454545455,4,2,1,80,0,0
88386,-45.4545454545455,4,2,1,20,0,0

[Colours]
Combo1 : 108,0,54
Combo2 : 0,64,128
Combo3 : 0,128,192
Combo4 : 255,255,70
Combo5 : 0,210,0
Combo6 : 192,192,192
Combo7 : 139,139,139
Combo8 : 155,0,0

[HitObjects]
326,160,195,101,2,0:0:0:0:
379,54,328,1,2,0:0:0:0:
379,54,563,6,0,P|419:59|450:85,1,83.1250007927418,2|0,0:0|0:0,0:0:0:0:
242,77,769,2,0,P|259:39|294:18,1,83.1250007927418,2|0,0:0|0:0,0:0:0:0:
221,213,976,2,0,P|191:184|181:145,1,83.1250007927418,2|0,0:0|0:0,0:0:0:0:
326,160,1222,101,2,0:0:0:0:
338,232,1326,1,2,0:0:0:0:
305,297,1431,1,2,0:0:0:0:
240,330,1536,1,2,0:0:0:0:
168,319,1641,1,2,0:0:0:0:
116,267,1748,1,2,0:0:0:0:
104,195,1855,1,2,0:0:0:0:
136,129,1978,6,0,L|125:71,2,55.4166671951612,0|0|0,3:2|3:2|3:2,0:0:0:0:
105,30,2193,101,0,3:2:0:0:
121,46,2265,5,0,3:2:0:0:
144,51,2337,101,0,3:2:0:0:
166,43,2409,5,0,3:2:0:0:
322,134,2641,102,0,B|395:110|395:164|462:135|462:135|451:226|373:261|316:231|316:231|305:281|320:320|320:320|276:333|256:381|256:381|236:333|192:320|192:320|207:281|196:231|196:231|139:261|61:226|50:135|50:135|117:164|117:110|190:134,1,1068.75,6|2,1:2|1:3,0:0:0:0:
416,25,4037,21,0,0:0:0:0:
416,25,4505,1,0,0:0:0:0:
416,25,4918,1,0,0:0:0:0:
416,25,5299,5,0,0:0:0:0:
416,25,5512,2,0,P|379:48|339:45,1,85.4999973907472
269,154,5838,101,0,0:0:0:0:
269,154,6257,1,0,0:0:0:0:
269,154,6688,1,0,0:0:0:0:
269,154,7053,5,0,0:0:0:0:
269,154,7285,2,0,P|232:131|192:134,1,85.4999973907472
95,13,7595,101,0,0:0:0:0:
95,13,8029,1,0,0:0:0:0:
95,13,8470,1,0,0:0:0:0:
95,13,8857,5,0,0:0:0:0:
95,13,9084,2,0,P|118:50|115:90,1,85.4999973907472
64,194,9394,101,0,0:0:0:0:
64,194,9822,1,0,0:0:0:0:
64,194,10259,1,0,0:0:0:0:
64,194,10643,5,0,0:0:0:0:
94,355,10855,101,0,0:0:0:0:
94,355,10953,2,0,P|118:314|116:268,1,95,2|2,0:0|0:3,0:0:0:0:
64,194,11288,1,0,0:0:0:0:
64,194,11400,2,0,L|55:99,1,95,2|2,0:0|0:3,0:0:0:0:
260,59,11848,6,0,L|269:154,1,95,2|2,0:0|0:3,0:0:0:0:
205,261,12184,2,0,L|200:214,1,47.5,0|2,0:0|0:0,0:0:0:0:
352,246,12402,2,0,L|347:199,1,47.5,0|2,0:0|0:3,0:0:0:0:
260,59,12615,1,0,0:0:0:0:
260,59,12721,102,0,P|302:80|349:78,1,95,2|2,0:0|0:3,0:0:0:0:
411,24,13056,1,0,0:0:0:0:
411,24,13168,1,2,0:0:0:0:
443,238,13392,2,0,L|448:191,1,47.5,2|0,0:3|0:0,0:0:0:0:
457,109,13616,1,2,0:0:0:0:
433,326,13837,6,0,L|386:321,1,47.5,2|0,0:3|0:0,0:0:0:0:
304,312,14058,1,2,0:0:0:0:
304,312,14169,2,0,L|257:317,1,47.5,0|2,0:0|0:3,0:0:0:0:
191,369,14390,1,0,0:0:0:0:
191,369,14501,102,0,B|171:329|171:329|182:280,1,95,2|2,0:0|0:3,0:0:0:0:
122,226,14829,1,0,0:0:0:0:
122,226,14938,1,2,0:0:0:0:
102,49,15161,2,0,L|107:96,1,47.5,2|0,0:3|0:0,0:0:0:0:
122,226,15385,1,2,0:0:0:0:
107,96,15609,6,0,L|168:90,1,61.7499971733095,2|0,0:3|0:0,0:0:0:0:
244,52,15833,1,2,0:0:0:0:
304,112,15945,2,0,P|365:113|415:78,1,123.499994346619
443,238,16281,101,2,0:0:0:0:
356,228,16392,1,0,0:0:0:0:
270,218,16504,1,2,0:3:0:0:
270,218,16728,6,0,L|276:279,1,61.7499971733095,2|0,0:0|0:0,0:0:0:0:
191,293,16952,2,0,L|185:232,1,61.7499971733095,2|0,0:3|0:0,0:0:0:0:
13,88,17176,101,2,0:0:0:0:
103,46,17288,1,0,0:0:0:0:
170,118,17400,1,2,0:3:0:0:
121,204,17512,1,2,0:3:0:0:
24,186,17624,2,0,B|162:154|131:256|269:217,1,256.499992172241,4|0,0:0|0:0,0:0:0:0:
308,142,18085,6,0,L|328:283,1,142.500005435944,4|2,0:0|0:3,0:0:0:0:
478,321,18420,1,0,0:0:0:0:
429,188,18532,2,0,L|419:258,1,71.2500027179719,8|0,1:2|0:0,0:0:0:0:
338,353,18756,2,0,L|328:282,1,71.2500027179719,2|0,0:3|0:0,0:0:0:0:
355,67,18980,102,0,P|298:107|230:94,1,142.500005435944,2|2,0:0|0:3,0:0:0:0:
163,30,19316,1,0,0:0:0:0:
80,51,19428,2,0,P|23:90|11:159,1,142.500005435944,8|2,1:2|0:3,0:0:0:0:
95,185,19764,1,2,0:3:0:0:
26,245,19876,5,2,0:0:0:0:
65,270,19989,1,0,0:0:0:0:
112,273,20103,1,2,0:3:0:0:
154,253,20216,1,0,0:0:0:0:
95,185,20330,101,8,1:2:0:0:
112,273,20441,1,0,0:0:0:0:
129,361,20553,1,2,0:3:0:0:
129,361,20777,6,0,L|199:351,1,71.2500027179719,2|0,0:0|0:0,0:0:0:0:
257,273,21001,2,0,L|327:283,1,71.2500027179719,2|0,0:3|0:0,0:0:0:0:
425,369,21225,1,8,1:2:0:0:
425,369,21337,2,0,L|415:299,1,71.2500027179719,0|2,0:0|0:3,0:0:0:0:
505,248,21561,1,2,0:3:0:0:
505,248,21673,101,2,0:0:0:0:
476,157,21784,1,0,0:0:0:0:
434,164,21895,1,2,0:3:0:0:
393,149,22006,1,0,0:0:0:0:
355,67,22117,2,0,L|285:77,1,71.2500027179719,8|0,1:2|0:0,0:0:0:0:
182,29,22339,1,2,0:3:0:0:
182,29,22450,6,0,P|196:62|195:97,1,71.2500027179719,0|2,0:0|0:0,0:0:0:0:
97,49,22673,2,0,P|96:84|110:116,1,71.2500027179719,0|2,0:0|0:3,0:0:0:0:
45,179,22895,1,0,0:0:0:0:
76,325,23012,101,8,1:2:0:0:
76,325,23123,2,0,L|86:255,2,71.2500027179719,0|2|2,0:0|0:3|0:3,0:0:0:0:
45,179,23463,5,2,0:0:0:0:
86,254,23575,1,0,0:0:0:0:
129,242,23687,1,2,0:3:0:0:
172,230,23800,1,0,0:0:0:0:
247,268,23912,2,0,P|225:296|193:310,1,71.2500027179719,8|0,1:2|0:0,0:0:0:0:
167,146,24137,2,0,P|202:150|230:170,1,71.2500027179719,2|0,0:3|0:0,0:0:0:0:
247,268,24361,101,2,0:0:0:0:
182,29,24586,1,2,0:3:0:0:
247,268,24811,2,0,B|283:233|340:234|375:268|375:268|411:303|468:302|503:268,1,285,8|2,3:2|3:0,0:0:0:0:
489,89,25245,6,0,B|451:109|451:109|438:208,1,142.500005435944,6|2,0:0|0:3,0:0:0:0:
247,268,25591,1,0,0:0:0:0:
247,268,25706,2,0,L|237:198,1,71.2500027179719,8|2,1:2|0:0,0:0:0:0:
346,95,25928,2,0,L|336:165,1,71.2500027179719,2|0,0:3|0:0,0:0:0:0:
247,268,26150,101,2,0:0:0:0:
222,115,26372,1,2,0:3:0:0:
247,268,26594,2,0,B|177:247|177:296|107:269,1,142.500005435944,10|2,1:2|0:3,0:0:0:0:
0,128,26928,1,2,0:3:0:0:
0,128,27039,6,0,B|39:106|39:106|86:137|70:190,1,142.500005435944,2|2,0:0|0:3,0:0:0:0:
7,324,27486,2,0,P|22:232|108:269,1,213.750008153916,10|0,1:2|0:0,0:0:0:0:
141,378,27934,2,0,B|199:367|199:367|208:369|208:369|281:355,1,142.500005435944,2|2,0:0|0:3,0:0:0:0:
360,328,28270,1,0,0:0:0:0:
427,374,28382,2,0,P|439:341|437:306,1,71.2500027179719,8|0,1:2|0:0,0:0:0:0:
501,203,28606,1,2,0:3:0:0:
410,216,28718,1,2,0:3:0:0:
332,163,28830,102,0,P|307:97|332:32,1,142.500005435944,2|2,0:0|0:3,0:0:0:0:
413,19,29165,1,0,0:0:0:0:
473,74,29277,2,0,P|444:94|409:98,1,71.2500027179719,8|0,1:2|0:0,0:0:0:0:
413,19,29501,1,2,0:3:0:0:
109,51,29725,6,0,B|135:-5|180:25|202:16|202:16|202:42|224:76|177:111,1,213.750008153916,2|0,0:0|0:0,0:0:0:0:
128,186,30159,2,0,P|72:145|3:155,1,142.500005435944,10|2,1:2|0:3,0:0:0:0:
113,316,30485,1,2,0:3:0:0:
113,316,30594,2,0,B|144:274|144:274|128:186,1,142.500005435944,2|2,0:0|0:3,0:0:0:0:
208,171,30945,1,0,0:0:0:0:
208,171,31062,2,0,B|226:259|226:259|271:286,1,142.500005435944,10|2,1:2|0:3,0:0:0:0:
457,245,31509,101,2,0:0:0:0:
271,286,31733,1,2,0:3:0:0:
457,245,31957,1,8,1:2:0:0:
457,245,32070,2,0,P|462:210|453:176,1,71.2500027179719,0|2,0:0|0:3,0:0:0:0:
512,89,32297,1,2,0:3:0:0:
512,89,32411,6,0,P|424:143|423:40,1,249.375002378225,2|0,0:0|0:0,0:0:0:0:
301,15,32862,1,8,1:2:0:0:
301,15,32974,2,0,P|300:84|241:47,1,166.250001585484
142,70,33313,2,0,B|136:15|180:-6|180:-6|154:22|161:63,1,166.250001585484,2|2,0:0|0:3,0:0:0:0:
186,150,33651,1,0,0:0:0:0:
186,150,33764,2,0,B|124:177|79:134|79:134|39:165,1,166.250001585484,10|2,1:2|0:3,0:0:0:0:
19,332,34092,1,2,0:3:0:0:
19,332,34201,102,0,B|100:318|100:318|86:235,1,166.250001585484,2|2,0:0|0:3,0:0:0:0:
186,150,34539,1,0,0:0:0:0:
186,150,34652,2,0,B|267:164|267:164|253:247,1,166.250001585484,10|2,1:2|0:3,0:0:0:0:
199,382,34990,1,0,0:0:0:0:
199,382,35103,2,0,L|185:300,1,83.1250007927418,2|0,0:0|0:0,0:0:0:0:
252,246,35328,1,2,0:3:0:0:
469,284,35554,2,0,L|305:313,1,166.250001585484,8|2,1:2|0:3,0:0:0:0:
252,246,35892,1,2,0:3:0:0:
319,193,35998,5,2,0:2:0:0:
333,197,36109,1,0,0:0:0:0:
347,201,36221,1,2,0:3:0:0:
420,149,36333,2,0,L|466:159,1,47.5,0|8,0:0|1:2,0:0:0:0:
330,91,36669,101,2,0:3:0:0:
316,95,36781,1,0,0:0:0:0:
302,99,36893,1,2,0:0:0:0:
234,47,37005,2,0,L|141:64,1,95
103,198,37341,6,0,B|168:208|168:208|180:141,1,132.999995941162,8|2,1:2|0:3,0:0:0:0:
141,64,37677,1,2,0:3:0:0:
302,99,37789,102,0,P|380:71|336:0,1,190,2|2,0:0|0:3,0:0:0:0:
336,0,38124,1,0,0:0:0:0:
262,176,38236,6,0,P|343:192|415:166,1,161.500003080368,10|2,1:2|0:3,0:0:0:0:
476,104,38572,1,0,0:0:0:0:
466,232,38684,102,0,L|457:367,1,132.999995941162,2|2,0:0|0:3,0:0:0:0:
457,364,39012,1,0,0:0:0:0:
374,266,39121,2,0,L|371:318,1,52.2500015945435,10|0,1:2|0:0,0:0:0:0:
273,353,39340,1,0,3:0:0:0:
268,264,39450,1,0,3:0:0:0:
262,176,39559,6,0,B|192:156|192:156|130:189|130:189|62:168,1,213.750008153916,6|0,0:0|0:0,0:0:0:0:
62,168,40013,1,8,1:2:0:0:
112,30,40240,1,2,0:3:0:0:
112,30,40354,1,0,0:0:0:0:
112,30,40468,2,0,L|121:100,2,71.2500027179719,2|0|2,0:0|0:0|0:3,0:0:0:0:
262,176,40922,1,8,1:2:0:0:
312,57,41036,2,0,B|274:78|274:78|262:177,1,142.500005435944,0|2,0:0|0:3,0:0:0:0:
199,250,41377,102,0,P|257:212|326:225,1,142.500005435944,2|2,0:0|0:3,0:0:0:0:
285,367,41710,1,0,0:0:0:0:
285,367,41821,2,0,L|276:297,1,71.2500027179719,8|0,1:2|0:0,0:0:0:0:
426,348,42043,2,0,L|284:366,1,142.500005435944,2|2,0:3|0:0,0:0:0:0:
128,259,42488,2,0,L|198:250,1,71.2500027179719,2|0,0:3|0:0,0:0:0:0:
262,176,42712,1,8,1:2:0:0:
311,56,42824,2,0,B|273:77|273:77|261:176,1,142.500005435944,0|2,0:0|0:3,0:0:0:0:
179,163,43160,6,0,B|193:64|193:64|161:34,1,142.500005435944,2|2,0:0|0:3,0:0:0:0:
42,85,43498,1,0,0:0:0:0:
42,85,43611,2,0,P|73:102|108:103,1,71.2500027179719,8|0,1:2|0:0,0:0:0:0:
179,163,43836,2,0,P|115:192|45:184,1,142.500005435944,2|2,0:3|0:0,0:0:0:0:
44,183,44287,2,0,L|53:253,1,71.2500027179719,2|0,0:3|0:0,0:0:0:0:
126,300,44513,1,8,1:2:0:0:
7,350,44621,2,0,B|28:312|28:312|127:300,1,142.500005435944,0|2,0:0|0:3,0:0:0:0:
186,366,44947,102,0,P|214:303|189:238,1,142.500005435944,2|2,0:0|0:3,0:0:0:0:
126,300,45282,1,0,0:0:0:0:
126,300,45394,1,8,1:2:0:0:
261,175,45618,2,0,L|334:184,1,71.2500027179719,2|0,0:3|0:0,0:0:0:0:
419,195,45842,1,2,0:0:0:0:
511,153,45954,1,0,0:0:0:0:
511,153,46066,2,0,P|443:164|386:120,1,142.500005435944,2|8,0:3|1:2,0:0:0:0:
451,11,46402,2,0,L|460:81,1,71.2500027179719,0|2,0:0|0:3,0:0:0:0:
439,324,46720,5,2,0:0:0:0:
419,195,46839,2,0,P|387:222|376:263,1,85.4999973907472,8|0,3:2|0:0,0:0:0:0:
261,175,47069,101,0,3:0:0:0:
238,298,47174,2,0,P|205:271|195:231,1,85.4999973907472,8|0,3:2|3:0,0:0:0:0:
172,67,47394,5,0,3:0:0:0:
143,91,47470,1,0,3:0:0:0:
107,101,47547,1,0,3:0:0:0:
70,93,47624,101,0,1:0:0:0:
261,175,47740,2,0,L|270:99,1,75.9999976806641,0|8,3:0|3:0,0:0:0:0:
64,269,47972,2,0,L|52:184,1,85.4999973907472,2|0,1:3|0:0,0:0:0:0:
227,383,48183,2,0,L|238:298,1,85.4999973907472,2|0,1:3|0:0,0:0:0:0:
261,175,48406,5,8,3:2:0:0:
195,231,48517,1,8,3:2:0:0:
343,205,48628,1,8,3:2:0:0:
246,90,48739,1,8,3:0:0:0:
261,175,48850,101,4,1:2:0:0:
261,175,49100,5,8,3:0:0:0:
424,235,49205,2,0,P|451:211|465:179,1,71.2500027179719,8|0,3:0|0:0,0:0:0:0:
466,41,49422,37,4,0:0:0:0:
411,111,49652,1,2,0:3:0:0:
325,132,49883,1,2,0:2:0:0:
246,90,50114,1,2,0:3:0:0:
91,10,50332,5,2,0:2:0:0:
161,65,50554,1,2,0:3:0:0:
182,151,50776,1,2,0:2:0:0:
140,230,50998,1,2,0:3:0:0:
9,272,51220,102,0,P|66:224|140:230,1,152,2|2,0:2|0:2,0:0:0:0:
178,367,51891,1,2,0:3:0:0:
139,229,52115,2,0,P|131:266|125:303,1,76,2|2,0:2|0:3,0:0:0:0:
258,346,52563,1,2,0:2:0:0:
338,325,52787,1,2,0:3:0:0:
460,378,53011,6,0,P|386:380|338:325,1,152,2|2,0:2|0:2,0:0:0:0:
427,224,53682,1,2,0:3:0:0:
427,224,53794,1,0,0:0:0:0:
427,224,53906,2,0,P|422:261|418:299,1,76,2|2,0:2|0:3,0:0:0:0:
258,346,54354,2,0,P|253:308|249:270,1,76,2|2,0:2|0:3,0:0:0:0:
312,119,54791,102,0,B|345:154|345:154|332:257,1,152,2|2,0:2|0:2,0:0:0:0:
312,119,55684,2,0,P|275:128|238:139,1,76,2|2,0:2|0:3,0:0:0:0:
91,10,56131,2,0,P|127:19|164:30,1,76,2|2,0:2|0:3,0:0:0:0:
16,91,56578,1,2,0:2:0:0:
77,152,56801,5,2,0:3:0:0:
99,235,57025,1,2,0:2:0:0:
76,317,57249,1,2,0:3:0:0:
158,355,57473,101,2,0:2:0:0:
241,283,57697,1,2,0:3:0:0:
344,317,57921,2,0,P|380:306|417:297,1,76,2|2,0:2|0:3,0:0:0:0:
400,159,58382,6,0,P|305:202|241:283,1,209.000006378174,2|2,0:2|0:2,0:0:0:0:
77,152,59053,1,2,0:3:0:0:
77,152,59165,1,0,0:0:0:0:
77,152,59277,2,0,P|130:159|180:181,1,109.250002083778,2|2,0:2|0:3,0:0:0:0:
268,0,59725,2,0,P|214:7|164:29,1,109.250002083778,2|2,0:2|0:3,0:0:0:0:
417,296,60173,102,0,P|426:187|469:87,1,218.500004167557,2|2,0:2|0:2,0:0:0:0:
468,87,60841,1,2,0:3:0:0:
268,0,61075,6,0,P|279:49|287:111,1,109.250002083778,2|2,0:2|0:3,0:0:0:0:
180,181,61519,1,2,0:2:0:0:
196,92,61741,1,2,0:3:0:0:
249,239,61963,102,0,P|186:183|103:205,1,178.125,2|0,0:2|0:0,0:0:0:0:
47,298,62410,2,0,P|86:201|183:166,1,213.750008153916,2|0,0:2|0:0,0:0:0:0:
288,244,62858,2,0,P|206:157|90:183,1,249.375002378225,2|8,0:2|0:0,0:0:0:0:
90,182,63326,6,0,L|183:166,1,95,2|0,0:0|0:0,0:0:0:0:
361,15,63543,2,0,L|267:0,1,95,12|0,0:0|0:0,0:0:0:0:
414,265,63760,70,0,B|424:189|424:189|464:152|464:152|474:76,1,209.000006378174,6|8,0:0|1:2,0:0:0:0:
304,78,64095,1,0,0:0:0:0:
385,109,64207,2,0,B|393:58|393:58|361:14,1,104.500003189087,2|0,0:0|0:0,0:0:0:0:
83,88,64431,1,8,1:2:0:0:
90,182,64543,1,0,0:0:0:0:
6,141,64655,6,0,B|122:130|96:197|208:177,1,209.000006378174,2|10,0:0|1:2,0:0:0:0:
304,78,64991,1,0,0:0:0:0:
206,177,65103,2,0,L|191:74,1,104.500003189087,2|2,0:0|0:0,0:0:0:0:
315,192,65327,2,0,L|300:295,1,104.500003189087,8|2,1:2|0:0,0:0:0:0:
44,364,65551,102,0,B|79:331|125:331|125:331|163:377|233:357,1,209.000006378174,2|8,0:0|1:2,0:0:0:0:
299,295,65886,1,0,0:0:0:0:
206,177,65998,2,0,L|191:280,1,104.500003189087,2|0,0:0|0:0,0:0:0:0:
303,77,66215,1,10,1:2:0:0:
315,192,66324,1,0,0:0:0:0:
103,41,66432,6,0,B|219:30|193:97|305:77,1,209.000006378174,2|8,0:0|1:2,0:0:0:0:
360,14,66758,1,2,0:0:0:0:
498,145,66867,2,0,L|395:130,1,104.500003189087,2|0,0:0|0:0,0:0:0:0:
299,295,67096,2,0,L|402:280,1,104.500003189087,8|0,1:2|0:0,0:0:0:0:
23,177,67325,102,0,B|56:140|111:140|111:140|140:191|205:176,1,209.000006378174,2|10,0:0|1:2,0:0:0:0:
303,77,67655,1,0,0:0:0:0:
218,3,67766,2,0,P|184:41|184:92,1,104.500003189087,2|0,0:0|0:0,0:0:0:0:
315,192,67986,2,0,L|300:295,1,104.500003189087,10|0,1:2|0:0,0:0:0:0:
493,319,68207,6,0,B|517:268|480:223|480:223|420:219|401:280,1,209.000006378174,2|10,0:0|1:2,0:0:0:0:
419,364,68538,1,0,0:0:0:0:
315,192,68648,2,0,P|266:277|168:265,1,209.000006378174,2|8,0:0|1:2,0:0:0:0:
94,69,68983,1,0,0:0:0:0:
205,5,69095,102,0,B|249:54|249:54|226:195,1,209.000006378174,2|8,0:0|1:2,0:0:0:0:
198,370,69433,1,0,0:0:0:0:
167,264,69546,2,0,B|242:253|242:253|288:282|288:282|365:270,1,209.000006378174,2|8,0:0|1:2,0:0:0:0:
435,62,69884,1,0,0:0:0:0:
505,139,69997,6,0,P|408:164|334:96,1,209.000006378174,2|8,0:0|1:2,0:0:0:0:
225,195,70335,1,0,0:0:0:0:
94,69,70448,102,0,P|71:115|73:167,1,104.500003189087,10|0,1:2|0:0,0:0:0:0:
225,195,70673,2,0,P|247:148|245:96,1,104.500003189087,10|0,1:2|0:0,0:0:0:0:
58,284,70899,6,0,B|93:238|150:251|150:251|184:302|239:289,1,209.000006378174,6|8,0:0|1:2,0:0:0:0:
319,160,71232,1,0,0:0:0:0:
245,96,71343,2,0,P|223:143|225:195,1,104.500003189087,2|0,0:0|0:0,0:0:0:0:
336,353,71565,101,8,1:2:0:0:
445,322,71676,2,0,L|239:288,1,209.000006378174
317,29,72010,2,0,P|341:74|336:125,1,104.500003189087,8|0,1:2|0:0,0:0:0:0:
171,161,72232,2,0,P|146:115|151:64,1,104.500003189087,2|0,0:0|0:0,0:0:0:0:
353,249,72454,2,0,L|336:352,1,104.500003189087,10|0,1:2|0:0,0:0:0:0:
74,181,72676,6,0,P|120:156|171:161,1,104.500003189087,2|0,0:0|0:0,0:0:0:0:
353,249,72899,2,0,P|301:253|256:228,1,104.500003189087,10|0,1:2|0:0,0:0:0:0:
268,2,73123,101,2,0:0:0:0:
315,172,73235,1,2,0:0:0:0:
268,2,73347,1,10,1:2:0:0:
170,160,73459,6,0,P|68:161|2:84,1,209.000006378174,2|0,0:0|0:0,0:0:0:0:
268,2,73795,2,0,L|251:105,1,104.500003189087,8|0,1:2|0:0,0:0:0:0:
353,249,74019,102,0,P|431:185|429:84,1,209.000006378174,2|10,0:0|1:2,0:0:0:0:
349,43,74365,1,0,0:0:0:0:
170,160,74488,6,0,L|204:366,1,209.000006378174,8|2,1:2|0:0,0:0:0:0:
353,249,74828,1,8,1:2:0:0:
318,175,74942,102,0,P|280:210|273:261,1,104.500003189087,2|0,0:0|0:0,0:0:0:0:
388,323,75159,2,0,P|425:287|432:236,1,104.500003189087,8|0,1:2|0:0,0:0:0:0:
301,71,75376,6,0,L|318:175,1,104.500003189087,2|0,0:0|0:0,0:0:0:0:
223,90,75603,2,0,L|240:194,1,104.500003189087,2|0,0:0|0:0,0:0:0:0:
118,368,75830,102,0,B|63:368|42:323|42:323|94:256|190:275|204:366,1,313.500009567261,12|0,0:0|0:0,0:0:0:0:
118,368,76285,6,0,P|126:267|52:198,1,209.000006378174,12|2,0:0|0:0,0:0:0:0:
82,93,76620,1,0,0:0:0:0:
52,198,76732,2,0,B|146:173|146:173|168:179|168:179|254:156,1,209.000006378174,12|2,0:0|0:0,0:0:0:0:
392,268,77058,1,0,0:0:0:0:
392,268,77166,102,0,P|256:293|253:156,1,313.500009567261,12|8,0:0|0:0,0:0:0:0:
358,54,77627,5,12,0:0:0:0:
312,224,77738,1,8,0:0:0:0:
142,178,77850,1,8,0:0:0:0:
188,8,77962,1,8,0:0:0:0:
188,8,78322,69,2,0:3:0:0:
188,8,78766,1,2,0:3:0:0:
188,8,79210,1,2,0:3:0:0:
188,8,79637,5,2,0:3:0:0:
188,8,79801,2,0,P|207:45|208:88,1,85.4999973907472
142,178,80085,101,2,0:3:0:0:
142,178,80557,1,2,0:3:0:0:
142,178,81004,1,2,0:3:0:0:
175,371,81440,5,2,0:3:0:0:
175,371,81555,1,2,0:3:0:0:
175,371,81682,102,0,P|212:311|198:243,1,142.500005435944,2|2,0:0|0:3,0:0:0:0:
142,178,82017,1,0,0:0:0:0:
142,178,82129,2,0,P|105:118|119:50,1,142.500005435944,8|2,1:2|0:3,0:0:0:0:
181,2,82465,1,0,0:0:0:0:
181,2,82577,1,2,0:0:0:0:
142,178,82801,6,0,L|211:164,1,71.2500027179719,2|0,0:3|0:0,0:0:0:0:
358,54,83025,1,8,1:2:0:0:
439,83,83137,2,0,P|392:134|323:132,1,142.500005435944
417,213,83473,102,0,L|401:354,2,142.500005435944,2|2|8,0:0|0:3|1:2,0:0:0:0:
401,354,84144,2,0,P|373:332|338:329,1,71.2500027179719,2|0,0:3|0:0,0:0:0:0:
198,243,84368,1,2,0:0:0:0:
198,243,84592,2,0,P|170:264|135:267,1,71.2500027179719,2|0,0:3|0:0,0:0:0:0:
126,128,84816,5,8,1:2:0:0:
135,267,84927,2,0,B|147:220|147:220|126:128,1,142.500005435944,0|2,0:0|0:0,0:0:0:0:
78,71,85260,102,0,B|126:128|126:128|132:60,1,142.500005435944,8|0,1:2|0:0,0:0:0:0:
16,8,85611,85,2,0:0:0:0:
16,8,85834,1,2,0:0:0:0:
16,8,86051,5,2,0:0:0:0:
48,216,86149,1,2,0:0:0:0:
48,216,86372,1,2,0:0:0:0:
48,216,86596,1,2,0:0:0:0:
48,216,86820,1,2,0:0:0:0:
78,71,87037,101,8,3:2:0:0:
99,93,87119,1,0,3:2:0:0:
127,108,87202,1,0,3:2:0:0:
155,109,87284,2,0,L|201:99,1,47.5,0|0,3:0|3:0,0:0:0:0:
215,95,87451,1,8,3:2:0:0:
297,187,87715,6,0,B|371:279|525:270|593:165|589:43|459:-38|339:0|298:101|347:155|399:172|431:135,1,627.000019134522,6|0,3:2|0:0,2:0:0:0:
