osu file format v14

[General]
AudioFilename: audio.mp3
AudioLeadIn: 0
PreviewTime: 63306
Countdown: 0
SampleSet: Soft
StackLeniency: 0.7
Mode: 0
LetterboxInBreaks: 0
WidescreenStoryboard: 0

[Editor]
DistanceSpacing: 1
BeatDivisor: 4
GridSize: 4
TimelineZoom: 1.1

[Metadata]
Title:Wild Side (TV Size)
TitleUnicode:Wild Side (TV Size)
Artist:ALI
ArtistUnicode:ALI
Creator:Kroytz
Version:Normal
Source:BEASTARS
Tags:-Anime Ver.- ビースターズ BST BAND Version Alien Liberty International Jazz Anime Japanese English French Opening OP Night Mare Luna Yuuya_ke HowRengar Kowari DeviousPanda Kazato Asa Shizuku- BarkingMadDog BMD kimchii42 -Mikan
BeatmapID:2209666
BeatmapSetID:1055990

[Difficulty]
HPDrainRate:3
CircleSize:3
OverallDifficulty:4
ApproachRate:6
SliderMultiplier:1.6
SliderTickRate:1

[Events]
//Background and Video events
0,0,"BG.png",0,0
Video,-500,"video.mp4"
//Break Periods
2,3859,9903
2,49622,55751
2,78322,80632
//Storyboard Layer 0 (Background)
//Storyboard Layer 1 (Fail)
//Storyboard Layer 2 (Pass)
//Storyboard Layer 3 (Foreground)
//Storyboard Layer 4 (Overlay)
//Storyboard Sound Samples

[TimingPoints]
195,535.714285714286,4,2,6,50,1,0
563,413.793103448276,4,2,6,50,1,0
563,-80,4,2,6,50,0,0
1222,419.58041958042,4,2,6,50,1,0
1222,-82.5,4,2,6,50,0,0
1641,428.571428571429,4,2,6,50,1,0
1855,495.867768595041,4,2,6,50,1,0
1978,431.654676258993,4,2,6,50,1,0
2409,465.116279069767,4,2,6,50,1,0
2641,483.870967741935,4,2,6,80,1,1
2641,-84.2,4,2,6,80,0,1
3124,461.538461538462,4,2,6,80,1,1
3470,379.746835443038,4,2,6,80,1,1
3659,504.201680672269,4,2,3,35,1,0
4037,468.75,4,2,3,35,1,0
4505,413.793103448276,4,2,3,35,1,0
4918,508.474576271186,4,2,3,35,1,0
5299,427.046263345196,4,2,3,35,1,0
5512,434.782608695652,4,2,3,35,1,0
5838,419.58041958042,4,2,1,35,1,0
6257,431.654676258993,4,2,1,35,1,0
6688,487.80487804878,4,2,1,35,1,0
7053,465.116279069767,4,2,1,35,1,0
7285,413.793103448276,4,2,1,35,1,0
7595,434.782608695652,4,2,1,35,1,0
8029,441.176470588235,4,2,1,35,1,0
8470,517.241379310345,4,2,1,35,1,0
8857,454.545454545455,4,2,1,35,1,0
9084,413.793103448276,4,2,1,35,1,0
9394,428.571428571429,4,2,1,35,1,0
9822,437.956204379562,4,2,1,35,1,0
10259,512.820512820513,4,2,1,35,1,0
10643,425.531914893617,4,2,1,35,1,0
10855,392.156862745098,4,2,1,35,1,0
10953,447.761194029851,4,2,1,50,1,0
10953,-80,4,2,1,50,0,0
12296,425.531914893617,4,2,1,50,1,0
12721,447.761194029851,4,2,1,50,1,0
12721,-80,4,2,1,50,0,0
13616,442.80442804428,4,2,1,50,1,0
13616,-80,4,2,1,50,0,0
14501,437.956204379562,4,2,1,50,1,0
14938,447.761194029851,4,2,1,50,1,0
14938,-80,4,2,1,50,0,0
16281,447.761194029851,4,2,1,50,1,0
16281,-80,4,2,1,50,0,0
17176,-80,4,2,1,50,0,0
17624,461.538461538462,4,2,1,50,1,0
18085,447.761194029851,4,2,2,50,1,0
18085,-80,4,2,2,50,0,0
18532,-80,4,2,1,50,0,0
18980,-80,4,2,1,50,0,0
19428,-80,4,2,1,50,0,0
19876,454.545454545455,4,2,1,50,1,0
20330,447.761194029851,4,2,1,50,1,0
20330,-80,4,2,1,50,0,0
21673,444.444444444444,4,2,1,50,1,0
22117,-80,4,2,1,50,0,0
23012,447.761194029851,4,2,1,50,1,0
23012,-80,4,2,1,50,0,0
23463,449.438202247191,4,2,1,50,1,0
23912,-80,4,2,1,50,0,0
24811,434.782608695652,4,2,1,50,1,0
24811,-80,4,2,1,50,0,0
25245,461.538461538462,4,2,4,50,1,0
25245,-80,4,2,4,50,0,0
25706,444.444444444444,4,2,6,50,1,0
25706,-80,4,2,6,50,0,0
25928,-80,4,2,1,50,0,0
26150,-80,4,2,4,50,0,0
26594,-80,4,2,6,50,0,0
27039,447.761194029851,4,2,1,50,1,0
27039,-80,4,2,1,50,0,0
27486,-80,4,2,6,50,0,0
27934,-80,4,2,1,50,0,0
28382,-80,4,2,1,50,0,0
28830,-80,4,2,4,50,0,0
29277,-80,4,2,1,50,0,0
29725,434.782608695652,4,2,4,50,1,0
29725,-80,4,2,4,50,0,0
30159,-80,4,2,6,50,0,0
30594,468.75,4,2,1,50,1,0
30594,-80,4,2,1,50,0,0
31062,447.761194029851,4,2,6,50,1,0
31062,-80,4,2,6,50,0,0
31509,-80,4,2,1,50,0,0
31957,454.545454545455,4,2,1,50,1,0
31957,-80,4,2,1,50,0,0
32411,451.127819548872,4,2,4,50,1,0
32411,-80,4,2,4,50,0,0
32862,-80,4,2,1,50,0,0
33313,-80,4,2,4,50,0,0
33764,437.956204379562,4,2,6,50,1,0
33764,-80,4,2,6,50,0,0
34201,451.127819548872,4,2,1,50,1,0
34201,-80,4,2,1,50,0,0
34652,-80,4,2,6,50,0,0
35103,-80,4,2,1,50,0,0
35998,447.761194029851,4,2,4,50,1,0
35998,-80,4,2,4,50,0,0
36445,-80,4,2,1,50,0,0
36669,-80,4,2,10,50,0,0
37341,-80,4,2,1,50,0,0
37789,-80,4,2,4,50,0,0
38012,-80,4,2,1,50,0,0
38236,-80,4,2,6,50,0,0
38460,-80,4,2,1,50,0,0
38684,437.956204379562,4,2,4,50,1,0
38684,-80,4,2,4,50,0,0
38902,-80,4,2,1,50,0,0
39121,-80,4,2,6,50,0,0
39340,-80,4,2,6,50,0,0
39559,454.545454545455,4,2,1,50,1,0
39559,-80,4,2,1,50,0,0
40922,-80,4,2,1,50,0,0
41377,444.444444444444,4,2,1,50,1,0
41377,-80,4,2,1,50,0,0
42265,447.761194029851,4,2,1,50,1,0
42265,-80,4,2,1,50,0,0
43160,451.127819548872,4,2,1,50,1,0
43160,-80,4,2,1,50,0,0
44513,434.782608695652,4,2,1,50,1,0
44513,-80,4,2,1,50,0,0
44947,447.761194029851,4,2,1,50,1,0
44947,-80,4,2,1,50,0,0
45842,-80,4,2,1,50,0,0
46290,-80,4,2,1,50,0,0
46514,413.793103448276,4,2,1,50,1,0
46720,476.190476190476,4,2,1,50,1,0
46720,-80,4,2,1,50,0,0
46839,461.538461538462,4,2,1,50,1,0
47069,421.052631578947,4,2,1,50,1,0
47174,441.176470588235,4,2,1,50,1,0
47394,461.538461538462,4,2,1,50,1,0
47624,-80,4,2,1,50,0,0
47740,387.096774193548,4,2,1,50,1,0
47836,545.454545454546,4,2,1,50,1,0
47972,422.535211267606,4,2,3,50,1,0
47972,-80,4,2,3,50,0,0
48183,447.761194029851,4,2,3,50,1,0
48406,444.444444444444,4,2,1,50,1,0
48406,-80,4,2,1,50,0,0
48850,500,4,2,1,50,1,0
49100,422.535211267606,4,2,1,50,1,0
49100,-80,4,2,1,50,0,0
49205,434.782608695652,4,2,1,50,1,0
49422,461.538461538462,4,2,2,50,1,0
50114,437.956204379562,4,2,3,50,1,0
50332,444.444444444444,4,2,3,50,1,0
51220,447.761194029851,4,2,3,50,1,0
54354,437.956204379562,4,2,3,50,1,0
54791,446.927374301676,4,2,3,50,1,0
56578,447.761194029851,4,2,3,50,1,0
56801,-117.647058823529,4,2,3,50,0,0
57921,461.538461538462,4,2,3,50,1,0
58382,447.761194029851,4,2,3,50,1,0
58382,-117.647058823529,4,2,3,50,0,0
59277,-117.647058823529,4,2,3,50,0,0
60173,434.782608695652,4,2,3,50,1,0
60173,-117.647058823529,4,2,3,50,0,0
60607,468.75,4,2,3,50,1,0
61075,444.444444444444,4,2,3,60,1,0
61075,-117.647058823529,4,2,3,60,0,0
61963,447.761194029851,4,2,3,60,1,0
61963,-117.647058823529,4,2,3,60,0,0
62858,468.75,4,2,3,60,1,0
63326,434.782608695652,4,2,1,70,1,0
63326,-117.647058823529,4,2,1,70,0,0
63543,-117.647058823529,4,2,5,70,0,0
63760,447.761194029851,4,2,4,80,1,1
63760,-80,4,2,4,80,0,1
63983,-80,4,2,1,80,0,1
64207,-80,4,2,4,80,0,1
64431,-80,4,2,1,80,0,1
64655,-80,4,2,4,80,0,1
65103,-80,4,2,1,80,0,1
65327,-80,4,2,6,80,0,1
65551,-80,4,2,1,80,0,1
65998,434.782608695652,4,2,4,80,1,1
65998,-80,4,2,4,80,0,1
66215,-80,4,2,6,80,0,1
66432,-80,4,2,4,80,0,1
66867,458.015267175573,4,2,4,80,1,1
66867,-80,4,2,4,80,0,1
67096,-80,4,2,1,80,0,1
67325,441.176470588235,4,2,4,80,1,1
67325,-80,4,2,4,80,0,1
67545,-80,4,2,6,80,0,1
67766,-80,4,2,4,80,0,1
67986,-80,4,2,6,80,0,1
68207,-80,4,2,4,80,0,1
68648,447.761194029851,4,2,4,80,1,1
68648,-80,4,2,4,80,0,1
68871,-80,4,2,1,80,0,1
69095,451.127819548872,4,2,4,80,1,1
69095,-80,4,2,4,80,0,1
69320,-80,4,2,1,80,0,1
69546,-75.187969924812,4,2,4,80,0,1
69771,-75.187969924812,4,2,1,80,0,1
69997,-75.187969924812,4,2,4,80,0,1
70222,-75.187969924812,4,2,1,80,0,1
70448,-75.187969924812,4,2,6,80,0,1
70786,-80,4,2,1,80,0,0
70899,444.444444444444,4,2,4,80,1,1
70899,-80,4,2,4,80,0,1
71343,-100,4,2,4,80,0,1
71565,-100,4,2,1,80,0,1
71787,-80,4,2,4,80,0,1
72454,-100,4,2,1,80,0,1
72676,447.761194029851,4,2,4,80,1,1
72676,-80,4,2,4,80,0,1
72899,-80,4,2,6,80,0,1
73123,-80,4,2,4,80,0,1
73347,-80,4,2,6,80,0,1
73571,-80,4,2,1,80,0,1
74019,-100,4,2,4,80,0,1
74243,491.803278688525,4,2,6,80,1,1
74488,454.545454545455,4,2,5,80,1,1
74488,-80,4,2,5,80,0,1
74715,-80,4,2,1,80,0,1
74942,434.782608695652,4,2,1,80,1,1
74942,-80,4,2,1,80,0,1
75376,454.545454545455,4,2,1,80,1,1
75830,-70.9219858156028,4,2,5,80,0,1
76285,447.761194029851,4,2,1,80,1,1
76732,434.782608695652,4,2,1,80,1,1
77166,461.538461538462,4,2,1,80,1,1
77166,-80,4,2,1,80,0,1
77627,447.761194029851,4,2,1,80,1,1
77962,480,4,2,1,80,1,0
78322,444.444444444444,4,2,1,35,1,0
79210,491.803278688525,4,2,1,35,1,0
79578,447.761194029851,4,2,1,35,1,0
79637,461.538461538462,4,2,1,35,1,0
79801,454.545454545455,4,2,1,35,1,0
80141,416.666666666667,4,2,1,35,1,0
80557,447.761194029851,4,2,1,35,1,0
81004,491.803278688525,4,2,1,35,1,0
81372,461.538461538462,4,2,1,35,1,0
81440,461.538461538462,4,2,1,35,1,0
81602,322.58064516129,4,2,1,35,1,0
81682,447.761194029851,4,2,1,50,1,0
81682,-80,4,2,1,50,0,0
82129,-80,4,2,1,50,0,0
83473,-80,4,2,1,50,0,0
84816,444.444444444444,4,2,1,50,1,0
84816,-80,4,2,1,50,0,0
85260,468.75,4,2,1,50,1,0
85611,447.761194029851,4,2,6,60,1,0
85834,434.782608695652,4,2,6,60,1,0
86051,394.736842105263,4,2,6,60,1,0
86149,447.761194029851,4,2,6,60,1,0
86820,434.782608695652,4,2,6,60,1,0
87037,495.867768595041,4,2,6,60,1,0
87037,-76,4,2,6,60,0,0
87284,447.761194029851,4,2,6,60,1,0
87715,447.761194029851,4,2,1,80,1,0
87715,-80,4,2,1,80,0,0
88386,-80,4,2,1,20,0,0

[Colours]
Combo1 : 108,0,54
Combo2 : 0,64,128
Combo3 : 0,128,192
Combo4 : 255,255,70
Combo5 : 0,210,0
Combo6 : 192,192,192
Combo7 : 139,139,139
Combo8 : 155,0,0

[HitObjects]
54,206,195,102,0,L|70:243,1,40,2|2,0:0|0:0,0:0:0:0:
115,349,563,2,0,P|66:359|18:346,2,100,2|2|2,0:0|0:0|0:0,0:0:0:0:
184,257,1222,2,0,B|322:169|323:324|504:305|483:170|381:185|351:247,1,350,2|0,0:0|3:2,0:0:0:0:
184,257,2641,2,0,B|85:150|193:24|193:24|267:84|249:148,1,400,6|2,1:2|1:3,0:0:0:0:
0,97,10953,22,0,L|25:193,1,100,2|2,0:0|0:3,0:0:0:0:
96,121,11400,2,0,L|121:217,1,100,2|2,0:0|0:3,0:0:0:0:
51,289,11848,2,0,B|106:257|106:257|237:292,1,200,2|2,0:0|0:0,0:0:0:0:
388,384,12721,6,0,P|411:340|414:290,1,100,2|2,0:0|0:3,0:0:0:0:
343,221,13168,2,0,P|319:177|316:127,1,100,2|2,0:0|0:3,0:0:0:0:
416,150,13616,2,0,L|512:124,1,100,2|2,0:0|0:3,0:0:0:0:
385,52,14058,2,0,L|191:0,1,200,2|2,0:0|0:0,0:0:0:0:
104,48,14719,101,2,0:3:0:0:
13,0,14938,2,0,P|2:48|13:96,1,100,2|2,0:0|0:3,0:0:0:0:
100,146,15385,2,0,P|109:195|97:243,1,100,2|2,0:0|0:3,0:0:0:0:
12,295,15833,1,2,0:0:0:0:
100,345,16057,1,2,0:3:0:0:
186,293,16281,6,0,B|215:276|215:276|279:293,1,100,2|2,0:0|0:3,0:0:0:0:
349,364,16728,1,2,0:0:0:0:
375,266,16952,1,2,0:3:0:0:
443,336,17176,2,0,B|506:353|506:353|536:336,2,100,2|2|4,0:0|0:3|0:0,0:0:0:0:
426,72,18085,102,0,L|375:266,1,200,4|8,0:0|1:2,0:0:0:0:
349,364,18756,1,2,0:3:0:0:
279,293,18980,2,0,B|215:276|215:276|186:293,1,100,2|2,0:0|0:3,0:0:0:0:
100,343,19428,2,0,P|144:259|98:175,1,200,8|2,1:2|0:0,0:0:0:0:
44,260,20103,1,2,0:3:0:0:
0,169,20330,2,0,P|51:88|147:86,1,200,8|2,1:2|0:0,0:0:0:0:
239,134,21001,1,2,0:3:0:0:
326,78,21225,1,8,1:2:0:0:
235,31,21449,1,2,0:3:0:0:
417,125,22117,6,0,L|448:219,1,100,8|2,1:2|0:3,0:0:0:0:
479,315,22561,1,2,0:0:0:0:
414,384,22784,1,2,0:3:0:0:
382,294,23012,2,0,B|353:277|353:277|289:294,1,100,8|2,1:2|0:3,0:0:0:0:
192,267,23463,1,2,0:0:0:0:
219,365,23687,1,2,0:3:0:0:
122,339,23912,2,0,P|96:296|94:246,1,100,8|2,1:2|0:3,0:0:0:0:
192,267,24361,2,0,P|218:224|220:174,1,100,2|2,0:0|0:3,0:0:0:0:
144,115,24811,2,0,P|184:86|233:79,1,100,8|2,3:2|3:0,0:0:0:0:
320,120,25245,102,0,P|405:163|489:117,1,200,6|8,0:0|1:2,0:0:0:0:
404,64,25928,1,2,0:3:0:0:
404,64,26150,2,0,L|454:257,1,200,2|10,0:0|1:2,0:0:0:0:
298,384,27039,2,0,L|323:287,1,100,2|2,0:0|0:3,0:0:0:0:
347,190,27486,2,0,L|153:240,1,200,10|2,1:2|0:0,0:0:0:0:
56,265,28158,1,2,0:3:0:0:
56,265,28382,2,0,L|81:168,1,100,8|2,1:2|0:3,0:0:0:0:
0,109,28830,6,0,B|55:141|55:141|186:106,1,200,2|8,0:0|1:2,0:0:0:0:
281,129,29501,1,2,0:3:0:0:
311,32,29725,2,0,P|378:102|356:195,1,200,2|10,0:0|1:2,0:0:0:0:
292,384,30594,2,0,P|267:341|266:291,1,100,2|2,0:0|0:3,0:0:0:0:
363,314,31062,2,0,P|389:222|481:193,1,200,10|2,1:2|0:0,0:0:0:0:
462,292,31733,1,2,0:3:0:0:
462,292,31957,2,0,P|461:342|436:385,1,100,8|2,1:2|0:3,0:0:0:0:
363,314,32411,102,0,L|169:262,1,200,2|8,0:0|1:2,0:0:0:0:
72,287,33087,1,2,0:3:0:0:
145,355,33313,2,0,P|237:329|263:237,1,200,2|10,0:0|1:2,0:0:0:0:
170,70,34201,2,0,L|195:166,1,100,2|2,0:0|0:3,0:0:0:0:
94,161,34652,2,0,L|145:355,2,200,10|2|8,1:2|0:0|1:2,0:0:0:0:
247,36,35998,6,0,B|302:4|302:4|433:39,1,200,2|8,0:0|1:2,0:0:0:0:
512,106,36669,2,0,B|457:74|457:74|326:109,1,200,2|2,0:3|0:3,0:0:0:0:
240,132,37341,1,8,1:2:0:0:
121,0,37789,102,0,P|96:42|95:92,1,100,2|2,0:0|0:3,0:0:0:0:
0,121,38236,2,0,P|24:163|67:189,1,100,10|2,1:2|0:3,0:0:0:0:
44,286,38684,2,0,P|93:285|136:261,1,100,2|2,0:0|0:3,0:0:0:0:
233,237,39121,1,10,1:2:0:0:
205,333,39340,1,0,3:0:0:0:
302,309,39559,6,0,B|384:283|441:345|441:345|400:368,1,200,6|8,0:0|1:2,0:0:0:0:
205,333,40468,1,2,0:0:0:0:
233,237,40695,1,2,0:3:0:0:
328,216,40922,2,0,P|326:265|302:309,1,100,8|2,1:2|0:3,0:0:0:0:
205,333,41377,2,0,P|138:263|160:170,1,200,2|8,0:0|1:2,0:0:0:0:
261,142,42043,1,2,0:3:0:0:
357,121,42265,2,0,B|420:103|420:103|437:74,1,100,2|2,0:0|0:3,0:0:0:0:
371,2,42712,2,0,B|307:19|307:19|290:48,1,100,8|2,1:2|0:3,0:0:0:0:
261,142,43160,102,0,L|67:90,1,200,2|8,0:0|1:2,0:0:0:0:
290,48,44062,1,2,0:0:0:0:
357,121,44287,1,2,0:3:0:0:
261,142,44513,2,0,L|164:167,1,100,8|2,1:2|0:3,0:0:0:0:
66,192,44947,6,0,L|263:244,1,200,2|8,0:0|1:2,0:0:0:0:
355,268,45618,1,2,0:3:0:0:
427,335,45842,2,0,P|451:292|451:242,1,100,2|2,0:0|0:3,0:0:0:0:
381,173,46290,2,0,P|356:130|356:80,1,100,8|2,1:2|0:3,0:0:0:0:
449,106,46720,2,0,L|498:93,1,50,2|8,0:0|3:2,0:0:0:0:
96,28,47624,101,0,1:2:0:0:
0,3,47972,2,0,P|1:53|25:96,1,100,2|2,1:3|1:3,0:0:0:0:
118,125,48406,2,0,P|161:101|188:60,2,100,8|8|4,3:2|3:2|1:2,0:0:0:0:
46,190,49100,2,0,L|32:245,1,50,8|8,3:0|3:0,0:0:0:0:
7,335,49422,1,4,0:0:0:0:
53,319,56801,54,0,L|36:384,2,68.0000012969971,2|2|2,0:3|0:2|0:3,0:0:0:0:
134,270,57473,2,0,P|78:232|12:235,1,136.000002593994,2|2,0:2|0:2,0:0:0:0:
10,108,58382,2,0,P|76:110|131:72,1,136.000002593994,2|2,0:2|0:2,0:0:0:0:
230,0,59277,2,0,L|265:131,1,136.000002593994,2|2,0:2|0:2,0:0:0:0:
292,230,59949,1,2,0:3:0:0:
253,322,60173,2,0,P|320:326|375:289,1,136.000002593994,2|2,0:2|0:2,0:0:0:0:
385,187,60841,1,2,0:3:0:0:
468,245,61075,6,0,L|487:317,2,68.0000012969971,2|2|2,0:2|0:3|0:2,0:0:0:0:
478,144,61741,1,2,0:3:0:0:
385,187,61963,2,0,L|122:116,1,272.000005187988,2|2,0:2|0:2,0:0:0:0:
0,354,63326,101,2,0:0:0:0:
24,257,63543,1,12,0:0:0:0:
96,327,63760,86,0,L|192:300,1,100,6|8,0:0|1:2,0:0:0:0:
282,342,64207,2,0,L|379:315,1,100,2|8,0:0|1:2,0:0:0:0:
454,384,64655,2,0,P|476:290|410:221,1,200,2|2,0:0|0:0,0:0:0:0:
379,315,65327,1,8,1:2:0:0:
310,239,65551,6,0,P|314:190|343:147,1,100,2|8,0:0|1:2,0:0:0:0:
437,123,65998,2,0,P|464:81|468:32,1,100,2|10,0:0|1:2,0:0:0:0:
368,49,66432,2,0,B|314:17|314:17|183:52,1,200,2|2,0:0|0:0,0:0:0:0:
109,123,67096,1,8,1:2:0:0:
35,191,67325,102,0,P|11:148|10:99,1,100,2|10,0:0|1:2,0:0:0:0:
109,123,67766,2,0,P|133:166|133:215,1,100,2|10,0:0|1:2,0:0:0:0:
63,284,68207,2,0,P|156:264|225:331,1,200,2|2,0:0|0:0,0:0:0:0:
130,362,68871,1,8,1:2:0:0:
225,331,69095,6,0,P|250:287|250:238,1,100,2|8,0:0|1:2,0:0:0:0:
279,142,69546,2,0,P|323:169|345:217,1,106.399995616455,2|8,0:0|1:2,0:0:0:0:
420,284,69997,2,0,P|444:238|441:186,1,106.399995616455,2|8,0:0|1:2,0:0:0:0:
413,89,70448,1,10,1:2:0:0:
512,110,70673,1,10,1:2:0:0:
413,89,70899,102,0,L|219:37,1,200,6|2,0:0|0:0,0:0:0:0:
151,112,71565,1,8,1:2:0:0:
119,16,71787,2,0,P|53:85|76:178,1,200,2|2,0:0|0:0,0:0:0:0:
171,209,72454,1,10,1:2:0:0:
96,275,72676,6,0,L|0:300,2,100,2|10|2,0:0|1:2|0:0,0:0:0:0:
171,209,73347,1,10,1:2:0:0:
190,305,73571,2,0,B|245:274|245:274|377:309,1,200,2|2,0:0|0:0,0:0:0:0:
450,378,74243,1,10,1:2:0:0:
450,378,74488,102,0,P|474:335|474:285,1,100,8|2,1:2|0:0,0:0:0:0:
400,211,74942,2,0,P|375:168|375:118,1,100,2|8,0:0|1:2,0:0:0:0:
443,46,75376,1,2,0:0:0:0:
472,142,75603,1,2,0:0:0:0:
375,118,75830,6,0,B|263:205|125:182|61:93|155:-22|256:49,1,447.999986328125,12|12,0:0|0:0,0:0:0:0:
81,0,77166,2,0,P|46:91|80:183,1,200,12|12,0:0|0:0,0:0:0:0:
512,97,81682,70,0,L|487:193,1,100,2|2,0:0|0:3,0:0:0:0:
416,121,82129,2,0,L|391:217,1,100,8|2,1:2|0:3,0:0:0:0:
461,289,82577,2,0,B|406:257|406:257|275:292,1,200,2|8,0:0|1:2,0:0:0:0:
124,384,83473,6,0,P|101:340|98:290,1,100,2|2,0:0|0:3,0:0:0:0:
169,221,83920,2,0,P|193:177|196:127,1,100,8|2,1:2|0:3,0:0:0:0:
96,150,84368,2,0,L|0:124,1,100,2|2,0:0|0:3,0:0:0:0:
127,52,84816,2,0,L|321:0,1,200,8|8,1:2|1:2,0:0:0:0:
453,232,87037,70,0,P|406:175|473:204,1,200,8|8,3:2|3:2,0:0:0:0:
506,300,87715,2,0,B|367:372|367:224|214:301,1,300,6|0,3:2|0:0,2:0:0:0:
