osu file format v14

[General]
AudioFilename: audio.mp3
AudioLeadIn: 0
PreviewTime: 63306
Countdown: 0
SampleSet: Soft
StackLeniency: 0.3
Mode: 0
LetterboxInBreaks: 0
WidescreenStoryboard: 0

[Editor]
Bookmarks: 177,10949,25256,35993,39562,49418,63417
DistanceSpacing: 1.1
BeatDivisor: 4
GridSize: 16
TimelineZoom: 3

[Metadata]
Title:Wild Side (TV Size)
TitleUnicode:Wild Side (TV Size)
Artist:ALI
ArtistUnicode:ALI
Creator:Kroytz
Version:Mikan's Extreme
Source:BEASTARS
Tags:-Anime Ver.- ビースターズ BST BAND Version Alien Liberty International Jazz Anime Japanese English French Opening OP Night Mare Luna Yuuya_ke HowRengar Kowari DeviousPanda Kazato Asa Shizuku- BarkingMadDog BMD kimchii42 -Mikan
BeatmapID:2299446
BeatmapSetID:1055990

[Difficulty]
HPDrainRate:5.5
CircleSize:4
OverallDifficulty:9
ApproachRate:9.5
SliderMultiplier:2
SliderTickRate:1

[Events]
//Background and Video events
Video,-500,"video.mp4"
0,0,"BG.png",0,0
//Break Periods
//Storyboard Layer 0 (Background)
//Storyboard Layer 1 (Fail)
//Storyboard Layer 2 (Pass)
//Storyboard Layer 3 (Foreground)
//Storyboard Layer 4 (Overlay)
//Storyboard Sound Samples

[TimingPoints]
195,535.714285714286,4,2,6,50,1,0
563,413.793103448276,4,2,6,50,1,0
563,-83.3333333333333,4,2,6,50,0,0
666,-83.3333333333333,4,2,20,5,0,0
769,-83.3333333333333,4,2,6,50,0,0
873,-125,4,2,20,5,0,0
976,-83.3333333333333,4,2,6,50,0,0
1080,-200,4,2,20,5,0,0
1222,419.58041958042,4,2,6,50,1,0
1222,-83.3333333333333,4,2,6,50,0,0
1641,428.571428571429,4,2,6,50,1,0
1855,495.867768595041,4,2,6,50,1,0
1978,431.654676258993,4,2,6,50,1,0
2409,465.116279069767,4,2,6,50,1,0
2564,-100,4,2,6,5,0,0
2641,483.870967741935,4,2,6,80,1,1
2641,-37.3134328358209,4,2,6,80,0,1
3124,461.538461538462,4,2,6,80,1,1
3470,379.746835443038,4,2,6,80,1,1
3659,504.201680672269,4,2,3,35,1,0
3660,-100,4,2,3,35,0,0
4037,468.75,4,2,3,35,1,0
4037,-200,4,2,3,35,0,0
4505,413.793103448276,4,2,3,35,1,0
4918,508.474576271186,4,2,3,35,1,0
5299,427.046263345196,4,2,3,35,1,0
5512,434.782608695652,4,2,3,35,1,0
5512,-222.222222222222,4,2,3,35,0,0
5783,-222.222222222222,4,2,20,5,0,0
5838,419.58041958042,4,2,1,35,1,0
5838,-200,4,2,1,35,0,0
6257,431.654676258993,4,2,1,35,1,0
6688,487.80487804878,4,2,1,35,1,0
7053,465.116279069767,4,2,1,35,1,0
7285,413.793103448276,4,2,1,35,1,0
7285,-166.666666666667,4,2,1,35,0,0
7543,-166.666666666667,4,2,20,5,0,0
7595,434.782608695652,4,2,1,35,1,0
7595,-200,4,2,1,35,0,0
8029,441.176470588235,4,2,1,35,1,0
8470,517.241379310345,4,2,1,35,1,0
8857,454.545454545455,4,2,1,35,1,0
9084,413.793103448276,4,2,1,35,1,0
9084,-222.222222222222,4,2,1,35,0,0
9342,-222.222222222222,4,2,20,5,0,0
9394,428.571428571429,4,2,1,35,1,0
9394,-200,4,2,1,35,0,0
9822,437.956204379562,4,2,1,35,1,0
10259,512.820512820513,4,2,1,35,1,0
10643,425.531914893617,4,2,1,35,1,0
10855,392.156862745098,4,2,1,35,1,0
10953,447.761194029851,4,2,1,50,1,0
10953,-83.3333333333333,4,2,1,50,0,0
11848,-62.5,4,2,1,50,0,0
12296,425.531914893617,4,2,1,50,1,0
12296,-133.333333333333,4,2,1,50,0,0
12721,447.761194029851,4,2,1,50,1,0
12721,-62.5,4,2,1,50,0,0
13616,442.80442804428,4,2,1,50,1,0
13616,-62.5,4,2,1,50,0,0
14058,-62.5,4,2,1,50,0,0
14501,437.956204379562,4,2,1,50,1,0
14719,-55.5555555555556,4,2,1,50,0,0
14938,447.761194029851,4,2,1,50,1,0
14938,-62.5,4,2,1,50,0,0
15161,-76.9230769230769,4,2,1,50,0,0
15385,-57.1428571428571,4,2,1,50,0,0
16057,-62.5,4,2,1,50,0,0
16281,447.761194029851,4,2,1,50,1,0
16504,-62.5,4,2,1,50,0,0
17176,-62.5,4,2,1,50,0,0
17624,461.538461538462,4,2,1,50,1,0
17624,-40.8163265306122,4,2,1,50,0,0
18027,-40.8163265306122,4,2,20,5,0,0
18085,447.761194029851,4,2,2,50,1,0
18085,-55.5555555555556,4,2,2,50,0,0
18308,-55.5555555555556,4,2,1,50,0,0
18980,-55.5555555555556,4,2,1,50,0,0
19428,-50,4,2,1,50,0,0
19876,454.545454545455,4,2,1,50,1,0
20330,447.761194029851,4,2,1,50,1,0
20441,-55.5555555555556,4,2,1,50,0,0
21393,-55.5555555555556,4,2,20,5,0,0
21449,-55.5555555555556,4,2,1,50,0,0
21617,-55.5555555555556,4,2,20,5,0,0
21673,444.444444444444,4,2,1,50,1,0
21673,-55.5555555555556,4,2,1,50,0,0
22117,-55.5555555555556,4,2,1,50,0,0
22673,-50,4,2,1,50,0,0
23012,447.761194029851,4,2,1,50,1,0
23012,-55.5555555555556,4,2,1,50,0,0
23463,449.438202247191,4,2,1,50,1,0
23463,-55.5555555555556,4,2,1,50,0,0
24361,-55.5555555555556,4,2,1,50,0,0
24811,434.782608695652,4,2,1,50,1,0
24811,-33.3333333333333,4,2,1,50,0,0
25137,-33.3333333333333,4,2,1,50,0,0
25245,461.538461538462,4,2,4,50,1,0
25245,-50,4,2,4,50,0,0
25591,-50,4,2,10,50,0,0
25706,444.444444444444,4,2,6,50,1,0
25706,-58.8235294117647,4,2,6,50,0,0
25928,-58.8235294117647,4,2,1,50,0,0
26150,-50,4,2,4,50,0,0
26372,-50,4,2,1,50,0,0
26594,-50,4,2,6,50,0,0
26817,-50,4,2,1,50,0,0
26928,-50,4,2,10,50,0,0
27039,447.761194029851,4,2,1,50,1,0
27039,-50,4,2,1,50,0,0
27150,-50,4,2,10,50,0,0
27262,-50,4,2,1,50,0,0
27374,-50,4,2,10,50,0,0
27486,-50,4,2,6,50,0,0
27710,-83.3333333333333,4,2,1,50,0,0
27934,-83.3333333333333,4,2,1,50,0,0
28382,-83.3333333333333,4,2,1,50,0,0
28830,-50,4,2,4,50,0,0
29053,-50,4,2,1,50,0,0
29165,-50,4,2,10,50,0,0
29277,-58.8235294117647,4,2,1,50,0,0
29389,-58.8235294117647,4,2,10,50,0,0
29501,-58.8235294117647,4,2,1,50,0,0
29725,434.782608695652,4,2,4,50,1,0
29725,-50,4,2,4,50,0,0
29942,-50,4,2,1,50,0,0
30159,-50,4,2,6,50,0,0
30377,-50,4,2,1,50,0,0
30485,-47.7326968973747,4,2,10,50,0,0
30594,468.75,4,2,1,50,1,0
30594,-66.6666666666667,4,2,1,50,0,0
30711,-66.6666666666667,4,2,10,50,0,0
30828,-66.6666666666667,4,2,1,50,0,0
30945,-66.6666666666667,4,2,10,50,0,0
31062,447.761194029851,4,2,6,50,1,0
31062,-50,4,2,6,50,0,0
31285,-83.3333333333333,4,2,1,50,0,0
31509,-66.6666666666667,4,2,1,50,0,0
31957,454.545454545455,4,2,1,50,1,0
32411,451.127819548872,4,2,4,50,1,0
32411,-45.4545454545455,4,2,4,50,0,0
32636,-45.4545454545455,4,2,1,50,0,0
32749,-45.4545454545455,4,2,10,50,0,0
32862,-66.6666666666667,4,2,1,50,0,0
32974,-66.6666666666667,4,2,10,50,0,0
33087,-66.6666666666667,4,2,1,50,0,0
33313,-45.4545454545455,4,2,4,50,0,0
33538,-45.4545454545455,4,2,1,50,0,0
33764,437.956204379562,4,2,6,50,1,0
33764,-45.4545454545455,4,2,6,50,0,0
33982,-45.4545454545455,4,2,1,50,0,0
34092,-45.4545454545455,4,2,10,50,0,0
34201,451.127819548872,4,2,1,50,1,0
34201,-55.5555555555556,4,2,1,50,0,0
34313,-55.5555555555556,4,2,10,50,0,0
34426,-55.5555555555556,4,2,1,50,0,0
34539,-55.5555555555556,4,2,10,50,0,0
34652,-55.5555555555556,4,2,6,50,0,0
34877,-71.4285714285714,4,2,1,50,0,0
35103,-83.3333333333333,4,2,1,50,0,0
35998,447.761194029851,4,2,4,50,1,0
35998,-50,4,2,4,50,0,0
36109,-50,4,2,10,50,0,0
36221,-50,4,2,10,50,0,0
36333,-50,4,2,10,50,0,0
36445,-50,4,2,1,50,0,0
36669,-50,4,2,10,50,0,0
36781,-50,4,2,10,50,0,0
36893,-50,4,2,4,50,0,0
37005,-50,4,2,10,50,0,0
37117,-50,4,2,10,50,0,0
37229,-50,4,2,6,50,0,0
37341,-50,4,2,1,50,0,0
37789,-50,4,2,4,50,0,0
38012,-50,4,2,1,50,0,0
38236,-57.1428571428571,4,2,6,50,0,0
38460,-57.1428571428571,4,2,1,50,0,0
38684,437.956204379562,4,2,4,50,1,0
38684,-66.6666666666667,4,2,4,50,0,0
38902,-66.6666666666667,4,2,1,50,0,0
39121,-95.2380952380952,4,2,6,50,0,0
39340,-95.2380952380952,4,2,6,50,0,0
39559,454.545454545455,4,2,1,50,1,0
39559,-55.5555555555556,4,2,1,50,0,0
39731,-55.5555555555556,4,2,20,5,0,0
39786,-55.5555555555556,4,2,1,50,0,0
40013,-55.5555555555556,4,2,1,50,0,0
40695,-50,4,2,1,50,0,0
40865,-50,4,2,20,5,0,0
40922,-50,4,2,1,50,0,0
41377,444.444444444444,4,2,1,50,1,0
41599,-55.5555555555556,4,2,1,50,0,0
42210,-55.5555555555556,4,2,20,5,0,0
42265,447.761194029851,4,2,1,50,1,0
42488,-50,4,2,1,50,0,0
42656,-50,4,2,20,5,0,0
42712,-50,4,2,1,50,0,0
43160,451.127819548872,4,2,1,50,1,0
43160,-58.8235294117647,4,2,1,50,0,0
44062,-55.5555555555556,4,2,1,50,0,0
44513,434.782608695652,4,2,1,50,1,0
44513,-55.5555555555556,4,2,1,50,0,0
44947,447.761194029851,4,2,1,50,1,0
45170,-55.5555555555556,4,2,1,50,0,0
45394,-55.5555555555556,4,2,1,50,0,0
45730,-52,4,2,1,50,0,0
45842,-66.6666666666667,4,2,1,50,0,0
46066,-50,4,2,1,50,0,0
46234,-50,4,2,20,5,0,0
46290,-100,4,2,1,50,0,0
46514,413.793103448276,4,2,1,50,1,0
46720,476.190476190476,4,2,1,50,1,0
46839,461.538461538462,4,2,1,50,1,0
46839,-41.6666666666667,4,2,1,50,0,0
47069,421.052631578947,4,2,1,50,1,0
47069,-41.6666666666667,4,2,1,50,0,0
47174,441.176470588235,4,2,1,50,1,0
47394,461.538461538462,4,2,1,50,1,0
47624,-40,4,2,1,50,0,0
47740,387.096774193548,4,2,1,50,1,0
47740,-37.037037037037,4,2,1,50,0,0
47836,545.454545454546,4,2,1,50,1,0
47972,422.535211267606,4,2,3,50,1,0
47972,-100,4,2,3,50,0,0
48183,447.761194029851,4,2,3,50,1,0
48183,-100,4,2,3,50,0,0
48406,444.444444444444,4,2,1,50,1,0
48408,-100,4,2,1,50,0,0
48850,500,4,2,1,50,1,0
48850,-49.5049504950495,4,2,1,50,0,0
49100,422.535211267606,4,2,1,50,1,0
49205,434.782608695652,4,2,1,50,1,0
49205,-63.6942675159236,4,2,1,50,0,0
49368,-63.6942675159236,4,2,20,5,0,0
49422,461.538461538462,4,2,2,50,1,0
49652,-142.857142857143,4,2,3,50,0,0
49883,-142.857142857143,4,2,3,50,0,0
50114,437.956204379562,4,2,3,50,1,0
50114,-142.857142857143,4,2,3,50,0,0
50332,444.444444444444,4,2,3,50,1,0
50332,-142.857142857143,4,2,3,50,0,0
50554,-142.857142857143,4,2,3,50,0,0
50776,-142.857142857143,4,2,3,50,0,0
50998,-142.857142857143,4,2,3,50,0,0
51220,447.761194029851,4,2,3,50,1,0
51220,-142.857142857143,4,2,3,50,0,0
54354,437.956204379562,4,2,3,50,1,0
54354,-142.857142857143,4,2,3,50,0,0
54791,446.927374301676,4,2,3,50,1,0
54791,-100,4,2,3,50,0,0
55684,-111.111111111111,4,2,3,50,0,0
56578,447.761194029851,4,2,3,50,1,0
56578,-111.111111111111,4,2,3,50,0,0
57921,461.538461538462,4,2,3,50,1,0
57921,-111.111111111111,4,2,3,50,0,0
58382,447.761194029851,4,2,3,50,1,0
58605,-100,4,2,3,50,0,0
60173,434.782608695652,4,2,3,50,1,0
60607,468.75,4,2,3,50,1,0
60841,-100,4,2,3,50,0,0
61075,444.444444444444,4,2,3,60,1,0
61075,-100,4,2,3,60,0,0
61519,-76.9230769230769,4,2,3,60,0,0
61963,447.761194029851,4,2,3,60,1,0
61963,-66.6666666666667,4,2,3,60,0,0
62410,-52.6315789473684,4,2,3,60,0,0
62634,-100,4,2,3,60,0,0
62858,468.75,4,2,3,60,1,0
62858,-66.6666666666667,4,2,3,60,0,0
63092,-100,4,2,3,60,0,0
63209,-100,4,2,1,60,0,0
63326,434.782608695652,4,2,1,70,1,0
63326,-50,4,2,1,70,0,0
63543,-44.4444444444445,4,2,5,70,0,0
63760,447.761194029851,4,2,4,80,1,1
63760,-40,4,2,4,80,0,1
63983,-40,4,2,1,80,0,1
64207,-45.4545454545455,4,2,4,80,0,1
64319,-45.4545454545455,4,2,1,80,0,1
64655,-40,4,2,4,80,0,1
64879,-40,4,2,6,80,0,1
64991,-40,4,2,10,80,0,1
65103,-45.4545454545455,4,2,1,80,0,1
65215,-45.4545454545455,4,2,6,80,0,1
65551,-40,4,2,1,80,0,1
65662,-40,4,2,6,80,0,1
65774,-40,4,2,1,80,0,1
65998,434.782608695652,4,2,4,80,1,1
65998,-40,4,2,4,80,0,1
66106,-45.4545454545455,4,2,1,80,0,1
66215,-45.4545454545455,4,2,6,80,0,1
66378,-45.4545454545455,4,2,20,5,0,1
66432,-33.3333333333333,4,2,4,80,0,1
66650,-45.4545454545455,4,2,1,80,0,1
66758,-45.4545454545455,4,2,6,80,0,1
66867,458.015267175573,4,2,4,80,1,1
66867,-45.4545454545455,4,2,4,80,0,1
66981,-45.4545454545455,4,2,1,80,0,1
67096,-66.6666666666667,4,2,1,80,0,1
67325,441.176470588235,4,2,4,80,1,1
67325,-40,4,2,4,80,0,1
67435,-40,4,2,1,80,0,1
67545,-40,4,2,6,80,0,1
67655,-40,4,2,1,80,0,1
67766,-50,4,2,4,80,0,1
67876,-50,4,2,1,80,0,1
67986,-50,4,2,6,80,0,1
68097,-50,4,2,1,80,0,1
68207,-58.8235294117647,4,2,4,80,0,1
68427,-58.8235294117647,4,2,6,80,0,1
68536,-58.8235294117647,4,2,1,80,0,1
68648,447.761194029851,4,2,4,80,1,1
68648,-50,4,2,4,80,0,1
68815,-50,4,2,20,5,0,1
68871,-83.3333333333333,4,2,1,80,0,1
69095,451.127819548872,4,2,4,80,1,1
69095,-50,4,2,4,80,0,1
69207,-50,4,2,1,80,0,1
69546,-43.4782608695652,4,2,4,80,0,1
69658,-43.4782608695652,4,2,1,80,0,1
69997,-40,4,2,4,80,0,1
70110,-40,4,2,1,80,0,1
70222,-40,4,2,1,80,0,1
70448,-50,4,2,6,80,0,1
70673,-83.3333333333333,4,2,6,80,0,1
70786,-83.3333333333333,4,2,6,80,0,1
70899,444.444444444444,4,2,4,80,1,1
70899,-43.4782608695652,4,2,4,80,0,1
71121,-45.4545454545455,4,2,1,80,0,1
71343,-45.4545454545455,4,2,4,80,0,1
71454,-45.4545454545455,4,2,6,80,0,1
71565,-45.4545454545455,4,2,1,80,0,1
71787,-40,4,2,4,80,0,1
72010,-40,4,2,1,80,0,1
72232,-45.4545454545455,4,2,4,80,0,1
72343,-45.4545454545455,4,2,1,80,0,1
72454,-45.4545454545455,4,2,6,80,0,1
72676,447.761194029851,4,2,4,80,1,1
72676,-40,4,2,4,80,0,1
72843,-40,4,2,20,5,0,1
72899,-40,4,2,6,80,0,1
73123,-40,4,2,4,80,0,1
73235,-40,4,2,6,80,0,1
73571,-45.4545454545455,4,2,1,80,0,1
73683,-45.4545454545455,4,2,1,80,0,1
73795,-45.4545454545455,4,2,1,80,0,1
74019,-45.4545454545455,4,2,4,80,0,1
74131,-45.4545454545455,4,2,1,80,0,1
74243,491.803278688525,4,2,6,80,1,1
74243,-45.4545454545455,4,2,6,80,0,1
74488,454.545454545455,4,2,5,80,1,1
74488,-40,4,2,5,80,0,1
74658,-40,4,2,20,5,0,1
74715,-40,4,2,1,80,0,1
74942,434.782608695652,4,2,1,80,1,1
74942,-45.4545454545455,4,2,1,80,0,1
75105,-45.4545454545455,4,2,20,5,0,1
75159,-45.4545454545455,4,2,1,80,0,1
75376,454.545454545455,4,2,1,80,1,1
75376,-66.6666666666667,4,2,1,80,0,1
75546,-66.6666666666667,4,2,20,5,0,1
75603,-50,4,2,1,80,0,1
75830,-31.25,4,2,5,80,0,1
76057,-28.5714285714286,4,2,1,80,0,1
76285,447.761194029851,4,2,1,80,1,1
76285,-40,4,2,1,80,0,1
76508,-66.6666666666667,4,2,1,80,0,1
76732,434.782608695652,4,2,1,80,1,1
76732,-36.3636363636364,4,2,1,80,0,1
76949,-57.1428571428571,4,2,1,80,0,1
77166,461.538461538462,4,2,1,80,1,1
77166,-33.3333333333333,4,2,1,80,0,1
77396,-66.6666666666667,4,2,1,80,0,1
77627,447.761194029851,4,2,1,80,1,1
77962,480,4,2,1,80,1,0
77962,-66.6666666666667,4,2,1,80,0,0
78322,444.444444444444,4,2,1,35,1,0
78322,-200,4,2,1,35,0,0
79210,491.803278688525,4,2,1,35,1,0
79578,447.761194029851,4,2,1,35,1,0
79637,461.538461538462,4,2,1,35,1,0
79801,454.545454545455,4,2,1,35,1,0
79801,-166.666666666667,4,2,1,35,0,0
80085,-100,4,2,1,10,0,0
80141,416.666666666667,4,2,1,35,1,0
80141,-200,4,2,1,35,0,0
80557,447.761194029851,4,2,1,35,1,0
81004,491.803278688525,4,2,1,35,1,0
81372,461.538461538462,4,2,1,35,1,0
81440,461.538461538462,4,2,1,35,1,0
81602,322.58064516129,4,2,1,35,1,0
81682,447.761194029851,4,2,1,50,1,0
81682,-83.3333333333333,4,2,1,50,0,0
82129,-83.3333333333333,4,2,1,50,0,0
82577,-62.5,4,2,1,50,0,0
83473,-83.3333333333333,4,2,1,50,0,0
84816,444.444444444444,4,2,1,50,1,0
84816,-83.3333333333333,4,2,1,50,0,0
85260,468.75,4,2,1,50,1,0
85611,447.761194029851,4,2,6,60,1,0
85611,-100,4,2,6,60,0,0
85834,434.782608695652,4,2,6,60,1,0
85834,-76.9230769230769,4,2,6,60,0,0
86051,394.736842105263,4,2,6,60,1,0
86149,447.761194029851,4,2,6,60,1,0
86149,-58.8235294117647,4,2,6,60,0,0
86372,-76.9230769230769,4,2,6,60,0,0
86596,-100,4,2,6,60,0,0
86820,434.782608695652,4,2,6,60,1,0
87037,495.867768595041,4,2,6,60,1,0
87284,447.761194029851,4,2,6,60,1,0
87284,-133.333333333333,4,2,6,60,0,0
87451,-133.333333333333,4,2,1,60,0,0
87715,447.761194029851,4,2,1,80,1,0
87715,-39.2156862745098,4,2,1,80,0,0
88386,-28.5714285714286,4,2,1,20,0,0

[Colours]
Combo1 : 108,0,54
Combo2 : 0,64,128
Combo3 : 0,128,192
Combo4 : 255,255,70
Combo5 : 0,210,0
Combo6 : 192,192,192
Combo7 : 139,139,139
Combo8 : 155,0,0

[HitObjects]
121,259,195,101,2,0:0:0:0:
204,60,328,1,2,0:0:0:0:
197,55,563,6,0,P|168:82|161:129,1,59.9999981689454,2|0,0:0|0:0,0:0:0:0:
245,189,769,2,0,P|240:159|248:131,1,59.9999981689454,2|0,0:0|0:0,0:0:0:0:
336,169,976,2,0,P|351:205|393:228,1,59.9999981689454,2|0,0:0|0:0,0:0:0:0:
474,233,1222,101,2,0:0:0:0:
420,222,1326,5,2,0:0:0:0:
375,240,1431,101,2,0:0:0:0:
350,277,1536,5,2,0:0:0:0:
314,304,1641,101,2,0:0:0:0:
268,306,1748,5,2,0:0:0:0:
203,260,1855,101,2,0:0:0:0:
268,306,1978,5,0,3:2:0:0:
281,248,2049,1,0,3:2:0:0:
252,197,2121,1,0,3:2:0:0:
197,182,2193,1,0,3:2:0:0:
143,205,2265,1,0,3:2:0:0:
121,259,2337,1,0,3:2:0:0:
142,314,2409,2,0,P|184:339|214:337,1,66.6666666666667,0|0,3:2|0:0,0:0:0:0:
203,259,2641,102,0,B|164:253|88:295|58:344|58:344|89:269|56:223|25:209|25:209|-24:187|-55:94|-33:8|160:-4|170:115|113:186|113:186|134:110|159:66|264:26|356:59|373:179|338:242|314:244|246:257,1,1126.76056338028,6|2,1:2|1:3,0:0:0:0:
315,230,4037,22,0,P|326:274|339:341,1,100
336,327,4918,1,0,0:0:0:0:
315,230,5299,1,0,0:0:0:0:
485,102,5512,6,0,P|476:138|472:164,1,56.2499982833863
479,171,5838,102,0,B|430:162|430:162|425:165|425:165|381:157,1,100
381,157,6688,1,0,0:0:0:0:
479,172,7053,1,0,0:0:0:0:
371,33,7285,6,0,B|334:39|334:39|330:37|330:37|295:44,1,74.9999977111817
289,59,7595,102,0,P|236:46|204:-2,1,100
208,12,8470,1,0,0:0:0:0:
289,59,8857,1,0,0:0:0:0:
80,160,9084,6,0,P|117:141|140:142,1,56.2499982833863
151,152,9394,102,0,P|141:208|137:255,1,100
137,250,10259,1,0,0:0:0:0:
151,152,10643,1,0,0:0:0:0:
36,340,10855,5,0,0:0:0:0:
36,340,10953,2,0,P|16:258|13:202,1,119.999996337891,2|2,0:0|0:3,0:0:0:0:
235,38,11400,2,0,P|255:120|258:176,1,119.999996337891,2|2,0:0|0:3,0:0:0:0:
209,212,11736,1,0,0:0:0:0:
151,152,11848,102,0,B|287:153|224:235|384:240,1,240,2|0,0:0|0:0,0:0:0:0:
483,278,12296,2,0,P|473:217|471:211,1,37.5000014305115,2|0,0:0|0:0,0:0:0:0:
255,313,12508,2,0,P|245:374|243:380,1,37.5000014305115,2|0,0:3|0:0,0:0:0:0:
483,374,12721,6,0,P|398:351|346:354,1,80,2|0,0:0|0:0,0:0:0:0:
209,212,12944,2,0,P|294:189|346:192,1,80,2|0,0:3|0:0,0:0:0:0:
459,57,13168,1,2,0:0:0:0:
342,17,13280,1,0,0:0:0:0:
459,57,13392,102,0,P|446:137|444:164,1,80,2|0,0:3|0:0,0:0:0:0:
209,212,13616,2,0,P|222:132|224:105,1,80,2|0,0:0|0:0,0:0:0:0:
422,281,13837,2,0,P|409:361|407:388,1,80,2|0,0:3|0:0,0:0:0:0:
339,246,14058,5,2,0:0:0:0:
499,194,14169,1,0,0:0:0:0:
339,246,14280,2,0,P|324:137|304:59,1,160,2|2,0:3|0:0,0:0:0:0:
55,134,14610,101,0,0:0:0:0:
55,134,14719,2,0,P|70:243|79:282,1,89.9999972534181,2|0,0:3|0:0,0:0:0:0:
220,291,14938,2,0,P|211:226|204:194,1,80,2|0,0:0|0:0,0:0:0:0:
312,88,15161,2,0,P|363:65|393:77,1,64.9999970245363,2|0,0:3|0:0,0:0:0:0:
386,84,15385,6,0,B|349:106|294:101|270:66|270:66|240:26|177:14|126:65,1,262.500002503395,2|0,0:0|0:0,0:0:0:0:
182,151,15833,101,2,0:0:0:0:
197,118,15945,1,0,0:0:0:0:
91,178,16057,1,2,0:3:0:0:
219,234,16169,1,0,0:0:0:0:
197,118,16281,1,2,0:0:0:0:
112,293,16392,1,0,0:0:0:0:
197,118,16504,6,0,P|261:110|297:109,1,80,2|0,0:3|0:0,0:0:0:0:
512,2,16728,2,0,P|448:10|412:11,1,80,2|0,0:0|0:0,0:0:0:0:
362,199,16952,2,0,P|426:191|462:190,1,80,2|0,0:3|0:0,0:0:0:0:
490,125,17176,101,2,0:0:0:0:
300,258,17288,1,0,0:0:0:0:
349,81,17400,2,0,P|371:111|375:137,1,40,2|2,0:3|0:3,0:0:0:0:
380,86,17512,2,0,P|380:123|369:146,1,40,2|2,0:3|0:3,0:0:0:0:
324,177,17624,6,0,B|240:202|211:132|211:132|210:50|98:22|64:93|92:162|142:180|213:146,1,428.750004088879,4|0,0:0|0:0,0:0:0:0:
192,142,18085,102,0,P|168:221|160:333,1,179.999994506836,4|2,0:0|0:2,0:0:0:0:
380,369,18420,1,0,0:0:0:0:
380,369,18532,2,0,P|404:290|412:178,1,179.999994506836,8|2,1:2|0:3,0:0:0:0:
350,109,18868,5,0,0:0:0:0:
350,109,18980,2,0,P|317:167|331:183,1,89.9999972534181,2|0,0:0|0:0,0:0:0:0:
512,67,19204,2,0,P|436:55|412:50,1,89.9999972534181,2|0,0:3|0:0,0:0:0:0:
300,7,19428,1,8,1:2:0:0:
300,7,19652,101,2,0:3:0:0:
412,193,19764,1,2,0:3:0:0:
323,176,19876,1,2,0:0:0:0:
423,52,19989,1,0,0:0:0:0:
329,195,20103,1,2,0:3:0:0:
409,34,20216,1,0,0:0:0:0:
510,244,20330,5,8,1:2:0:0:
510,244,20441,2,0,B|459:203|412:220|412:220|393:281|297:286,1,179.999994506836
210,328,20777,102,0,P|313:347|338:355,1,89.9999972534181,2|0,0:0|0:0,0:0:0:0:
92,255,21001,1,2,0:3:0:0:
149,384,21113,1,0,0:0:0:0:
92,255,21225,6,0,P|200:226|260:220,1,134.999995880127,8|0,1:2|0:0,0:0:0:0:
225,211,21449,2,0,P|158:222|94:243,1,134.999995880127,2|0,0:3|0:0,0:0:0:0:
16,217,21673,102,0,P|47:128|146:146,1,179.999994506836,2|2,0:0|0:3,0:0:0:0:
128,141,22006,1,0,0:0:0:0:
229,19,22117,2,0,P|216:122|214:148,1,89.9999972534181,8|0,1:2|0:0,0:0:0:0:
362,272,22339,1,2,0:3:0:0:
362,272,22450,2,0,P|375:169|377:143,1,89.9999972534181,0|2,0:0|0:0,0:0:0:0:
470,106,22673,6,0,B|353:96|413:176|281:164,1,200
217,108,23006,1,8,1:2:0:0:
217,108,23235,101,2,0:3:0:0:
123,284,23347,1,2,0:3:0:0:
64,203,23463,2,0,P|142:195|170:189,2,89.9999972534181,2|0|2,0:0|0:0|0:3,0:0:0:0:
281,355,23800,5,0,0:0:0:0:
233,286,23912,1,8,1:2:0:0:
196,361,24024,1,0,0:0:0:0:
281,355,24137,102,0,P|325:362|370:365,1,89.9999972534181,2|0,0:3|0:0,0:0:0:0:
512,246,24361,2,0,P|467:238|422:235,1,89.9999972534181,2|0,0:0|0:0,0:0:0:0:
217,108,24586,2,0,P|261:115|306:118,1,89.9999972534181,2|0,0:3|0:0,0:0:0:0:
431,3,24811,6,0,P|337:152|330:296,1,300.000011444092,8|2,3:2|3:0,0:0:0:0:
334,284,25137,1,2,3:0:0:0:
422,235,25245,102,0,P|350:195|248:344,1,300,6|0,0:0|0:0,0:0:0:0:
0,208,25706,1,8,1:2:0:0:
35,279,25817,2,0,P|124:276|143:273,1,85.0000016212464,2|2,0:0|0:3,0:0:0:0:
0,208,26039,1,0,0:0:0:0:
145,380,26150,6,0,P|149:260|161:156,1,200,2|2,0:0|0:3,0:0:0:0:
434,35,26594,2,0,P|430:155|418:259,1,200,10|2,1:2|0:3,0:0:0:0:
354,278,26928,1,2,0:3:0:0:
481,340,27039,102,0,B|431:326|431:326|370:366,1,100,2|0,0:0|0:0,0:0:0:0:
190,125,27262,1,2,0:3:0:0:
261,174,27374,1,0,0:0:0:0:
180,214,27486,6,0,B|243:189|294:230|294:230|325:294|428:280,1,200,10|2,1:2|0:3,0:0:0:0:
380,201,27822,1,0,0:0:0:0:
260,328,27934,2,0,P|175:315|145:313,1,59.9999981689454,2|0,0:0|0:0,0:0:0:0:
261,174,28158,102,0,P|278:243|280:261,1,59.9999981689454,2|0,0:3|0:0,0:0:0:0:
481,340,28382,2,0,P|464:271|462:253,1,59.9999981689454,8|0,1:2|0:0,0:0:0:0:
475,73,28606,1,2,0:3:0:0:
380,201,28718,1,2,0:3:0:0:
475,73,28830,6,0,B|379:61|379:61|367:66|367:66|262:55,1,200,2|2,0:0|0:3,0:0:0:0:
103,150,29165,101,0,0:0:0:0:
172,204,29277,2,0,P|193:141|167:89,1,85.0000016212464,8|0,1:2|0:0,0:0:0:0:
40,95,29501,2,0,P|19:158|45:210,1,85.0000016212464,2|0,0:3|0:0,0:0:0:0:
105,266,29725,6,0,P|205:232|321:234,1,200,2|2,0:0|0:3,0:0:0:0:
470,20,30051,1,0,0:0:0:0:
470,20,30159,2,0,P|370:54|254:52,1,200,10|2,1:2|0:3,0:0:0:0:
472,178,30485,1,2,0:3:0:0:
380,201,30594,102,0,P|389:158|395:110,1,75.0000028610231,2|0,0:0|0:0,0:0:0:0:
512,353,30828,1,2,0:3:0:0:
420,378,30945,1,0,0:0:0:0:
512,353,31062,6,0,P|446:290|332:364,1,200,10|2,1:2|0:3,0:0:0:0:
172,204,31397,1,0,0:0:0:0:
150,287,31509,2,0,P|215:282|244:254,1,75.0000028610231,2|0,0:0|0:0,0:0:0:0:
331,113,31733,2,0,P|266:118|237:146,1,75.0000028610231,2|0,0:3|0:0,0:0:0:0:
40,95,31957,101,8,1:2:0:0:
107,32,32070,1,0,0:0:0:0:
129,120,32184,1,2,0:3:0:0:
18,12,32297,1,2,0:3:0:0:
129,120,32411,6,0,B|165:72|225:89|225:89|257:161|355:135,1,220.000006713867,2|2,0:0|0:3,0:0:0:0:
448,49,32749,1,0,0:0:0:0:
343,21,32862,1,8,1:2:0:0:
458,67,32974,2,0,P|449:160|451:179,1,75.0000028610231,0|2,0:0|0:3,0:0:0:0:
343,21,33200,1,0,0:0:0:0:
189,173,33313,102,0,P|216:301|283:403,1,220.000006713867,2|2,0:0|0:3,0:0:0:0:
462,306,33651,1,0,0:0:0:0:
462,306,33764,2,0,P|435:178|368:76,1,220.000006713867,10|2,1:2|0:3,0:0:0:0:
311,96,34092,1,2,0:3:0:0:
503,16,34201,6,0,P|484:74|484:122,1,89.9999972534181,2|0,0:0|0:0,0:0:0:0:
296,279,34426,2,0,P|315:221|315:173,1,89.9999972534181,2|0,0:3|0:0,0:0:0:0:
430,342,34652,102,0,B|327:321|375:402|235:372,1,179.999994506836,10|2,1:2|0:3,0:0:0:0:
111,287,34990,1,0,0:0:0:0:
180,224,35103,2,0,P|199:273|206:302,1,59.9999981689454,2|0,0:0|0:0,0:0:0:0:
45,147,35328,2,0,P|64:196|71:225,1,59.9999981689454,2|0,0:3|0:0,0:0:0:0:
159,29,35554,2,0,P|178:78|185:107,1,59.9999981689454,8|0,1:2|0:0,0:0:0:0:
255,61,35779,5,2,0:3:0:0:
255,61,35892,1,2,0:3:0:0:
45,147,35998,2,0,P|115:152|152:162,1,100,2|0,0:0|0:0,0:0:0:0:
255,61,36221,101,2,0:3:0:0:
180,224,36333,1,0,0:0:0:0:
401,140,36445,2,0,P|331:135|294:125,1,100,8|0,1:2|0:0,0:0:0:0:
7,228,36669,2,0,P|77:233|114:243,1,100,2|0,0:3|0:0,0:0:0:0:
217,142,36893,5,2,0:0:0:0:
142,305,37005,1,0,0:0:0:0:
363,221,37117,2,0,P|293:216|256:206,1,100,2|0,0:3|0:0,0:0:0:0:
72,17,37341,101,8,1:2:0:0:
142,305,37565,1,2,0:3:0:0:
180,224,37677,1,2,0:3:0:0:
121,317,37789,6,0,P|277:343|335:364,1,200,2|2,0:0|0:3,0:0:0:0:
443,147,38124,1,0,0:0:0:0:
512,176,38236,2,0,P|406:201|338:229,1,175.00000166893,10|2,1:2|0:3,0:0:0:0:
226,41,38572,1,0,0:0:0:0:
162,75,38684,2,0,P|246:99|309:132,1,150.000005722046,2|2,0:0|0:3,0:0:0:0:
378,1,39012,1,0,0:0:0:0:
448,21,39121,102,0,P|385:40|317:85,1,104.999996795654,10|0,1:2|3:0,0:0:0:0:
180,224,39450,1,0,3:0:0:0:
58,105,39559,6,0,P|72:17|69:-8,1,89.9999972534181,6|0,0:0|0:0,0:0:0:0:
226,41,39786,2,0,P|212:129|215:154,1,89.9999972534181,2|0,0:3|0:0,0:0:0:0:
328,274,40013,102,0,P|248:209|158:241,1,179.999994506836,8|2,1:2|0:3,0:0:0:0:
85,200,40354,1,0,0:0:0:0:
85,200,40468,2,0,P|107:289|111:320,1,89.9999972534181,2|0,0:0|0:0,0:0:0:0:
259,186,40695,2,0,P|228:62|222:18,1,150,2|0,0:3|0:0,0:0:0:0:
231,31,40922,6,0,B|172:-3|127:39|127:39|111:103|31:96,1,200,8|2,1:2|0:3,0:0:0:0:
48,20,41263,1,2,0:3:0:0:
48,20,41377,1,2,0:0:0:0:
259,186,41599,102,0,P|245:278|249:298,1,89.9999972534181,2|0,0:3|0:0,0:0:0:0:
420,305,41821,2,0,P|434:213|430:193,1,89.9999972534181,8|0,1:2|0:0,0:0:0:0:
318,318,42043,2,0,P|214:335|150:363,1,134.999995880127,2|0,0:3|0:0,0:0:0:0:
167,340,42265,5,2,0:0:0:0:
0,277,42376,1,0,0:0:0:0:
86,205,42488,2,0,B|75:280|75:280|78:286|78:286|67:367,1,150,2|0,0:3|0:0,0:0:0:0:
71,367,42712,101,8,1:2:0:0:
224,40,42936,1,2,0:3:0:0:
160,97,43048,1,2,0:3:0:0:
246,126,43160,6,0,P|304:113|341:111,1,85.0000016212464,2|0,0:0|0:0,0:0:0:0:
487,244,43385,2,0,P|429:257|392:259,1,85.0000016212464,2|0,0:3|0:0,0:0:0:0:
332,27,43611,2,0,P|390:14|427:12,1,85.0000016212464,8|0,1:2|0:0,0:0:0:0:
246,127,43836,1,2,0:3:0:0:
126,13,43949,1,0,0:0:0:0:
246,127,44062,102,0,P|241:199|240:237,1,89.9999972534181,2|0,0:0|0:0,0:0:0:0:
79,297,44287,2,0,P|84:225|85:187,1,89.9999972534181,2|0,0:3|0:0,0:0:0:0:
347,313,44513,2,0,B|263:303|263:303|249:307|249:307|160:297,1,179.999994506836,8|2,1:2|0:3,0:0:0:0:
128,369,44839,1,2,0:3:0:0:
128,369,44947,1,2,0:0:0:0:
415,12,45170,6,0,B|447:46|447:46|444:123,1,89.9999972534181,2|0,0:3|0:0,0:0:0:0:
340,127,45394,2,0,B|308:93|308:93|311:16,1,89.9999972534181,8|0,1:2|0:0,0:0:0:0:
495,171,45618,1,2,0:3:0:0:
407,230,45730,1,0,0:0:0:0:
495,171,45842,102,0,P|488:229|487:266,1,75.0000028610231,2|0,0:0|0:0,0:0:0:0:
338,375,46066,2,0,P|320:289|317:200,1,150,2|0,0:3|0:0,0:0:0:0:
321,214,46290,1,8,1:2:0:0:
478,343,46402,6,0,P|424:337|408:336,1,50,0|2,0:0|0:3,0:0:0:0:
414,322,46617,1,2,0:3:0:0:
226,378,46720,1,2,0:0:0:0:
152,277,46839,102,0,P|246:297|293:302,1,119.999996337891,8|0,3:2|0:0,0:0:0:0:
30,368,47069,1,0,3:0:0:0:
0,293,47174,1,8,3:2:0:0:
80,310,47284,1,0,3:0:0:0:
30,368,47394,5,0,3:0:0:0:
28,338,47470,1,0,3:0:0:0:
24,308,47547,1,0,3:0:0:0:
20,276,47624,1,0,1:0:0:0:
163,191,47740,1,0,3:0:0:0:
9,93,47836,1,8,3:0:0:0:
109,17,47972,102,0,P|104:41|100:66,1,50,2|0,1:3|0:0,0:0:0:0:
0,141,48183,2,0,P|5:117|9:92,1,50,2|0,1:3|0:0,0:0:0:0:
71,197,48406,1,8,3:2:0:0:
8,3,48517,1,8,3:2:0:0:
208,40,48628,1,8,3:2:0:0:
100,66,48739,1,8,3:0:0:0:
263,204,48850,6,0,B|362:184|309:250|427:226,1,151.499996994782,4|0,1:2|0:0,0:0:0:0:
414,215,49100,1,8,3:0:0:0:
183,306,49205,102,0,P|177:248|162:189,1,117.750000449181,8|0,3:0|0:0,0:0:0:0:
147,179,49422,1,4,0:0:0:0:
468,19,49652,54,0,P|456:60|457:65,1,34.9999989318848,2|0,0:3|0:0,0:0:0:0:
376,59,49883,2,0,P|389:99|393:102,1,34.9999989318848,2|0,0:2|0:0,0:0:0:0:
325,147,50114,2,0,P|359:172|364:173,1,34.9999989318848,2|0,0:3|0:0,0:0:0:0:
512,326,50332,6,0,L|467:334,1,34.9999989318848,2|0,0:2|0:0,0:0:0:0:
364,300,50554,2,0,L|409:292,1,34.9999989318848,2|0,0:3|0:0,0:0:0:0:
512,204,50776,2,0,L|467:212,1,34.9999989318848,2|0,0:2|0:0,0:0:0:0:
290,153,50998,2,0,L|335:145,1,34.9999989318848,2|0,0:3|0:0,0:0:0:0:
230,384,51220,102,0,P|218:343|223:303,1,69.9999978637696,2|2,0:2|0:3,0:0:0:0:
261,255,51667,1,2,0:2:0:0:
42,197,51891,6,0,P|55:185|71:178,1,34.9999989318848,2|0,0:3|0:0,0:0:0:0:
200,197,52115,2,0,P|183:190|169:180,1,34.9999989318848,2|0,0:2|0:0,0:0:0:0:
121,68,52339,2,0,P|123:85|121:102,1,34.9999989318848,2|0,0:3|0:0,0:0:0:0:
117,268,52563,102,0,P|116:251|119:234,1,34.9999989318848,2|0,0:2|0:0,0:0:0:0:
225,93,52787,2,0,P|211:103|195:110,1,34.9999989318848,2|0,0:3|0:0,0:0:0:0:
17,90,53011,2,0,P|33:98|47:109,1,34.9999989318848,2|0,0:2|0:0,0:0:0:0:
71,178,53234,5,2,0:3:0:0:
71,178,53458,1,2,0:2:0:0:
257,314,53682,101,2,0:3:0:0:
272,323,53794,1,0,0:0:0:0:
282,312,53906,2,0,L|286:268,1,34.9999989318848,2|0,0:2|0:0,0:0:0:0:
350,169,54130,2,0,L|346:213,1,34.9999989318848,2|0,0:3|0:0,0:0:0:0:
473,234,54354,6,0,P|417:251|398:269,1,69.9999978637696,2|2,0:2|0:3,0:0:0:0:
158,164,54791,2,0,P|197:193|265:195,1,100,2|2,0:2|0:3,0:0:0:0:
310,151,55237,1,2,0:2:0:0:
310,151,55461,1,2,0:3:0:0:
234,3,55684,102,0,P|228:50|224:105,1,89.9999972534181,2|2,0:2|0:3,0:0:0:0:
98,113,56020,1,0,0:0:0:0:
79,100,56131,2,0,P|85:53|89:-2,1,89.9999972534181,2|2,0:2|0:3,0:0:0:0:
168,159,56466,5,0,0:0:0:0:
158,164,56578,2,0,P|192:174|219:175,1,44.999998626709,2|0,0:2|0:0,0:0:0:0:
224,252,56801,2,0,P|258:240|280:226,1,44.999998626709,2|0,0:3|0:0,0:0:0:0:
451,245,57025,102,0,P|416:255|390:256,1,44.999998626709,2|0,0:2|0:0,0:0:0:0:
385,333,57249,2,0,P|350:321|328:307,1,44.999998626709,2|0,0:3|0:0,0:0:0:0:
271,192,57473,6,0,L|264:253,1,44.999998626709,2|0,0:2|0:0,0:0:0:0:
149,332,57697,2,0,L|156:271,1,44.999998626709,2|0,0:3|0:0,0:0:0:0:
48,159,57921,2,0,L|37:248,1,89.9999972534181,2|2,0:2|0:3,0:0:0:0:
42,265,58267,1,0,0:0:0:0:
56,274,58382,102,0,B|114:264|98:300|175:283,1,100,2|2,0:2|0:3,0:0:0:0:
207,225,58829,1,2,0:2:0:0:
99,31,59053,5,2,0:3:0:0:
88,54,59165,1,0,0:0:0:0:
108,71,59277,2,0,L|169:61,1,50,2|0,0:2|0:0,0:0:0:0:
207,225,59501,2,0,L|167:177,1,50,2|0,0:3|0:0,0:0:0:0:
297,70,59725,2,0,L|275:127,1,50,2|0,0:2|0:0,0:0:0:0:
206,119,59949,1,2,0:3:0:0:
206,119,60173,102,0,B|328:126|262:201|405:199,1,200,2|2,0:2|0:2,0:0:0:0:
499,323,60841,6,0,P|473:330|442:345,1,50,2|0,0:3|0:0,0:0:0:0:
371,315,61075,2,0,P|399:273|412:264,1,50,2|0,0:2|0:0,0:0:0:0:
334,181,61297,2,0,P|360:188|391:203,1,50,2|0,0:3|0:0,0:0:0:0:
467,172,61519,102,0,P|439:130|426:121,1,64.9999970245363,2|0,0:2|0:0,0:0:0:0:
259,39,61741,2,0,P|287:81|300:90,1,64.9999970245363,2|0,0:3|0:0,0:0:0:0:
427,40,61963,2,0,P|390:30|345:8,1,75.0000028610231,2|0,0:2|0:0,0:0:0:0:
164,120,62186,2,0,P|201:130|246:152,1,75.0000028610231,2|0,0:3|0:0,0:0:0:0:
250,219,62410,5,2,0:2:0:0:
47,81,62634,1,2,0:3:0:0:
356,14,62858,2,0,P|346:79|347:118,1,75.0000028610231,2|0,0:2|0:0,0:0:0:0:
282,132,63092,1,2,0:3:0:0:
218,82,63209,101,8,0:0:0:0:
381,197,63326,2,0,P|437:183|485:177,1,100,2|0,0:0|0:0,0:0:0:0:
159,334,63543,2,0,P|90:316|31:309,1,112.500004291535,12|0,0:0|0:0,0:0:0:0:
282,132,63760,86,0,B|265:170|251:220|251:220|309:264|318:363|248:389,1,250,6|8,0:0|1:2,0:0:0:0:
164,120,64095,1,0,0:0:0:0:
41,220,64207,2,0,P|139:205|164:204,1,110.000003356934,2|0,0:0|0:0,0:0:0:0:
0,31,64431,2,0,P|54:36|108:46,1,110.000003356934,8|0,1:2|0:0,0:0:0:0:
333,0,64655,6,0,P|234:11|189:167,1,250,2|10,0:0|1:2,0:0:0:0:
381,197,64991,1,0,0:0:0:0:
319,254,65103,2,0,B|295:210|295:210|317:146,1,110.000003356934,2|2,0:0|0:0,0:0:0:0:
446,149,65327,2,0,B|470:193|470:193|448:257,1,110.000003356934,8|2,1:2|0:0,0:0:0:0:
284,359,65551,102,0,P|206:334|121:322,1,125,2|2,0:0|0:0,0:0:0:0:
392,81,65774,2,0,P|470:106|555:118,1,125,8|0,1:2|0:0,0:0:0:0:
177,139,65998,5,2,0:0:0:0:
319,254,66106,1,0,0:0:0:0:
314,153,66215,2,0,B|226:155|262:227|151:221,1,165.000005035401,10|0,1:2|0:0,0:0:0:0:
6,204,66432,102,0,P|144:245|146:407,1,300.000011444092,2|8,0:0|1:2,0:0:0:0:
403,165,66758,1,2,0:0:0:0:
392,81,66867,2,0,P|333:112|318:175,1,110.000003356934,2|0,0:0|0:0,0:0:0:0:
238,131,67096,2,0,P|238:185|258:225,1,75.0000028610231,8|0,1:2|0:0,0:0:0:0:
408,372,67325,6,0,P|334:362|276:358,1,125,2|0,0:0|0:0,0:0:0:0:
5,203,67545,2,0,P|79:213|137:217,1,125,10|0,1:2|0:0,0:0:0:0:
306,56,67766,2,0,P|232:46|174:42,1,100,2|0,0:0|0:0,0:0:0:0:
119,15,67986,1,10,1:2:0:0:
238,131,68097,1,0,0:0:0:0:
126,250,68207,102,0,B|83:206|83:206|127:103,1,170.000003242493,2|10,0:0|1:2,0:0:0:0:
5,203,68538,1,0,0:0:0:0:
119,355,68648,2,0,B|201:338|201:338|204:339|204:339|282:323,1,150,2|0,0:0|0:0,0:0:0:0:
279,338,68871,2,0,L|218:350,1,59.9999981689454,8|0,1:2|0:0,0:0:0:0:
417,271,69095,6,0,L|280:246,1,100,2|0,0:0|0:0,0:0:0:0:
189,155,69320,2,0,L|326:180,1,100,8|0,1:2|0:0,0:0:0:0:
512,92,69546,102,0,L|389:114,1,115.000002193451,2|0,0:0|0:0,0:0:0:0:
234,35,69771,2,0,L|357:13,1,115.000002193451,8|0,1:2|0:0,0:0:0:0:
244,239,69997,6,0,L|120:218,1,125,2|0,0:0|0:0,0:0:0:0:
0,59,70222,2,0,L|123:79,1,125,8|0,1:2|0:0,0:0:0:0:
234,35,70448,101,10,1:2:0:0:
26,201,70561,1,0,0:0:0:0:
295,263,70673,2,0,P|261:240|219:245,1,59.9999981689454,10|0,1:2|0:0,0:0:0:0:
226,270,70899,6,0,B|294:299|342:239|342:239|384:184|465:217,1,230.000004386902,6|8,0:0|1:2,0:0:0:0:
489,258,71232,1,0,0:0:0:0:
384,380,71343,2,0,P|371:311|356:255,1,110.000003356934,2|0,0:0|0:0,0:0:0:0:
478,56,71565,2,0,P|491:125|506:181,1,110.000003356934,8|0,1:2|0:0,0:0:0:0:
361,99,71787,102,0,B|283:84|283:84|213:123|213:123|97:99,1,250,2|8,0:0|1:2,0:0:0:0:
201,39,72121,1,0,0:0:0:0:
57,175,72232,2,0,B|29:130|29:130|48:59,1,110.000003356934,2|0,0:0|0:0,0:0:0:0:
226,270,72454,2,0,B|254:225|254:225|235:154,1,110.000003356934,10|0,1:2|0:0,0:0:0:0:
52,351,72676,6,0,P|150:359|277:383,1,187.5,2|0,0:0|0:0,0:0:0:0:
252,363,72899,2,0,P|174:346|124:341,1,125,10|0,1:2|0:0,0:0:0:0:
334,201,73123,1,2,0:0:0:0:
455,337,73235,1,2,0:0:0:0:
342,301,73347,1,10,1:2:0:0:
453,120,73459,101,2,0:0:0:0:
453,120,73571,2,0,P|439:191|428:258,1,110.000003356934,2|0,0:0|0:0,0:0:0:0:
237,373,73795,2,0,P|249:311|259:250,1,110.000003356934,8|0,1:2|0:0,0:0:0:0:
355,65,74019,2,0,P|341:136|330:203,1,110.000003356934,2|0,0:0|0:0,0:0:0:0:
129,341,74243,2,0,P|143:270|154:203,1,110.000003356934,10|0,1:2|0:0,0:0:0:0:
55,0,74488,6,0,P|1:101|69:146,1,187.5,8|0,1:2|0:0,0:0:0:0:
54,163,74715,2,0,P|119:140|182:133,1,125,2|8,0:0|1:2,0:0:0:0:
235,83,74885,101,8,0:0:0:0:
256,78,74942,2,0,P|353:113|407:163,1,165.000005035401,2|0,0:0|0:0,0:0:0:0:
417,150,75159,2,0,B|453:101|453:101|421:43,1,110.000003356934,8|0,1:2|0:0,0:0:0:0:
252,290,75376,6,0,P|339:270|387:264,1,112.500004291535,2|0,0:0|0:0,0:0:0:0:
376,251,75603,2,0,P|277:267|229:285,1,150,2|0,0:0|0:0,0:0:0:0:
127,299,75830,102,0,B|317:267|227:402|470:369,1,320,12|2,0:0|0:0,0:0:0:0:
484,206,76171,5,0,0:0:0:0:
349,110,76285,2,0,P|323:196|327:251,1,125,12|0,0:0|0:0,0:0:0:0:
400,222,76508,2,0,P|402:184|417:150,1,75.0000028610231,2|0,0:0|0:0,0:0:0:0:
136,7,76732,102,0,P|173:66|162:163,1,137.500001311302,12|0,0:0|0:0,0:0:0:0:
95,134,76949,2,0,P|96:80|53:41,1,87.500000834465,2|0,0:0|0:0,0:0:0:0:
22,110,77166,1,12,0:0:0:0:
230,200,77281,5,0,0:0:0:0:
51,335,77396,2,0,P|43:289|32:253,1,75.0000028610231,2|8,0:0|0:0,0:0:0:0:
368,53,77627,101,12,0:0:0:0:
288,363,77738,1,8,0:0:0:0:
230,200,77850,5,8,0:0:0:0:
486,256,77962,1,8,0:0:0:0:
486,256,78322,70,0,P|442:266|384:286,1,100,2|2,0:3|0:3,0:0:0:0:
390,283,79210,1,2,0:3:0:0:
486,256,79637,1,2,0:3:0:0:
349,110,79801,6,0,P|396:125|432:131,1,74.9999977111817,0|2,0:0|0:3,0:0:0:0:
440,124,80141,102,0,B|433:71|433:71|437:64|437:64|430:15,1,100,2|2,0:3|0:3,0:0:0:0:
431,25,81004,1,2,0:3:0:0:
440,124,81440,1,2,0:3:0:0:
247,82,81602,5,0,0:0:0:0:
247,82,81682,2,0,B|236:133|236:133|240:144|240:144|229:200,1,119.999996337891,2|2,0:0|0:3,0:0:0:0:
46,306,82129,2,0,B|57:255|57:255|53:244|53:244|64:188,1,119.999996337891,8|2,1:2|0:3,0:0:0:0:
119,132,82465,1,0,0:0:0:0:
41,98,82577,102,0,P|100:182|252:188,1,240,2|0,0:0|0:0,0:0:0:0:
360,268,83025,2,0,P|289:244|275:157,1,160,8|2,1:2|0:3,0:0:0:0:
326,118,83361,1,0,0:0:0:0:
174,301,83473,6,0,P|161:239|155:223,1,59.9999981689454,2|0,0:0|0:0,0:0:0:0:
278,291,83696,2,0,P|291:353|297:369,1,59.9999981689454,2|0,0:3|0:0,0:0:0:0:
71,237,83920,2,0,P|90:183|95:158,1,59.9999981689454,8|0,1:2|0:0,0:0:0:0:
174,301,84144,2,0,P|155:355|150:380,1,59.9999981689454,2|0,0:3|0:0,0:0:0:0:
326,118,84368,102,0,P|353:192|384:251,1,119.999996337891,2|2,0:0|0:3,0:0:0:0:
445,261,84704,1,0,0:0:0:0:
447,118,84816,2,0,P|439:164|436:197,1,59.9999981689454,8|0,1:2|0:0,0:0:0:0:
445,261,85038,1,2,0:3:0:0:
512,216,85149,1,2,0:0:0:0:
278,291,85260,5,8,1:2:0:0:
278,291,85611,69,2,0:0:0:0:
42,150,85834,1,2,0:0:0:0:
385,41,86051,1,2,0:0:0:0:
326,118,86149,6,0,P|274:99|229:96,1,85.0000016212464,2|0,0:0|0:0,0:0:0:0:
122,50,86372,102,0,P|158:31|203:22,1,64.9999970245363,2|0,0:0|0:0,0:0:0:0:
264,189,86596,6,0,P|247:207|235:228,1,50,2|0,0:0|0:0,0:0:0:0:
70,286,86820,102,0,P|67:261|70:236,1,50,2|0,0:0|0:0,0:0:0:0:
288,358,87037,5,8,3:2:0:0:
277,372,87119,1,0,3:2:0:0:
256,383,87202,1,0,3:2:0:0:
230,380,87284,2,0,P|193:362|181:360,1,37.5000014305115,0|0,3:2|3:0,0:0:0:0:
127,383,87451,1,0,3:2:0:0:
127,383,87507,1,8,3:2:0:0:
127,383,87715,102,0,B|84:283|129:205|169:263|235:199|256:63|242:-45|146:-54|57:-50|11:-10|-23:-21|-9:295|78:61|198:91|162:249,1,764.999989786148,6|0,3:2|0:0,2:0:0:0:
