osu file format v14

[General]
AudioFilename: audio.mp3
AudioLeadIn: 0
PreviewTime: 63306
Countdown: 0
SampleSet: Soft
StackLeniency: 0.4
Mode: 0
LetterboxInBreaks: 0
WidescreenStoryboard: 0

[Editor]
Bookmarks: 10949,25256,39562,49419,63773
DistanceSpacing: 0.5
BeatDivisor: 4
GridSize: 4
TimelineZoom: 1.1

[Metadata]
Title:Wild Side (TV Size)
TitleUnicode:Wild Side (TV Size)
Artist:ALI
ArtistUnicode:ALI
Creator:Kroytz
Version:Luna's Hard
Source:BEASTARS
Tags:-Anime Ver.- ビースターズ BST BAND Version Alien Liberty International Jazz Anime Japanese English French Opening OP Night Mare Luna Yuuya_ke HowRengar Kowari DeviousPanda Kazato Asa Shizuku- BarkingMadDog BMD kimchii42 -Mikan
BeatmapID:2306993
BeatmapSetID:1055990

[Difficulty]
HPDrainRate:4
CircleSize:3.5
OverallDifficulty:5
ApproachRate:8
SliderMultiplier:1.6
SliderTickRate:1

[Events]
//Background and Video events
0,0,"BG.png",0,0
Video,-500,"video.mp4"
//Break Periods
2,3858,10203
2,78322,80932
//Storyboard Layer 0 (Background)
//Storyboard Layer 1 (Fail)
//Storyboard Layer 2 (Pass)
//Storyboard Layer 3 (Foreground)
//Storyboard Layer 4 (Overlay)
//Storyboard Sound Samples

[TimingPoints]
195,535.714285714286,4,2,6,50,1,0
563,413.793103448276,4,2,6,50,1,0
1222,419.58041958042,4,2,6,50,1,0
1431,-112.359550561798,4,2,6,50,0,0
1641,428.571428571429,4,2,6,50,1,0
1855,495.867768595041,4,2,6,50,1,0
1978,431.654676258993,4,2,6,50,1,0
2409,465.116279069767,4,2,6,50,1,0
2641,483.870967741935,4,2,6,80,1,1
2641,-66.75,4,2,6,80,0,1
3124,461.538461538462,4,2,6,80,1,1
3470,379.746835443038,4,2,6,80,1,1
3659,504.201680672269,4,2,3,35,1,0
4037,468.75,4,2,3,35,1,0
4505,413.793103448276,4,2,3,35,1,0
4918,508.474576271186,4,2,3,35,1,0
5299,427.046263345196,4,2,3,35,1,0
5512,434.782608695652,4,2,3,35,1,0
5838,419.58041958042,4,2,1,35,1,0
6257,431.654676258993,4,2,1,35,1,0
6688,487.80487804878,4,2,1,35,1,0
7053,465.116279069767,4,2,1,35,1,0
7285,413.793103448276,4,2,1,35,1,0
7595,434.782608695652,4,2,1,35,1,0
8029,441.176470588235,4,2,1,35,1,0
8470,517.241379310345,4,2,1,35,1,0
8857,454.545454545455,4,2,1,35,1,0
9084,413.793103448276,4,2,1,35,1,0
9394,428.571428571429,4,2,1,35,1,0
9822,437.956204379562,4,2,1,35,1,0
10259,512.820512820513,4,2,1,35,1,0
10643,425.531914893617,4,2,1,35,1,0
10855,392.156862745098,4,2,1,35,1,0
10953,447.761194029851,4,2,1,50,1,0
10953,-90.9090909090909,4,2,1,50,0,0
11848,-90.9090909090909,4,2,1,50,0,0
12072,-90.9090909090909,4,2,1,35,0,0
12296,425.531914893617,4,2,1,50,1,0
12296,-90.9090909090909,4,2,1,50,0,0
12721,447.761194029851,4,2,1,50,1,0
13168,-90.9090909090909,4,2,1,50,0,0
13616,442.80442804428,4,2,1,50,1,0
14169,-100,4,2,1,35,0,0
14280,-100,4,2,1,50,0,0
14501,437.956204379562,4,2,1,50,1,0
14938,447.761194029851,4,2,1,50,1,0
16281,447.761194029851,4,2,1,50,1,0
17624,461.538461538462,4,2,1,50,1,0
18085,447.761194029851,4,2,2,50,1,0
18085,-100,4,2,2,50,0,0
18308,-90.9090909090909,4,2,1,50,0,0
19428,-90.9090909090909,4,2,1,50,0,0
19876,454.545454545455,4,2,1,50,1,0
19876,-90.9090909090909,4,2,1,50,0,0
20330,447.761194029851,4,2,1,50,1,0
21225,-90.9090909090909,4,2,1,50,0,0
21673,444.444444444444,4,2,1,50,1,0
21895,-100,4,2,1,50,0,0
22117,-90.9090909090909,4,2,1,50,0,0
23012,447.761194029851,4,2,1,50,1,0
23012,-89.2857142857143,4,2,1,50,0,0
23463,449.438202247191,4,2,1,50,1,0
23912,-90.9090909090909,4,2,1,50,0,0
24811,434.782608695652,4,2,1,50,1,0
24811,-90.9090909090909,4,2,1,50,0,0
25245,461.538461538462,4,2,4,50,1,0
25706,444.444444444444,4,2,6,50,1,0
25706,-100,4,2,6,50,0,0
25928,-100,4,2,1,50,0,0
26150,-86.9565217391304,4,2,4,50,0,0
26594,-86.9565217391304,4,2,6,50,0,0
27039,447.761194029851,4,2,1,50,1,0
27039,-86.9565217391304,4,2,1,50,0,0
27486,-86.9565217391304,4,2,6,50,0,0
27934,-86.9565217391304,4,2,1,50,0,0
28382,-86.9565217391304,4,2,1,50,0,0
28830,-86.9565217391304,4,2,4,50,0,0
29277,-86.9565217391304,4,2,1,50,0,0
29725,434.782608695652,4,2,4,50,1,0
29725,-86.9565217391304,4,2,4,50,0,0
30051,-86.9565217391304,4,2,20,5,0,0
30159,-86.9565217391304,4,2,6,50,0,0
30485,-86.9565217391304,4,2,10,50,0,0
30594,468.75,4,2,1,50,1,0
31062,447.761194029851,4,2,6,50,1,0
31509,-86.9565217391304,4,2,1,50,0,0
31957,454.545454545455,4,2,1,50,1,0
31957,-86.9565217391304,4,2,1,50,0,0
32411,451.127819548872,4,2,4,50,1,0
32411,-83.3333333333333,4,2,4,50,0,0
32749,-83.3333333333333,4,2,10,50,0,0
32862,-83.3333333333333,4,2,1,50,0,0
33313,-83.3333333333333,4,2,4,50,0,0
33764,437.956204379562,4,2,6,50,1,0
33764,-83.3333333333333,4,2,6,50,0,0
34201,451.127819548872,4,2,1,50,1,0
34201,-83.3333333333333,4,2,1,50,0,0
34652,-83.3333333333333,4,2,6,50,0,0
35103,-83.3333333333333,4,2,1,50,0,0
35998,447.761194029851,4,2,4,50,1,0
35998,-83.3333333333333,4,2,4,50,0,0
36109,-83.3333333333333,4,2,10,50,0,0
36221,-83.3333333333333,4,2,10,50,0,0
36333,-83.3333333333333,4,2,10,50,0,0
36445,-83.3333333333333,4,2,6,35,0,0
36669,-83.3333333333333,4,2,10,50,0,0
36781,-83.3333333333333,4,2,10,50,0,0
36893,-83.3333333333333,4,2,4,50,0,0
37005,-83.3333333333333,4,2,10,50,0,0
37341,-83.3333333333333,4,2,1,50,0,0
37789,-76.9230769230769,4,2,4,50,0,0
38012,-76.9230769230769,4,2,1,50,0,0
38236,-80,4,2,6,50,0,0
38460,-80,4,2,1,50,0,0
38684,437.956204379562,4,2,4,50,1,0
38684,-83.3333333333333,4,2,4,50,0,0
38902,-83.3333333333333,4,2,1,50,0,0
39121,-83.3333333333333,4,2,6,50,0,0
39340,-83.3333333333333,4,2,6,50,0,0
39559,454.545454545455,4,2,1,50,1,0
39559,-90.9090909090909,4,2,1,50,0,0
40922,-90.9090909090909,4,2,1,50,0,0
41377,444.444444444444,4,2,1,50,1,0
41599,-100,4,2,1,50,0,0
41821,-90.9090909090909,4,2,1,50,0,0
42265,447.761194029851,4,2,1,50,1,0
42488,-90.9090909090909,4,2,1,50,0,0
43160,451.127819548872,4,2,1,50,1,0
43611,-90.9090909090909,4,2,1,50,0,0
44513,434.782608695652,4,2,1,50,1,0
44513,-90.9090909090909,4,2,1,50,0,0
44947,447.761194029851,4,2,1,50,1,0
45394,-90.9090909090909,4,2,1,50,0,0
45842,-90.9090909090909,4,2,1,50,0,0
46514,413.793103448276,4,2,1,50,1,0
46720,476.190476190476,4,2,1,50,1,0
46720,-83.3333333333333,4,2,1,50,0,0
46839,461.538461538462,4,2,1,50,1,0
47069,421.052631578947,4,2,1,50,1,0
47069,-76.9230769230769,4,2,1,50,0,0
47174,441.176470588235,4,2,1,50,1,0
47394,461.538461538462,4,2,1,50,1,0
47740,387.096774193548,4,2,1,50,1,0
47836,545.454545454546,4,2,1,50,1,0
47972,422.535211267606,4,2,3,50,1,0
48183,447.761194029851,4,2,3,50,1,0
48406,444.444444444444,4,2,1,50,1,0
48406,-100,4,2,1,50,0,0
48850,500,4,2,1,50,1,0
48850,-75.25,4,2,1,50,0,0
49100,422.535211267606,4,2,1,50,1,0
49205,434.782608695652,4,2,1,50,1,0
49313,-100,4,2,20,5,0,0
49422,461.538461538462,4,2,2,50,1,0
49652,-100,4,2,3,50,0,0
49883,-111.111111111111,4,2,3,50,0,0
50114,437.956204379562,4,2,3,50,1,0
50114,-111.111111111111,4,2,3,50,0,0
50332,444.444444444444,4,2,3,50,1,0
50332,-111.111111111111,4,2,3,50,0,0
50554,-111.111111111111,4,2,3,50,0,0
50776,-111.111111111111,4,2,3,50,0,0
50998,-111.111111111111,4,2,3,50,0,0
51220,447.761194029851,4,2,3,50,1,0
51220,-111.111111111111,4,2,3,50,0,0
52339,-111.111111111111,4,2,3,50,0,0
52563,-111.111111111111,4,2,3,50,0,0
52787,-111.111111111111,4,2,3,50,0,0
53011,-111.111111111111,4,2,3,50,0,0
53682,-111.111111111111,4,2,3,50,0,0
53906,-111.111111111111,4,2,3,50,0,0
54130,-111.111111111111,4,2,3,50,0,0
54354,437.956204379562,4,2,3,50,1,0
54354,-111.111111111111,4,2,3,50,0,0
54682,-111.111111111111,4,2,20,5,0,0
54791,446.927374301676,4,2,3,50,1,0
54791,-111.111111111111,4,2,3,50,0,0
56578,447.761194029851,4,2,3,50,1,0
57025,-111.111111111111,4,2,3,50,0,0
57921,461.538461538462,4,2,3,50,1,0
57921,-111.111111111111,4,2,3,50,0,0
58382,447.761194029851,4,2,3,50,1,0
58382,-111.111111111111,4,2,3,50,0,0
59501,-105.263157894737,4,2,3,50,0,0
60173,434.782608695652,4,2,3,50,1,0
60173,-105.263157894737,4,2,3,50,0,0
60607,468.75,4,2,3,50,1,0
61075,444.444444444444,4,2,3,60,1,0
61963,447.761194029851,4,2,3,60,1,0
61963,-105.263157894737,4,2,3,60,0,0
62410,-86.9565217391304,4,2,3,60,0,0
62858,468.75,4,2,3,60,1,0
62858,-83.3333333333333,4,2,3,60,0,0
63326,434.782608695652,4,2,1,70,1,0
63543,-100,4,2,5,70,0,0
63760,447.761194029851,4,2,4,80,1,1
63760,-76.9230769230769,4,2,4,80,0,1
63983,-76.9230769230769,4,2,1,80,0,1
64207,-76.9230769230769,4,2,4,80,0,1
64431,-76.9230769230769,4,2,1,80,0,1
64655,-76.9230769230769,4,2,4,80,0,1
64879,-76.9230769230769,4,2,6,80,0,1
65103,-76.9230769230769,4,2,1,80,0,1
65215,-76.9230769230769,4,2,6,80,0,1
65551,-76.9230769230769,4,2,1,80,0,1
65998,434.782608695652,4,2,4,80,1,1
65998,-76.9230769230769,4,2,4,80,0,1
66215,-76.9230769230769,4,2,6,80,0,1
66432,-76.9230769230769,4,2,4,80,0,1
66867,458.015267175573,4,2,4,80,1,1
66867,-76.9230769230769,4,2,4,80,0,1
67096,-76.9230769230769,4,2,1,80,0,1
67325,441.176470588235,4,2,4,80,1,1
67325,-76.9230769230769,4,2,4,80,0,1
67545,-76.9230769230769,4,2,6,80,0,1
67766,-76.9230769230769,4,2,4,80,0,1
67986,-76.9230769230769,4,2,6,80,0,1
68207,-76.9230769230769,4,2,4,80,0,1
68427,-76.9230769230769,4,2,1,80,0,1
68648,447.761194029851,4,2,4,80,1,1
68648,-76.9230769230769,4,2,4,80,0,1
68871,-76.9230769230769,4,2,1,80,0,1
69095,451.127819548872,4,2,4,80,1,1
69095,-76.9230769230769,4,2,4,80,0,1
69320,-76.9230769230769,4,2,1,80,0,1
69546,-74.0740740740741,4,2,4,80,0,1
69771,-74.0740740740741,4,2,1,80,0,1
69997,-71.4285714285714,4,2,4,80,0,1
70222,-71.4285714285714,4,2,1,80,0,1
70448,-71.4285714285714,4,2,6,80,0,1
70899,444.444444444444,4,2,4,80,1,1
70899,-76.9230769230769,4,2,4,80,0,1
71121,-76.9230769230769,4,2,1,80,0,1
71343,-76.9230769230769,4,2,4,80,0,1
71565,-76.9230769230769,4,2,1,80,0,1
71787,-76.9230769230769,4,2,4,80,0,1
72010,-76.9230769230769,4,2,1,80,0,1
72232,-100,4,2,1,80,0,1
72454,-100,4,2,6,80,0,1
72676,447.761194029851,4,2,4,80,1,1
72899,-100,4,2,6,80,0,1
73123,-76.9230769230769,4,2,4,80,0,1
73347,-76.9230769230769,4,2,6,80,0,1
73795,-76.9230769230769,4,2,1,80,0,1
74243,491.803278688525,4,2,6,80,1,1
74488,454.545454545455,4,2,5,80,1,1
74488,-76.9230769230769,4,2,5,80,0,1
74715,-76.9230769230769,4,2,1,80,0,1
74942,434.782608695652,4,2,1,80,1,1
75376,454.545454545455,4,2,1,80,1,1
75376,-76.9230769230769,4,2,1,80,0,1
75830,-76.9230769230769,4,2,5,80,0,1
76057,-76.9230769230769,4,2,1,80,0,1
76285,447.761194029851,4,2,1,80,1,1
76285,-76.9230769230769,4,2,1,80,0,1
76732,434.782608695652,4,2,1,80,1,1
76732,-74.0740740740741,4,2,1,80,0,1
77166,461.538461538462,4,2,1,80,1,1
77166,-74.0740740740741,4,2,1,80,0,1
77627,447.761194029851,4,2,1,80,1,1
77627,-68.9655172413793,4,2,1,80,0,1
77962,480,4,2,1,80,1,0
77962,-100,4,2,1,80,0,0
78322,444.444444444444,4,2,1,35,1,0
79210,491.803278688525,4,2,1,35,1,0
79578,447.761194029851,4,2,1,35,1,0
79637,461.538461538462,4,2,1,35,1,0
79801,454.545454545455,4,2,1,35,1,0
80141,416.666666666667,4,2,1,35,1,0
80557,447.761194029851,4,2,1,35,1,0
81004,491.803278688525,4,2,1,35,1,0
81372,461.538461538462,4,2,1,35,1,0
81440,461.538461538462,4,2,1,35,1,0
81602,322.58064516129,4,2,1,35,1,0
81682,447.761194029851,4,2,1,50,1,0
81682,-90.9090909090909,4,2,1,50,0,0
84816,444.444444444444,4,2,1,50,1,0
85260,468.75,4,2,1,50,1,0
85609,-90.9090909090909,4,2,6,60,0,0
85611,447.761194029851,4,2,6,60,1,0
85834,434.782608695652,4,2,6,60,1,0
86051,394.736842105263,4,2,6,60,1,0
86149,447.761194029851,4,2,6,60,1,0
86149,-90.9090909090909,4,2,6,60,0,0
86820,434.782608695652,4,2,6,60,1,0
87037,495.867768595041,4,2,6,60,1,0
87284,447.761194029851,4,2,6,60,1,0
87715,447.761194029851,4,2,1,80,1,0
87715,-66.6666666666667,4,2,1,80,0,0
88386,-66.6666666666667,4,2,1,20,0,0

[Colours]
Combo1 : 108,0,54
Combo2 : 0,64,128
Combo3 : 0,128,192
Combo4 : 255,255,70
Combo5 : 0,210,0
Combo6 : 192,192,192
Combo7 : 139,139,139
Combo8 : 155,0,0

[HitObjects]
75,237,195,101,2,0:0:0:0:
73,248,328,1,2,0:0:0:0:
0,305,563,5,2,0:0:0:0:
65,350,769,1,2,0:0:0:0:
136,316,976,1,2,0:0:0:0:
221,332,1222,102,0,L|260:338,1,40.2044444444442,2|2,0:0|0:0,2:0:0:0:
275,374,1431,2,0,B|323:366|323:366|345:375|345:375|363:360|363:360|410:352,1,143.999995605469,2|2,0:0|0:0,0:0:0:0:
407,320,1978,6,0,B|387:291|387:244|414:216|414:216|428:240|427:272,1,160,0|0,3:2|3:2,2:0:0:0:
498,150,2641,102,0,B|451:93|383:92|299:117|352:172|290:212|213:204|170:133|170:133|233:189|299:150,1,504.096019454957,6|2,1:2|1:3,0:0:0:0:
458,145,10953,22,0,L|441:235,1,88.3637360188807,2|2,0:0|0:3,0:0:0:0:
351,196,11400,2,0,L|368:106,1,88.3637360188807,2|2,0:0|0:3,0:0:0:0:
422,32,11848,2,0,P|383:13|340:19,1,88.3637360188807,2|2,0:0|0:3,0:0:0:0:
274,91,12296,2,0,P|231:96|192:77,1,88.3637360188807,2|2,0:0|0:3,2:0:0:0:
120,12,12721,5,2,0:0:0:0:
101,115,12944,1,2,0:3:0:0:
21,47,13168,2,0,B|-5:84|-5:84|11:178,1,132.152537361654,2|0,0:0|0:0,0:0:0:0:
16,203,13616,1,2,0:0:0:0:
97,278,13837,1,2,0:3:0:0:
50,376,14058,1,2,0:0:0:0:
45,380,14169,1,0,2:0:0:0:
40,384,14280,1,2,0:3:0:0:
276,384,14719,102,0,P|281:345|262:309,1,80,2|2,0:3|0:0,0:0:0:0:
182,252,15161,1,2,0:3:0:0:
170,365,15385,1,2,0:0:0:0:
274,217,15833,6,0,L|317:209,2,40,2|0|2,0:0|0:0|0:3,2:0:0:0:
195,160,16281,2,0,L|151:152,2,40,2|0|2,0:0|0:0|0:3,0:0:0:0:
290,117,16728,1,2,0:0:0:0:
209,52,16952,1,2,0:3:0:0:
305,14,17176,1,2,0:0:0:0:
306,7,17288,1,0,0:0:0:0:
307,0,17400,1,2,0:3:0:0:
288,128,17624,1,4,0:0:0:0:
512,247,18085,101,4,0:0:0:0:
421,294,18308,2,0,B|401:266|401:266|412:203,1,88.0176026855473,2|8,0:3|1:2,2:0:0:0:
475,122,18756,1,2,0:3:0:0:
420,29,18980,1,2,0:0:0:0:
233,129,19428,6,0,P|190:136|152:114,1,88.0176026855473,8|2,1:2|0:3,0:0:0:0:
105,32,19876,2,0,B|67:57|67:57|52:143,1,132.222937361654,2|0,0:0|0:0,0:0:0:0:
49,178,20330,1,8,1:2:0:0:
46,192,20441,1,0,0:0:0:0:
15,374,20777,101,2,0:0:0:0:
84,288,21001,1,2,0:3:0:0:
89,285,21113,1,0,0:0:0:0:
94,282,21225,2,0,P|136:276|175:296,1,88.0176026855473,8|2,1:2|0:3,0:0:0:0:
380,300,21895,5,2,0:3:0:0:
385,303,22006,1,0,0:0:0:0:
390,306,22117,2,0,P|432:312|471:292,1,88.0176026855473,8|2,1:2|0:3,0:0:0:0:
502,301,22450,2,0,B|527:263|527:263|512:178,1,132.222937361654,0|2,0:0|0:3,2:0:0:0:
501,73,23012,102,0,B|445:62|445:62|385:84|385:84|328:73,1,179.2000021875,8|2,1:2|0:0,0:0:0:0:
254,11,23687,1,2,0:3:0:0:
177,75,23912,2,0,B|167:130|167:130|185:156,1,88.0176026855473,8|2,1:2|0:3,0:0:0:0:
282,201,24361,1,2,0:0:0:0:
282,306,24586,1,2,0:3:0:0:
197,368,24811,2,0,P|134:382|81:346,1,132.222937361654,8|2,3:2|3:0,0:0:0:0:
61,302,25245,5,6,0:0:0:0:
0,129,25706,1,8,1:2:0:0:
49,28,25928,1,2,0:3:0:0:
134,106,26150,2,0,B|171:132|236:124|208:66|282:50|328:98,2,184.036803509522,2|10|2,0:0|1:2|0:0,0:0:0:0:
163,14,27262,1,2,0:3:0:0:
42,19,27486,1,10,1:2:0:0:
278,177,27934,102,0,P|322:184|361:161,1,92.0184017547613,2|2,0:0|0:3,0:0:0:0:
412,69,28382,2,0,P|456:61|495:84,1,92.0184017547613,8|2,1:2|0:3,0:0:0:0:
512,207,28830,5,2,0:0:0:0:
399,378,29277,1,8,1:2:0:0:
512,384,29501,1,2,0:3:0:0:
446,288,29725,2,0,P|380:272|324:309,1,138.233069298807,2|0,0:0|0:0,0:0:0:0:
307,347,30159,2,0,P|250:383|185:368,1,138.233069298807,10|2,1:2|0:3,0:0:0:0:
149,344,30594,1,2,0:0:0:0:
114,242,30828,1,2,0:3:0:0:
238,284,31062,1,10,1:2:0:0:
42,298,31509,102,0,P|19:258|27:214,1,92.0184017547613,2|2,0:0|0:3,0:0:0:0:
106,151,31957,2,0,P|113:106|91:67,1,92.0184017547613,8|2,1:2|0:3,0:0:0:0:
1,0,32411,6,0,P|58:39|125:20,1,144.243195605469,2|0,0:0|0:0,0:0:0:0:
142,0,32862,1,8,1:2:0:0:
213,80,33087,1,2,0:3:0:0:
328,0,33313,2,0,B|391:11|391:11|439:60|439:60|497:70,1,192.038394140625,2|10,0:0|1:2,0:0:0:0:
260,203,34201,1,2,0:0:0:0:
337,110,34426,1,2,0:3:0:0:
218,89,34652,1,10,1:2:0:0:
302,296,35103,102,0,P|342:320|390:320,1,95.9999970703126,2|2,0:0|0:3,0:0:0:0:
463,384,35554,2,0,P|487:343|487:295,1,95.9999970703126,8|2,1:2|0:3,0:0:0:0:
416,218,35998,6,0,L|369:205,3,47.9999985351563,2|0|2|0,0:0|0:0|0:3|0:0,0:0:0:0:
338,197,36445,1,8,1:2:0:0:
302,296,36669,2,0,L|255:309,3,47.9999985351563,2|0|2|0,0:3|0:0|0:0|0:0,0:0:0:0:
224,317,37117,1,2,2:3:0:0:
338,197,37341,1,8,1:2:0:0:
138,160,37789,102,0,P|128:109|153:65,1,104.020795239256,2|2,0:0|0:3,0:0:0:0:
16,228,38236,2,0,P|24:179|-1:137,1,100.020000000002,10|2,1:2|0:3,0:0:0:0:
154,269,38684,2,0,P|146:222|170:181,1,96.0191970703134,2|2,0:0|0:3,0:0:0:0:
39,329,39121,1,10,1:2:0:0:
148,379,39340,1,0,3:0:0:0:
168,376,39450,1,0,3:0:0:0:
186,374,39559,6,0,B|223:400|288:392|256:332|336:321|373:373,1,176.299205371096,6|8,0:0|1:2,0:0:0:0:
447,384,40240,1,2,0:3:0:0:
512,300,40468,1,2,0:0:0:0:
510,291,40581,1,0,0:0:0:0:
508,282,40695,1,2,0:3:0:0:
487,187,40922,2,0,B|459:168|459:168|396:179,1,88.1114693522139,8|2,1:2|0:3,0:0:0:0:
215,284,41599,101,2,0:3:0:0:
142,207,41821,2,0,P|135:164|156:126,1,88.1114693522139,8|2,1:2|0:3,0:0:0:0:
266,92,42265,1,2,0:0:0:0:
270,86,42376,1,0,0:0:0:0:
274,80,42488,2,0,P|281:37|260:-1,1,88.1114693522139,2|8,0:3|1:2,0:0:0:0:
73,48,43160,5,2,0:0:0:0:
0,111,43385,1,2,0:3:0:0:
63,184,43611,2,0,L|46:278,2,88.1114693522139,8|2|2,1:2|0:3|0:0,0:0:0:0:
136,121,44287,1,2,0:3:0:0:
189,201,44513,2,0,P|226:221|269:214,1,88.1114693522139,8|2,1:2|0:3,2:0:0:0:
333,27,45170,101,2,0:3:0:0:
227,43,45394,2,0,L|242:129,1,88.2464026855476,8|2,1:2|0:3,0:0:0:0:
344,163,45842,2,0,L|327:257,1,88.1114693522139,2|2,0:0|0:3,2:0:0:0:
305,350,46290,1,8,1:2:0:0:
95,375,46720,6,0,L|142:383,1,48.1279985351565,2|8,0:0|3:2,2:0:0:0:
228,291,47069,2,0,L|181:299,1,51.7631985351563,0|8,3:0|3:2,2:0:0:0:
11,243,47624,101,0,1:0:0:0:
17,229,47740,1,0,3:0:0:0:
0,117,47972,5,2,1:3:0:0:
96,71,48183,1,2,1:3:0:0:
155,165,48406,1,8,3:2:0:0:
170,162,48517,1,8,3:2:0:0:
186,159,48628,1,8,3:2:0:0:
257,58,48850,2,0,B|320:69|320:69|358:124|358:124|437:138,1,197.574412087199,4|0,1:2|2:0,0:0:0:0:
452,141,49422,37,4,0:0:0:0:
510,194,49652,1,2,0:3:0:0:
499,272,49883,2,0,P|466:286|431:283,1,72.1295978027346,2|2,0:2|0:3,2:0:0:0:
374,228,50332,2,0,P|338:224|306:239,2,72.1295978027345,2|2|2,0:2|0:3|0:2,0:0:0:0:
352,304,50998,1,2,0:3:0:0:
298,360,51220,2,0,B|260:383|217:361|238:333|198:308|158:334,1,144.230395605469,2|2,0:2|0:2,2:0:0:0:
8,384,52115,6,0,P|37:364|51:332,1,72.1151978027349,2|2,0:2|0:3,2:0:0:0:
15,264,52563,2,0,L|30:177,1,72.1151978027349,2|2,0:2|0:3,2:0:0:0:
0,118,53011,2,0,P|57:157|125:140,1,144.259195605469,2|2,0:2|0:2,2:0:0:0:
166,71,53682,101,2,0:3:0:0:
243,87,53906,2,0,P|257:120|254:155,1,72.1295978027346,2|2,0:2|0:3,0:0:0:0:
194,208,54354,2,0,P|183:259|211:304,1,108.033596704102,2|0,0:2|2:0,2:0:0:0:
207,337,54791,2,0,B|246:365|246:365|343:348,1,143.999995605469,2|2,0:2|0:2,2:0:0:0:
512,343,55684,6,0,L|499:272,1,72.1679978027345,2|2,0:2|0:3,0:0:0:0:
428,236,56131,2,0,L|440:165,1,72.1679978027345,2|2,0:2|0:3,0:0:0:0:
501,115,56578,101,2,0:2:0:0:
487,36,56801,1,2,0:3:0:0:
416,0,57025,2,0,P|380:-3|347:10,1,72.0455978027344,2|2,0:2|0:3,2:0:0:0:
329,87,57473,2,0,P|296:102|260:101,1,72.0455978027344,2|2,0:2|0:3,2:0:0:0:
189,135,57921,2,0,L|207:237,1,72.0815978027344,2|2,0:2|0:3,2:0:0:0:
130,244,58382,2,0,B|138:291|138:291|168:326|168:326|177:375,1,144.251995605469,2|2,0:2|0:2,0:0:0:0:
91,368,59053,1,2,0:3:0:0:
0,333,59277,5,2,0:2:0:0:
48,264,59501,2,0,L|32:177,1,76.3039979705815,2|2,0:3|0:2,2:0:0:0:
19,107,59949,1,2,0:3:0:0:
56,32,60173,2,0,P|130:14|191:60,1,151.999995941162,2|2,0:2|0:2,2:0:0:0:
282,203,61075,102,0,P|320:208|355:189,1,80.1866666666669,2|2,0:2|0:3,2:0:0:0:
380,108,61519,1,2,0:2:0:0:
464,110,61741,1,2,0:3:0:0:
509,196,61963,6,0,P|498:233|459:258,1,76.1215979705815,2|2,0:2|0:3,0:0:0:0:
493,345,62410,2,0,P|452:351|410:326,1,92.1472017547604,2|2,0:2|0:3,0:0:0:0:
335,384,62858,2,0,P|308:351|313:299,1,96.1535970703122,2|2,0:2|0:3,0:0:0:0:
384,232,63326,1,2,0:0:0:0:
353,135,63543,1,12,0:0:0:0:
207,242,63760,70,0,L|99:223,1,103.999995239258,6|8,0:0|1:2,0:0:0:0:
7,257,64207,2,0,P|2:205|24:159,1,103.999995239258,2|8,0:0|1:2,0:0:0:0:
66,93,64543,1,0,0:0:0:0:
138,130,64655,2,0,P|160:83|154:32,1,103.999995239258,2|10,0:0|1:2,0:0:0:0:
263,106,65103,2,0,L|314:115,1,51.999997619629,2|2,0:0|0:0,0:0:0:0:
327,84,65327,2,0,L|378:93,1,51.999997619629,2|2,1:2|0:0,0:0:0:0:
408,177,65551,5,2,0:0:0:0:
500,109,65774,1,8,1:2:0:0:
512,222,65998,2,0,B|521:292|521:292|494:328,1,104.242661905924,2|10,0:0|1:2,0:0:0:0:
423,320,66324,1,0,0:0:0:0:
375,384,66432,2,0,B|311:372|311:372|262:331|262:331|152:312,1,208.020790478517,2|2,0:0|0:0,0:0:0:0:
99,384,67096,1,8,1:2:0:0:
0,309,67325,102,0,P|-10:259|15:216,1,104.242661905924,2|10,0:0|1:2,0:0:0:0:
134,174,67766,2,0,P|160:130|151:81,1,104.242661905924,2|10,0:0|1:2,0:0:0:0:
37,107,68207,1,2,0:0:0:0:
27,217,68427,1,8,1:2:0:0:
118,278,68648,2,0,P|168:279|208:246,1,103.999995239258,2|8,0:0|1:2,0:0:0:0:
319,187,69095,6,0,L|300:84,1,104.298128572591,2|8,0:0|1:2,0:0:0:0:
425,225,69546,2,0,L|443:118,1,108.309600411987,2|8,0:0|1:2,0:0:0:0:
306,266,69997,2,0,L|286:155,1,111.999996582031,2|8,0:0|1:2,0:0:0:0:
434,315,70448,1,10,1:2:0:0:
453,204,70673,1,10,1:2:0:0:
342,348,70899,102,0,P|292:358|247:329,1,103.999995239258,6|8,0:0|1:2,0:0:0:0:
163,254,71343,2,0,L|144:356,1,104.409061905925,2|8,0:0|1:2,0:0:0:0:
138,384,71676,1,0,0:0:0:0:
48,334,71787,2,0,L|67:232,1,104.409061905925,2|8,0:0|1:2,0:0:0:0:
34,114,72232,2,0,L|-4:139,1,40,2|0,0:0|0:0,0:0:0:0:
138,132,72454,2,0,L|161:164,1,40,10|0,1:2|0:0,0:0:0:0:
73,201,72676,5,2,0:0:0:0:
99,45,72899,1,10,1:2:0:0:
254,71,73123,2,0,P|296:97|346:87,1,104.409061905925,2|10,0:0|1:2,2:0:0:0:
435,51,73459,2,0,P|371:91|354:166,1,155.999992858887,2|8,0:0|1:2,0:0:0:0:
429,279,74019,1,2,0:0:0:0:
453,149,74243,1,8,1:2:0:0:
329,293,74488,102,0,L|226:311,1,103.999995239258,10|2,1:2|0:0,0:0:0:0:
122,273,74942,1,2,0:0:0:0:
141,382,75159,1,8,1:2:0:0:
236,294,75376,2,0,L|338:275,1,103.999995239258,2|2,0:0|0:0,0:0:0:0:
362,271,75716,1,0,0:0:0:0:
425,347,75830,2,0,P|455:306|460:254,1,103.999995239258,12|0,0:0|0:0,0:0:0:0:
503,145,76285,6,0,L|397:164,1,103.999995239258,12|2,0:0|0:0,0:0:0:0:
377,168,76620,1,0,0:0:0:0:
314,92,76732,2,0,P|284:133|279:188,1,108.000000411987,12|2,0:0|0:0,0:0:0:0:
236,297,77166,102,0,P|216:248|173:217,1,108.000000411987,12|2,0:0|0:0,0:0:0:0:
148,209,77512,1,8,0:0:0:0:
73,274,77627,2,0,L|63:331,1,58.0000017700196,12|8,0:0|0:0,0:0:0:0:
10,196,77850,2,0,L|0:138,1,58.0000017700196,8|8,0:0|0:0,0:0:0:0:
356,177,81682,86,0,L|269:192,1,88.000002685547,2|2,0:0|0:3,0:0:0:0:
333,267,82129,2,0,L|246:282,1,88.000002685547,8|2,1:2|0:3,0:0:0:0:
310,357,82577,2,0,L|223:372,1,88.000002685547,2|2,0:0|0:3,0:0:0:0:
126,384,83025,1,8,1:2:0:0:
149,294,83249,1,2,0:3:0:0:
53,322,83473,6,0,P|48:278|67:239,1,88.000002685547,2|2,0:0|0:3,0:0:0:0:
0,175,83920,2,0,P|35:149|78:145,1,88.000002685547,8|2,1:2|0:3,0:0:0:0:
100,55,84368,2,0,P|139:73|164:108,1,88.000002685547,2|2,0:0|0:3,0:0:0:0:
156,203,84816,1,8,1:2:0:0:
254,167,85038,1,2,0:3:0:0:
383,287,85260,1,8,1:2:0:0:
383,287,85611,85,2,0:0:0:0:
368,206,85834,1,2,0:0:0:0:
423,148,86051,1,2,0:0:0:0:
440,144,86149,2,0,P|443:101|424:60,3,88.000002685547,2|2|2|2,0:0|0:0|0:0|0:0,0:0:0:0:
340,13,87037,101,8,3:2:0:0:
264,73,87284,2,0,L|224:66,2,40,0|0|8,3:2|3:2|3:2,0:2:0:0:
129,14,87715,6,0,B|64:-35|-12:36|29:111|29:111|98:76|163:138|125:207,1,360.000013732911,6|0,3:2|0:0,2:0:0:0:
