osu file format v14

[General]
AudioFilename: audio.mp3
AudioLeadIn: 0
PreviewTime: 63306
Countdown: 0
SampleSet: Soft
StackLeniency: 0.7
Mode: 0
LetterboxInBreaks: 0
WidescreenStoryboard: 0

[Editor]
Bookmarks: 36099
DistanceSpacing: 1
BeatDivisor: 4
GridSize: 4
TimelineZoom: 2.5

[Metadata]
Title:Wild Side (TV Size)
TitleUnicode:Wild Side (TV Size)
Artist:ALI
ArtistUnicode:ALI
Creator:Kroytz
Version:Kowari's Insane
Source:BEASTARS
Tags:-Anime Ver.- ビースターズ BST BAND Version Alien Liberty International Jazz Anime Japanese English French Opening OP Night Mare Luna Yuuya_ke HowRengar Kowari DeviousPanda Kazato Asa Shizuku- BarkingMadDog BMD kimchii42 -Mikan
BeatmapID:2224305
BeatmapSetID:1055990

[Difficulty]
HPDrainRate:4.5
CircleSize:4
OverallDifficulty:7
ApproachRate:9
SliderMultiplier:2.7
SliderTickRate:1

[Events]
//Background and Video events
Video,-500,"video.mp4"
0,0,"BG.png",0,0
//Break Periods
//Storyboard Layer 0 (Background)
//Storyboard Layer 1 (Fail)
//Storyboard Layer 2 (Pass)
//Storyboard Layer 3 (Foreground)
//Storyboard Layer 4 (Overlay)
//Storyboard Sound Samples

[TimingPoints]
195,535.714285714286,4,2,6,50,1,0
563,413.793103448276,4,2,6,50,1,0
1222,419.58041958042,4,2,6,50,1,0
1641,428.571428571429,4,2,6,50,1,0
1855,495.867768595041,4,2,6,50,1,0
1978,431.654676258993,4,2,6,50,1,0
2409,465.116279069767,4,2,6,50,1,0
2641,483.870967741935,4,2,6,80,1,1
2641,-63.6942675159236,4,2,6,80,0,1
3124,461.538461538462,4,2,6,80,1,1
3470,379.746835443038,4,2,6,80,1,1
3564,-100,4,2,6,35,0,0
3659,504.201680672269,4,2,3,35,1,0
4037,468.75,4,2,3,35,1,0
4505,413.793103448276,4,2,3,35,1,0
4918,508.474576271186,4,2,3,35,1,0
5299,427.046263345196,4,2,3,35,1,0
5512,434.782608695652,4,2,3,35,1,0
5838,419.58041958042,4,2,1,35,1,0
6257,431.654676258993,4,2,1,35,1,0
6688,487.80487804878,4,2,1,35,1,0
7053,465.116279069767,4,2,1,35,1,0
7285,413.793103448276,4,2,1,35,1,0
7595,434.782608695652,4,2,1,35,1,0
8029,441.176470588235,4,2,1,35,1,0
8470,517.241379310345,4,2,1,35,1,0
8857,454.545454545455,4,2,1,35,1,0
9084,413.793103448276,4,2,1,35,1,0
9394,428.571428571429,4,2,1,35,1,0
9822,437.956204379562,4,2,1,35,1,0
10259,512.820512820513,4,2,1,35,1,0
10643,425.531914893617,4,2,1,35,1,0
10855,392.156862745098,4,2,1,35,1,0
10953,447.761194029851,4,2,1,50,1,0
10953,-125,4,2,1,50,0,0
11848,-125,4,2,1,50,0,0
12184,-121.951219512195,4,2,1,50,0,0
12296,425.531914893617,4,2,1,50,1,0
12721,447.761194029851,4,2,1,50,1,0
12721,-125,4,2,1,50,0,0
13616,442.80442804428,4,2,1,50,1,0
13616,-125,4,2,1,50,0,0
14280,-125,4,2,1,50,0,0
14501,437.956204379562,4,2,1,50,1,0
14501,-125,4,2,1,50,0,0
14938,447.761194029851,4,2,1,50,1,0
14938,-125,4,2,1,50,0,0
16281,447.761194029851,4,2,1,50,1,0
16281,-125,4,2,1,50,0,0
17400,-125,4,2,1,50,0,0
17624,461.538461538462,4,2,1,50,1,0
17624,-125,4,2,1,50,0,0
18085,447.761194029851,4,2,2,50,1,0
18085,-125,4,2,2,50,0,0
18308,-125,4,2,1,50,0,0
18980,-125,4,2,1,50,0,0
19876,454.545454545455,4,2,1,50,1,0
19876,-125,4,2,1,50,0,0
20330,447.761194029851,4,2,1,50,1,0
20777,-125,4,2,1,50,0,0
21673,444.444444444444,4,2,1,50,1,0
21673,-125,4,2,1,50,0,0
22117,-125,4,2,1,50,0,0
23012,447.761194029851,4,2,1,50,1,0
23463,449.438202247191,4,2,1,50,1,0
23463,-125,4,2,1,50,0,0
24811,434.782608695652,4,2,1,50,1,0
25245,461.538461538462,4,2,4,50,1,0
25245,-125,4,2,4,50,0,0
25475,-125,4,2,1,50,0,0
25706,444.444444444444,4,2,6,50,1,0
25706,-125,4,2,6,50,0,0
25928,-125,4,2,1,50,0,0
26150,-125,4,2,4,50,0,0
26372,-125,4,2,1,50,0,0
26594,-125,4,2,6,50,0,0
26817,-125,4,2,1,50,0,0
26928,-125,4,2,10,50,0,0
27039,447.761194029851,4,2,1,50,1,0
27039,-125,4,2,1,50,0,0
27150,-125,4,2,10,50,0,0
27486,-125,4,2,6,50,0,0
27710,-125,4,2,1,50,0,0
28046,-125,4,2,1,50,0,0
28494,-125,4,2,1,50,0,0
28830,-125,4,2,4,50,0,0
29053,-125,4,2,1,50,0,0
29389,-125,4,2,10,50,0,0
29501,-125,4,2,1,50,0,0
29725,434.782608695652,4,2,4,50,1,0
29725,-125,4,2,4,50,0,0
29942,-125,4,2,1,50,0,0
30159,-125,4,2,6,50,0,0
30377,-125,4,2,1,50,0,0
30485,-125,4,2,10,50,0,0
30594,468.75,4,2,1,50,1,0
30769,-100,4,2,10,50,0,0
30945,-100,4,2,10,50,0,0
31062,447.761194029851,4,2,6,50,1,0
31062,-125,4,2,6,50,0,0
31509,-125,4,2,1,50,0,0
31957,454.545454545455,4,2,1,50,1,0
31957,-125,4,2,1,50,0,0
32411,451.127819548872,4,2,4,50,1,0
32411,-125,4,2,4,50,0,0
32636,-125,4,2,1,50,0,0
32974,-125,4,2,10,50,0,0
33200,-125,4,2,1,50,0,0
33313,-125,4,2,4,50,0,0
33426,-125,4,2,1,50,0,0
33764,437.956204379562,4,2,6,50,1,0
33764,-125,4,2,6,50,0,0
34092,-125,4,2,10,50,0,0
34201,451.127819548872,4,2,1,50,1,0
34201,-125,4,2,1,50,0,0
34539,-125,4,2,10,50,0,0
34652,-125,4,2,6,50,0,0
34877,-125,4,2,1,50,0,0
35103,-125,4,2,1,50,0,0
35998,447.761194029851,4,2,4,50,1,0
35998,-125,4,2,4,50,0,0
36109,-125,4,2,10,50,0,0
36893,-125,4,2,4,50,0,0
37005,-125,4,2,10,50,0,0
37341,-125,4,2,1,50,0,0
37789,-125,4,2,4,50,0,0
38124,-125,4,2,1,50,0,0
38236,-125,4,2,6,50,0,0
38574,-125,4,2,6,50,0,0
38684,437.956204379562,4,2,4,50,1,0
38684,-166.666666666667,4,2,4,50,0,0
39012,-166.666666666667,4,2,1,50,0,0
39121,-166.666666666667,4,2,6,50,0,0
39450,-166.666666666667,4,2,6,50,0,0
39559,454.545454545455,4,2,1,50,1,0
39559,-100,4,2,1,50,0,0
40013,-125,4,2,1,50,0,0
41377,444.444444444444,4,2,1,50,1,0
41377,-125,4,2,1,50,0,0
42153,-125,4,2,1,50,0,0
42265,447.761194029851,4,2,1,50,1,0
42488,-125,4,2,1,50,0,0
43160,451.127819548872,4,2,1,50,1,0
43160,-125,4,2,1,50,0,0
44513,434.782608695652,4,2,1,50,1,0
44947,447.761194029851,4,2,1,50,1,0
44947,-125,4,2,1,50,0,0
46402,-120.481927710843,4,2,1,50,0,0
46514,413.793103448276,4,2,1,50,1,0
46720,476.190476190476,4,2,1,50,1,0
46839,461.538461538462,4,2,1,50,1,0
47069,421.052631578947,4,2,1,50,1,0
47174,441.176470588235,4,2,1,50,1,0
47174,-90.9090909090909,4,2,1,50,0,0
47394,461.538461538462,4,2,1,50,1,0
47740,387.096774193548,4,2,1,50,1,0
47740,-74.6268656716418,4,2,1,50,0,0
47836,545.454545454546,4,2,1,50,1,0
47972,422.535211267606,4,2,3,50,1,0
48183,447.761194029851,4,2,3,50,1,0
48183,-100,4,2,3,50,0,0
48406,444.444444444444,4,2,1,50,1,0
48850,500,4,2,1,50,1,0
49100,422.535211267606,4,2,1,50,1,0
49205,434.782608695652,4,2,1,50,1,0
49422,461.538461538462,4,2,2,50,1,0
49652,-100,4,2,3,50,0,0
50114,437.956204379562,4,2,3,50,1,0
50332,444.444444444444,4,2,3,50,1,0
51220,447.761194029851,4,2,3,50,1,0
54354,437.956204379562,4,2,3,50,1,0
54791,446.927374301676,4,2,3,50,1,0
56578,447.761194029851,4,2,3,50,1,0
57921,461.538461538462,4,2,3,50,1,0
58382,447.761194029851,4,2,3,50,1,0
59277,-166.666666666667,4,2,3,50,0,0
60173,434.782608695652,4,2,3,50,1,0
60607,468.75,4,2,3,50,1,0
61075,444.444444444444,4,2,3,60,1,0
61963,447.761194029851,4,2,3,60,1,0
62858,468.75,4,2,3,60,1,0
62975,-166.666666666667,4,2,3,70,0,0
63209,-166.666666666667,4,2,1,70,0,0
63326,434.782608695652,4,2,1,70,1,0
63543,-83.3333333333333,4,2,5,70,0,0
63760,447.761194029851,4,2,4,80,1,1
63760,-80,4,2,4,80,0,1
63983,-80,4,2,1,80,0,1
64207,-80,4,2,4,80,0,1
64319,-80,4,2,1,80,0,1
64655,-80,4,2,4,80,0,1
64879,-80,4,2,6,80,0,1
64991,-80,4,2,10,80,0,1
65103,-80,4,2,1,80,0,1
65215,-80,4,2,6,80,0,1
65551,-80,4,2,1,80,0,1
65662,-80,4,2,6,80,0,1
65774,-80,4,2,1,80,0,1
65998,434.782608695652,4,2,4,80,1,1
65998,-80,4,2,4,80,0,1
66106,-80,4,2,1,80,0,1
66324,-80,4,2,1,80,0,1
66432,-80,4,2,4,80,0,1
66650,-80,4,2,1,80,0,1
66758,-80,4,2,6,80,0,1
66867,458.015267175573,4,2,4,80,1,1
66867,-80,4,2,4,80,0,1
66981,-80,4,2,1,80,0,1
67096,-80,4,2,1,80,0,1
67325,441.176470588235,4,2,4,80,1,1
67325,-80,4,2,4,80,0,1
67435,-80,4,2,1,80,0,1
67545,-80,4,2,6,80,0,1
67655,-80,4,2,1,80,0,1
67766,-80,4,2,4,80,0,1
67876,-80,4,2,1,80,0,1
67986,-80,4,2,6,80,0,1
68097,-80,4,2,1,80,0,1
68207,-80,4,2,4,80,0,1
68427,-80,4,2,6,80,0,1
68538,-80,4,2,1,80,0,1
68648,447.761194029851,4,2,4,80,1,1
68648,-80,4,2,4,80,0,1
68759,-80,4,2,10,80,0,1
68871,-80,4,2,1,80,0,1
69095,451.127819548872,4,2,4,80,1,1
69095,-80,4,2,4,80,0,1
69320,-80,4,2,1,80,0,1
69546,-80,4,2,4,80,0,1
69658,-80,4,2,1,80,0,1
69997,-80,4,2,4,80,0,1
70110,-80,4,2,1,80,0,1
70222,-80,4,2,1,80,0,1
70448,-80,4,2,6,80,0,1
70786,-80,4,2,1,80,0,0
70899,444.444444444444,4,2,4,80,1,1
70899,-80,4,2,4,80,0,1
71121,-80,4,2,1,80,0,1
71343,-80,4,2,4,80,0,1
71454,-80,4,2,1,80,0,1
71565,-80,4,2,1,80,0,1
71787,-80,4,2,4,80,0,1
72010,-80,4,2,1,80,0,1
72232,-80,4,2,4,80,0,1
72343,-80,4,2,1,80,0,1
72454,-80,4,2,6,80,0,1
72676,447.761194029851,4,2,4,80,1,1
72676,-80,4,2,4,80,0,1
72787,-80,4,2,1,80,0,1
72899,-80,4,2,6,80,0,1
73123,-80,4,2,4,80,0,1
73235,-80,4,2,6,80,0,1
73571,-80,4,2,1,80,0,1
74019,-80,4,2,4,80,0,1
74131,-80,4,2,1,80,0,1
74243,491.803278688525,4,2,6,80,1,1
74243,-80,4,2,6,80,0,1
74488,454.545454545455,4,2,5,80,1,1
74488,-80,4,2,5,80,0,1
74715,-80,4,2,1,80,0,1
74942,434.782608695652,4,2,1,80,1,1
74942,-80,4,2,1,80,0,1
75376,454.545454545455,4,2,1,80,1,1
75376,-80,4,2,1,80,0,1
75830,-80,4,2,5,80,0,1
75944,-80,4,2,5,80,0,1
76057,-80,4,2,1,80,0,1
76285,447.761194029851,4,2,1,80,1,1
76285,-80,4,2,1,80,0,1
76732,434.782608695652,4,2,1,80,1,1
76732,-80,4,2,1,80,0,1
77166,461.538461538462,4,2,1,80,1,1
77166,-80,4,2,1,80,0,1
77627,447.761194029851,4,2,1,80,1,1
77962,480,4,2,1,80,1,0
78322,444.444444444444,4,2,1,35,1,0
79210,491.803278688525,4,2,1,35,1,0
79578,447.761194029851,4,2,1,35,1,0
79637,461.538461538462,4,2,1,35,1,0
79801,454.545454545455,4,2,1,35,1,0
80141,416.666666666667,4,2,1,35,1,0
80557,447.761194029851,4,2,1,35,1,0
81004,491.803278688525,4,2,1,35,1,0
81372,461.538461538462,4,2,1,35,1,0
81440,461.538461538462,4,2,1,35,1,0
81602,322.58064516129,4,2,1,35,1,0
81682,447.761194029851,4,2,1,50,1,0
81682,-125,4,2,1,50,0,0
84816,444.444444444444,4,2,1,50,1,0
84816,-125,4,2,1,50,0,0
85260,468.75,4,2,1,50,1,0
85611,447.761194029851,4,2,6,60,1,0
85834,434.782608695652,4,2,6,60,1,0
86051,394.736842105263,4,2,6,60,1,0
86149,447.761194029851,4,2,6,60,1,0
86820,434.782608695652,4,2,6,60,1,0
87037,495.867768595041,4,2,6,60,1,0
87284,447.761194029851,4,2,6,60,1,0
87715,447.761194029851,4,2,1,80,1,0
87715,-86.9565217391304,4,2,1,80,0,0
88386,-86.9565217391304,4,2,1,20,0,0

[Colours]
Combo1 : 108,0,54
Combo2 : 0,64,128
Combo3 : 0,128,192
Combo4 : 255,255,70
Combo5 : 0,210,0
Combo6 : 192,192,192
Combo7 : 139,139,139
Combo8 : 155,0,0

[HitObjects]
24,21,195,101,2,0:0:0:0:
29,37,328,1,2,0:0:0:0:
107,46,563,1,2,0:0:0:0:
185,57,769,1,2,0:0:0:0:
262,67,976,1,2,0:0:0:0:
341,77,1222,5,2,0:0:0:0:
358,68,1326,2,0,L|350:-5,1,67.5,2|2,0:0|0:0,0:0:0:0:
436,118,1536,101,2,0:0:0:0:
429,166,1641,1,2,0:0:0:0:
422,211,1748,1,2,0:0:0:0:
416,258,1855,1,2,0:0:0:0:
429,272,1978,6,0,L|489:265,5,45,0|0|0|0|0|0,3:2|3:2|3:2|3:2|3:2|3:2,0:0:0:0:
336,319,2409,1,0,3:2:0:0:
336,319,2641,102,0,P|395:223|242:349,1,810.000030899049,6|0,1:2|3:0,0:0:0:0:
259,284,3659,1,2,1:3:0:0:
19,372,4037,21,0,0:0:0:0:
93,368,4505,1,0,0:0:0:0:
169,362,4918,1,0,0:0:0:0:
246,353,5299,1,0,0:0:0:0:
253,341,5512,1,0,0:0:0:0:
295,265,5838,5,0,0:0:0:0:
219,243,6257,1,0,0:0:0:0:
142,224,6688,1,0,0:0:0:0:
69,202,7053,1,0,0:0:0:0:
68,187,7285,1,0,0:0:0:0:
61,88,7595,101,0,0:0:0:0:
121,37,8029,1,0,0:0:0:0:
201,42,8470,1,0,0:0:0:0:
251,101,8857,1,0,0:0:0:0:
244,116,9084,1,0,0:0:0:0:
208,192,9394,5,0,0:0:0:0:
268,243,9822,1,0,0:0:0:0:
348,238,10259,1,0,0:0:0:0:
398,179,10643,1,0,0:0:0:0:
391,164,10855,1,0,0:0:0:0:
383,149,10953,102,0,L|510:174,1,108,2|2,0:0|0:3,0:0:0:0:
305,334,11400,2,0,L|432:309,1,108,2|2,0:0|0:3,0:0:0:0:
226,283,11736,5,0,0:0:0:0:
212,275,11848,2,0,P|186:212|202:171,1,108,2|2,0:0|0:3,0:0:0:0:
272,112,12184,2,0,P|297:66|287:15,1,108
191,68,12508,1,2,0:3:0:0:
17,160,12721,102,0,L|30:243,1,54,2|0,0:0|0:0,0:0:0:0:
105,195,12944,2,0,L|118:278,1,54,2|0,0:3|0:0,0:0:0:0:
55,313,13168,1,2,0:0:0:0:
52,326,13280,1,0,0:0:0:0:
49,338,13392,1,2,0:3:0:0:
46,350,13504,1,0,0:0:0:0:
44,362,13616,6,0,B|111:365|71:319|173:328,1,108,2|2,0:0|0:3,0:0:0:0:
296,360,14058,1,2,0:0:0:0:
236,288,14280,2,0,B|244:262|244:262|224:213,1,54,2|0,0:3|0:0,0:0:0:0:
176,125,14501,102,0,L|310:112,1,108,2|2,0:0|0:3,0:0:0:0:
473,258,14938,2,0,L|339:245,1,108,2|2,0:0|0:3,0:0:0:0:
206,315,15273,5,0,0:0:0:0:
218,325,15385,2,0,B|269:348|269:348|324:327,1,108,2|2,0:0|0:3,0:0:0:0:
365,247,15721,1,0,0:0:0:0:
311,178,15833,2,0,P|293:196|281:229,1,54,2|0,0:0|0:0,0:0:0:0:
453,222,16057,2,0,P|443:197|425:178,1,54,2|0,0:3|0:0,0:0:0:0:
361,87,16281,101,2,0:0:0:0:
366,68,16392,1,0,0:0:0:0:
371,47,16504,2,0,L|440:67,1,54,2|0,0:3|0:0,0:0:0:0:
236,13,16728,2,0,L|111:35,1,108,2|2,0:0|0:3,0:0:0:0:
39,132,17176,5,2,0:0:0:0:
44,150,17288,1,0,0:0:0:0:
49,167,17400,2,0,L|126:159,1,54,2|2,0:3|0:3,0:0:0:0:
270,295,17624,102,0,B|205:287|205:287|183:264|183:264|110:252,1,162,4|0,0:0|0:0,0:0:0:0:
33,279,18085,6,0,B|18:279|-5:296|-5:296|-1:265|43:242,1,108,4|2,0:0|0:3,0:0:0:0:
185,161,18532,2,0,L|304:188,1,108,8|2,1:2|0:3,0:0:0:0:
381,52,18868,1,0,0:0:0:0:
372,41,18980,2,0,P|321:49|304:104,1,108,2|2,0:0|0:3,0:0:0:0:
467,233,19428,102,0,B|456:166|456:166|508:138,1,108,8|2,1:2|0:3,0:0:0:0:
391,293,19764,1,2,0:3:0:0:
381,283,19876,2,0,L|314:275,1,54,2|0,0:0|0:0,0:0:0:0:
206,212,20103,2,0,L|260:203,1,54,2|0,0:3|0:0,0:0:0:0:
134,316,20330,1,8,1:2:0:0:
103,307,20441,1,0,0:0:0:0:
74,298,20553,1,2,0:3:0:0:
74,298,20777,6,0,L|96:172,1,108,2|2,0:0|0:3,0:0:0:0:
64,102,21113,1,0,0:0:0:0:
56,116,21225,2,0,L|-14:131,1,54,8|0,1:2|0:0,0:0:0:0:
147,38,21449,2,0,L|217:53,1,54,2|2,0:3|0:3,0:0:0:0:
273,132,21673,102,0,B|278:194|251:175|259:252,1,108,2|2,0:0|0:3,0:0:0:0:
334,267,22006,1,0,0:0:0:0:
345,262,22117,2,0,P|362:232|359:207,1,54,8|0,1:2|0:0,0:0:0:0:
231,323,22339,1,2,0:3:0:0:
217,327,22450,2,0,B|178:314|160:307|160:307|130:323|128:350,2,108
321,378,23012,5,8,1:2:0:0:
338,359,23123,1,0,0:0:0:0:
367,348,23235,1,2,0:3:0:0:
405,353,23347,1,2,0:3:0:0:
441,371,23463,102,0,L|432:308,1,54,2|0,0:0|0:0,0:0:0:0:
333,254,23687,5,2,0:3:0:0:
351,251,23800,1,0,0:0:0:0:
367,248,23912,2,0,L|382:151,1,54,8|0,1:2|0:0,0:0:0:0:
427,116,24137,101,2,0:3:0:0:
300,39,24361,2,0,B|256:46|256:46|246:54|246:54|191:62,2,108,2|2|8,0:0|0:3|3:2,0:0:0:0:
99,125,25028,1,2,3:0:0:0:
94,104,25137,1,2,3:0:0:0:
88,82,25245,6,0,L|77:207,1,108,6|2,0:0|0:3,0:0:0:0:
41,358,25706,101,8,1:2:0:0:
25,351,25817,2,0,L|35:293,1,54,2|2,0:0|0:3,0:0:0:0:
142,382,26039,5,0,0:0:0:0:
157,372,26150,2,0,L|151:243,2,108,2|2|10,0:0|0:3|1:2,0:0:0:0:
265,260,26817,101,2,0:3:0:0:
274,280,26928,2,0,L|340:268,1,54,2|2,0:3|0:0,0:3:0:0:
449,377,27150,6,0,P|415:336|330:367,1,108
352,345,27486,1,10,1:2:0:0:
438,218,27710,1,2,0:3:0:0:
353,120,27934,101,2,0:0:0:0:
344,131,28046,2,0,P|280:107|268:60,1,108
150,141,28382,1,8,1:2:0:0:
169,133,28494,2,0,L|184:19,1,108,0|2,0:0|0:3,0:0:0:0:
311,5,28830,6,0,B|375:5|351:47|438:39,1,108,2|2,0:0|0:3,0:0:0:0:
371,185,29277,101,8,1:2:0:0:
385,170,29389,2,0,L|449:164,1,54,0|2,0:0|0:3,0:0:0:0:
281,275,29613,1,0,0:0:0:0:
284,254,29725,2,0,P|238:209|177:212,1,108,2|2,0:0|0:3,0:0:0:0:
110,258,30051,5,0,0:0:0:0:
127,268,30159,2,0,P|189:239|196:198,1,108,10|2,1:2|0:3,0:0:0:0:
147,111,30485,101,2,0:3:0:0:
139,124,30594,2,0,B|92:121|92:121|76:113|76:113|20:111,2,101.25,2|0|0,0:0|0:0|0:0,0:0:0:0:
240,76,31062,2,0,B|328:62|328:62|368:90|355:129,1,162,10|0,1:2|0:0,0:0:0:0:
305,183,31509,6,0,L|236:170,1,54,2|0,0:0|0:0,0:0:0:0:
378,264,31733,1,2,0:3:0:0:
381,252,31845,1,0,0:0:0:0:
384,239,31957,2,0,L|458:228,1,54,8|0,1:2|0:0,0:0:0:0:
220,371,32184,1,2,0:3:0:0:
213,360,32297,1,2,0:3:0:0:
206,349,32411,102,0,B|140:334|140:334|114:369,1,108,2|2,0:0|0:3,0:0:0:0:
45,237,32862,1,8,1:2:0:0:
48,222,32974,2,0,P|101:204|141:237,1,108
222,101,33313,5,2,0:0:0:0:
218,117,33426,1,0,0:0:0:0:
214,131,33538,2,0,L|152:121,1,54,2|0,0:3|0:0,0:0:0:0:
296,15,33764,101,10,1:2:0:0:
299,33,33873,2,0,B|382:18|382:18|411:39,1,108,0|2,0:0|0:3,0:0:0:0:
468,85,34201,6,0,P|431:134|454:199,1,108,2|2,0:0|0:3,0:0:0:0:
501,282,34539,1,0,0:0:0:0:
492,267,34652,2,0,B|446:264|446:264|429:276|429:276|376:278,1,108,10|2,1:2|0:3,0:0:0:0:
257,208,35103,101,2,0:0:0:0:
271,222,35216,2,0,L|257:339,1,108
174,278,35554,2,0,L|164:346,1,54,8|0,1:2|0:0,0:0:0:0:
84,276,35779,2,0,L|74:344,1,54,2|2,0:3|0:3,0:0:0:0:
130,137,35998,5,2,0:0:0:0:
126,153,36109,1,0,0:0:0:0:
84,149,36221,1,2,0:3:0:0:
39,141,36333,1,0,0:0:0:0:
286,62,36669,101,2,0:3:0:0:
282,46,36781,1,0,0:0:0:0:
240,50,36893,1,2,0:0:0:0:
195,58,37005,1,0,0:0:0:0:
386,178,37341,6,0,P|440:162|495:147,1,108,8|2,1:2|0:3,0:0:0:0:
340,271,37677,101,2,0:3:0:0:
359,259,37789,2,0,P|371:186|294:123,1,162,2|0,0:0|0:0,0:0:0:0:
164,178,38236,2,0,P|154:255|210:310,1,162,10|0,1:2|0:0,0:0:0:0:
347,249,38684,6,0,P|357:191|320:147,1,121.499996292114,2|0,0:0|0:0,0:0:0:0:
174,191,39121,2,0,P|163:248|201:293,1,121.499996292114,8|0,1:2|3:0,0:0:0:0:
288,312,39559,101,6,0:0:0:0:
111,368,39786,1,2,0:3:0:0:
38,288,40013,2,0,L|55:174,1,108,8|2,1:2|0:3,0:0:0:0:
115,122,40354,2,0,P|148:169|125:219,1,108
121,220,40695,1,2,0:3:0:0:
227,73,40922,5,8,1:2:0:0:
222,58,41036,2,0,L|157:50,1,54,0|2,0:0|0:3,0:0:0:0:
302,161,41263,1,2,0:3:0:0:
312,144,41377,2,0,P|369:145|394:196,1,108,2|2,0:0|0:3,0:0:0:0:
323,343,41821,101,8,1:2:0:0:
493,299,42043,1,2,0:3:0:0:
482,308,42154,2,0,B|412:284|412:284|390:316,1,108
250,317,42488,2,0,L|240:255,1,54,2|0,0:3|0:0,0:0:0:0:
205,136,42712,5,8,1:2:0:0:
213,157,42824,2,0,B|247:138|247:138|214:33,1,108,0|2,0:0|0:3,0:0:0:0:
83,57,43160,102,0,B|29:84|29:84|71:183,1,162,2|0,0:0|0:0,0:0:0:0:
104,248,43611,1,8,1:2:0:0:
234,228,43836,1,2,0:3:0:0:
245,241,43949,2,0,P|201:278|212:345,1,108
278,372,44287,2,0,P|292:335|283:315,1,54,2|0,0:3|0:0,0:0:0:0:
135,242,44513,5,8,1:2:0:0:
97,259,44621,1,0,0:0:0:0:
75,288,44730,1,2,0:3:0:0:
74,325,44839,1,2,0:3:0:0:
96,352,44947,102,0,L|80:231,1,108,2|2,0:0|0:3,0:0:0:0:
27,71,45394,6,0,B|54:101|108:92|113:25,1,108,8|2,1:2|0:3,0:0:0:0:
239,141,45730,1,0,0:0:0:0:
234,158,45842,2,0,B|207:188|153:179|148:112,1,108,2|2,0:0|0:3,0:0:0:0:
375,28,46290,101,8,1:2:0:0:
361,46,46402,2,0,L|377:163,1,108,0|2,0:0|0:3,0:0:0:0:
328,228,46720,5,2,0:0:0:0:
280,213,46839,1,8,3:2:0:0:
381,347,47069,101,0,3:0:0:0:
396,332,47174,2,0,L|481:343,1,74.2500022659302,8|0,3:2|3:0,0:0:0:0:
508,329,47394,2,0,L|502:373,2,45,0|0|0,3:0|3:0|3:0,0:0:0:0:
498,243,47624,5,0,1:0:0:0:
491,210,47740,2,0,P|473:191|387:206,1,90,0|8,3:0|3:0,0:0:0:0:
333,281,47972,101,2,1:3:0:0:
224,259,48183,1,2,1:3:0:0:
115,234,48406,2,0,L|124:305,1,67.5,8|8,3:2|3:2,0:0:0:0:
32,130,48628,5,8,3:2:0:0:
36,113,48739,1,8,3:0:0:0:
40,97,48850,2,0,B|128:88|93:142|193:128,1,135,4|8,1:2|3:0,0:0:0:0:
224,77,49205,1,8,3:0:0:0:
22,377,49422,37,4,0:0:0:0:
98,375,49652,1,2,0:3:0:0:
173,365,49883,1,2,0:2:0:0:
248,354,50114,1,2,0:3:0:0:
276,276,50332,5,2,0:2:0:0:
259,267,50554,1,2,0:3:0:0:
309,192,50776,101,2,0:2:0:0:
292,183,50998,1,2,0:3:0:0:
264,103,51220,5,2,0:2:0:0:
188,116,51443,1,2,0:3:0:0:
111,130,51667,1,2,0:2:0:0:
36,148,51891,1,2,0:3:0:0:
2,229,52115,101,2,0:2:0:0:
120,273,52339,1,2,0:3:0:0:
191,239,52563,5,2,0:2:0:0:
320,212,52787,1,2,0:3:0:0:
378,152,53011,101,2,0:2:0:0:
340,87,53234,1,2,0:3:0:0:
381,21,53458,1,2,0:2:0:0:
456,25,53682,1,2,0:3:0:0:
459,32,53794,1,0,0:0:0:0:
462,38,53906,5,2,0:2:0:0:
457,116,54130,1,2,0:3:0:0:
409,214,54354,101,2,0:2:0:0:
436,334,54572,1,2,0:3:0:0:
366,379,54791,5,2,0:2:0:0:
283,337,55014,1,2,0:3:0:0:
262,247,55237,1,2,0:2:0:0:
329,181,55461,1,2,0:3:0:0:
344,186,55684,101,2,0:2:0:0:
208,116,55908,1,2,0:3:0:0:
162,196,56131,5,2,0:2:0:0:
315,96,56355,1,2,0:3:0:0:
96,7,56578,101,2,0:2:0:0:
138,75,56801,1,2,0:3:0:0:
91,139,57025,5,2,0:2:0:0:
14,254,57249,1,2,0:3:0:0:
101,384,57473,101,2,0:2:0:0:
240,315,57697,1,2,0:3:0:0:
162,272,57921,5,2,0:2:0:0:
289,381,58151,1,2,0:3:0:0:
397,275,58382,101,2,0:2:0:0:
332,213,58605,1,2,0:3:0:0:
395,146,58829,1,2,0:2:0:0:
458,207,59053,1,2,0:3:0:0:
336,50,59277,6,0,L|322:118,2,40.4999987640381,2|0|2,0:2|0:0|0:3,0:0:0:0:
217,195,59725,101,2,0:2:0:0:
239,279,59949,1,2,0:3:0:0:
68,341,60173,5,2,0:2:0:0:
28,261,60390,1,2,0:3:0:0:
88,179,60607,101,2,0:2:0:0:
0,81,60841,1,2,0:3:0:0:
155,20,61075,5,2,0:2:0:0:
267,112,61297,1,2,0:3:0:0:
331,25,61519,101,2,0:2:0:0:
166,134,61741,1,2,0:3:0:0:
333,241,61963,5,2,0:2:0:0:
408,193,62186,1,2,0:3:0:0:
475,253,62410,1,2,0:2:0:0:
401,301,62634,1,2,0:3:0:0:
259,371,62858,101,2,0:2:0:0:
242,354,62975,2,0,L|256:236,1,80.9999975280763,0|8,0:0|0:0,0:0:0:0:
196,202,63326,6,0,P|179:216|128:223,1,67.5,2|0,0:0|0:0,0:0:0:0:
92,98,63543,2,0,P|133:70|179:80,1,80.9999975280763,12|0,0:0|0:0,0:0:0:0:
261,142,63760,70,0,P|332:186|419:136,1,168.75,6|8,0:0|1:2,0:0:0:0:
454,70,64095,1,0,0:0:0:0:
378,41,64207,2,0,P|364:46|338:110,1,84.375,2|0,0:0|0:0,0:0:0:0:
464,207,64431,2,0,P|477:201|503:137,1,84.375,8|0,1:2|0:0,0:0:0:0:
394,301,64655,6,0,B|302:298|341:242|232:237,1,168.75,2|10,0:0|1:2,0:0:0:0:
162,229,64991,1,0,0:0:0:0:
166,316,65103,2,0,P|228:350|252:339,1,84.375,2|2,0:0|0:0,0:0:0:0:
321,166,65327,2,0,P|259:132|235:143,1,84.375,8|2,1:2|0:0,0:0:0:0:
123,206,65551,102,0,P|94:229|12:220,1,84.375,2|2,0:0|0:0,0:0:0:0:
0,105,65774,2,0,P|29:82|111:91,1,84.375,8|0,1:2|0:0,0:0:0:0:
269,84,65998,1,2,0:0:0:0:
228,149,66106,2,0,P|166:76|198:4,1,168.75
339,212,66432,6,0,P|401:139|369:67,1,168.75,2|8,0:0|1:2,0:0:0:0:
331,17,66758,1,2,0:0:0:0:
301,31,66867,2,0,P|286:60|307:129,1,84.375,2|0,0:0|0:0,0:0:0:0:
471,130,67096,2,0,P|486:101|465:32,1,84.375,8|0,1:2|0:0,0:0:0:0:
353,219,67325,102,0,B|392:202|392:202|436:214,1,84.375,2|0,0:0|0:0,0:0:0:0:
437,340,67545,2,0,B|398:357|398:357|354:345,1,84.375,10|0,1:2|0:0,0:0:0:0:
262,186,67766,6,0,P|231:165|183:171,1,84.375,2|0,0:0|0:0,0:0:0:0:
161,284,67986,2,0,P|192:305|240:299,1,84.375,10|0,1:2|0:0,0:0:0:0:
84,102,68207,102,0,L|41:277,1,168.75,2|10,0:0|1:2,0:0:0:0:
21,347,68538,1,0,0:0:0:0:
106,335,68648,2,0,P|136:298|125:239,1,84.375,2|0,0:0|0:0,0:0:0:0:
0,110,68871,2,0,P|3:68|30:37,1,84.375,8|0,1:2|0:0,0:0:0:0:
170,9,69095,6,0,P|246:63|239:145,1,168.75,2|8,0:0|1:2,0:0:0:0:
222,224,69433,1,0,0:0:0:0:
139,180,69546,2,0,P|138:136|170:98,1,84.375,2|0,0:0|0:0,0:0:0:0:
343,153,69771,2,0,P|344:197|312:235,1,84.375,8|0,1:2|0:0,0:0:0:0:
94,257,69997,2,0,P|62:226|57:177,1,84.375,2|0,0:0|0:0,0:0:0:0:
392,79,70222,2,0,P|423:109|428:158,1,84.375,8|0,1:2|0:0,0:0:0:0:
231,340,70448,102,0,P|220:299|241:343,1,168.75,10|10,1:2|1:2,0:0:0:0:
241,342,70899,6,0,B|269:256|200:272|223:159,1,168.75,6|8,0:0|1:2,0:0:0:0:
203,92,71232,1,0,0:0:0:0:
119,115,71343,2,0,P|99:183|113:209,1,84.375,2|0,0:0|0:0,0:0:0:0:
321,224,71565,2,0,P|341:156|327:130,1,84.375,8|0,1:2|0:0,0:0:0:0:
148,281,71787,102,0,B|41:293|41:293|47:372,1,168.75,2|8,0:0|1:2,0:0:0:0:
173,384,72121,1,0,0:0:0:0:
246,351,72232,2,0,L|236:257,1,84.375,2|0,0:0|0:0,0:0:0:0:
266,32,72454,2,0,L|257:115,1,84.375,10|0,1:2|0:0,0:0:0:0:
449,151,72676,6,0,B|412:128|412:128|364:138,1,84.375,2|0,0:0|0:0,0:0:0:0:
349,278,72899,2,0,B|386:301|386:301|434:291,1,84.375,10|0,1:2|0:0,0:0:0:0:
250,156,73123,1,2,0:0:0:0:
183,213,73235,2,0,L|211:389,1,168.75,2|2,0:0|0:0,0:0:0:0:
256,132,73571,102,0,B|191:125|191:125|166:98|166:98|83:87,1,168.75,2|8,0:0|1:2,0:0:0:0:
16,137,73907,1,0,0:0:0:0:
71,222,74019,2,0,P|120:228|162:202,1,84.375,2|0,0:0|0:0,0:0:0:0:
236,45,74243,2,0,P|274:29|315:36,1,84.375,10|0,1:2|0:0,0:0:0:0:
355,220,74488,6,0,P|316:226|262:198,1,84.375,8|0,1:2|0:0,0:0:0:0:
132,60,74715,2,0,P|93:44|51:50,1,84.375,2|8,0:0|1:2,0:0:0:0:
29,217,74942,2,0,P|81:135|32:140,1,168.75,2|8,0:0|1:2,0:0:0:0:
36,344,75376,102,0,L|147:360,1,84.375,2|0,0:0|0:0,0:0:0:0:
252,323,75603,2,0,L|335:310,1,84.375,2|0,0:0|0:0,0:0:0:0:
454,216,75830,6,0,B|468:175|468:175|444:132,1,84.375,12|0,0:0|0:0,0:0:0:0:
282,147,76057,2,0,B|268:188|268:188|288:223,1,84.375,2|0,0:0|0:0,0:0:0:0:
353,81,76285,102,0,P|263:55|194:105,1,168.75,12|2,0:0|0:0,0:0:0:0:
171,189,76620,1,0,0:0:0:0:
215,285,76732,2,0,P|298:315|369:264,1,168.75,12|2,0:0|0:0,0:0:0:0:
387,179,77058,1,0,0:0:0:0:
276,160,77166,2,0,P|255:199|288:160,1,168.75,12|2,0:0|0:0,0:0:0:0:
155,215,77512,5,8,0:0:0:0:
154,236,77627,1,12,0:0:0:0:
105,254,77738,1,8,0:0:0:0:
58,269,77850,1,8,0:0:0:0:
11,283,77962,101,8,0:0:0:0:
490,21,78322,85,2,0:3:0:0:
414,35,78766,1,2,0:3:0:0:
338,52,79210,1,2,0:3:0:0:
261,67,79637,1,2,0:3:0:0:
258,83,79801,1,0,0:0:0:0:
247,164,80085,5,2,0:3:0:0:
324,184,80557,1,2,0:3:0:0:
402,201,81004,1,2,0:3:0:0:
478,220,81440,1,2,0:3:0:0:
478,236,81555,1,0,0:0:0:0:
476,252,81682,102,0,P|417:293|351:270,1,108,2|2,0:0|0:3,0:0:0:0:
287,162,82129,2,0,P|234:164|194:200,1,108,8|2,1:2|0:3,0:0:0:0:
124,290,82465,1,0,0:0:0:0:
104,278,82577,2,0,L|103:161,1,108,2|2,0:0|0:3,0:0:0:0:
55,112,82913,1,0,0:0:0:0:
32,119,83025,2,0,L|35:48,1,54,8|0,1:2|0:0,0:0:0:0:
208,108,83361,5,0,0:0:0:0:
211,84,83473,2,0,P|282:41|327:56,1,108,2|2,0:0|0:3,0:0:0:0:
362,201,83920,2,0,P|291:244|246:229,1,108,8|2,1:2|0:3,0:0:0:0:
201,205,84256,1,0,0:0:0:0:
207,190,84368,1,2,0:0:0:0:
413,117,84592,1,2,0:3:0:0:
432,130,84704,1,0,0:0:0:0:
453,143,84816,2,0,L|445:215,2,54,8|0|2,1:2|0:0|0:3,0:0:0:0:
436,362,85260,101,8,1:2:0:0:
218,318,85611,85,2,0:0:0:0:
301,288,85834,1,2,0:0:0:0:
229,232,86051,5,2,0:0:0:0:
247,224,86149,1,2,0:0:0:0:
137,174,86372,101,2,0:0:0:0:
211,143,86596,1,2,0:0:0:0:
282,111,86820,1,2,0:0:0:0:
354,77,87037,6,0,L|406:107,2,45,8|0|0,3:2|3:2|3:2,0:0:0:0:
411,76,87284,2,0,L|483:118,1,67.5,0|0,3:2|3:2,0:0:0:0:
505,109,87451,1,8,3:2:0:0:
279,251,87715,102,0,B|274:203|218:179|218:179|276:152|340:147|398:203|391:288|365:323|306:361|251:340|227:320,1,465.750008883476,6|0,3:2|0:0,2:0:0:0:
