osu file format v14

[General]
AudioFilename: audio.mp3
AudioLeadIn: 0
PreviewTime:63306
Countdown: 0
SampleSet: Soft
StackLeniency: 0.7
Mode: 0
LetterboxInBreaks: 0
WidescreenStoryboard: 0

[Editor]
DistanceSpacing: 1.2
BeatDivisor: 8
GridSize: 32
TimelineZoom: 1.8

[Metadata]
Title:Wild Side (TV Size)
TitleUnicode:Wild Side (TV Size)
Artist:ALI
ArtistUnicode:ALI
Creator:Kroytz
Version:HowRengar's Light Insane
Source:BEASTARS
Tags:-Anime Ver.- ビースターズ BST BAND Version Alien Liberty International Jazz Anime Japanese English French Opening OP Night Mare Luna Yuuya_ke HowRengar Kowari DeviousPanda Kazato Asa Shizuku- BarkingMadDog BMD kimchii42 -Mikan
BeatmapID:2229730
BeatmapSetID:1055990

[Difficulty]
HPDrainRate:4
CircleSize:3.8
OverallDifficulty:6
ApproachRate:8.8
SliderMultiplier:1.6
SliderTickRate:1

[Events]
//Background and Video events
Video,-500,"video.mp4"
0,0,"BG.png",0,0
//Break Periods
//Storyboard Layer 0 (Background)
//Storyboard Layer 1 (Fail)
//Storyboard Layer 2 (Pass)
//Storyboard Layer 3 (Foreground)
//Storyboard Layer 4 (Overlay)
//Storyboard Sound Samples

[TimingPoints]
195,535.714285714286,4,2,6,50,1,0
563,413.793103448276,4,2,6,50,1,0
1222,419.58041958042,4,2,6,50,1,0
1641,428.571428571429,4,2,6,50,1,0
1855,495.867768595041,4,2,6,50,1,0
1978,431.654676258993,4,2,6,50,1,0
2409,465.116279069767,4,2,6,50,1,0
2641,483.870967741935,4,2,6,80,1,1
2641,-78,4,2,6,80,0,1
3124,461.538461538462,4,2,6,80,1,1
3470,379.746835443038,4,2,6,80,1,1
3659,504.201680672269,4,2,3,35,1,0
4037,468.75,4,2,1,35,1,0
4505,413.793103448276,4,2,1,35,1,0
4918,508.474576271186,4,2,1,35,1,0
5299,427.046263345196,4,2,1,35,1,0
5512,434.782608695652,4,2,1,35,1,0
5838,419.58041958042,4,2,1,35,1,0
6257,431.654676258993,4,2,1,35,1,0
6688,487.80487804878,4,2,1,35,1,0
7053,465.116279069767,4,2,1,35,1,0
7285,413.793103448276,4,2,1,35,1,0
7595,434.782608695652,4,2,1,35,1,0
8029,441.176470588235,4,2,1,35,1,0
8470,517.241379310345,4,2,1,35,1,0
8857,454.545454545455,4,2,1,35,1,0
9084,413.793103448276,4,2,1,35,1,0
9394,428.571428571429,4,2,1,35,1,0
9822,437.956204379562,4,2,1,35,1,0
10259,512.820512820513,4,2,1,35,1,0
10643,425.531914893617,4,2,1,35,1,0
10855,392.156862745098,4,2,1,35,1,0
10953,447.761194029851,4,2,1,50,1,0
10953,-80,4,2,1,50,0,0
12296,425.531914893617,4,2,1,50,1,0
12402,-80,4,2,1,35,0,0
12615,-74.0740740740741,4,2,1,35,0,0
12721,447.761194029851,4,2,1,50,1,0
13168,-80,4,2,1,50,0,0
13616,442.80442804428,4,2,1,50,1,0
13616,-80,4,2,1,50,0,0
14169,-80,4,2,1,50,0,0
14501,437.956204379562,4,2,1,50,1,0
14938,447.761194029851,4,2,1,50,1,0
14938,-80,4,2,1,50,0,0
16281,447.761194029851,4,2,1,50,1,0
16728,-80,4,2,1,50,0,0
17624,461.538461538462,4,2,1,50,1,0
18085,447.761194029851,4,2,2,50,1,0
18085,-74.0740740740741,4,2,2,50,0,0
18532,-74.0740740740741,4,2,1,50,0,0
19876,454.545454545455,4,2,1,50,1,0
20103,-80,4,2,1,50,0,0
20330,447.761194029851,4,2,1,50,1,0
20330,-80,4,2,1,50,0,0
21561,-85.4700854700855,4,2,1,50,0,0
21673,444.444444444444,4,2,1,50,1,0
22117,-80,4,2,1,50,0,0
22561,-80,4,2,1,50,0,0
23012,447.761194029851,4,2,1,50,1,0
23012,-100,4,2,1,50,0,0
23463,449.438202247191,4,2,1,50,1,0
23912,-80,4,2,1,50,0,0
24811,434.782608695652,4,2,1,50,1,0
25245,461.538461538462,4,2,4,50,1,0
25245,-60.6060606060606,4,2,4,50,0,0
25475,-60.6060606060606,4,2,1,50,0,0
25591,-68.9655172413793,4,2,10,50,0,0
25706,444.444444444444,4,2,6,50,1,0
25706,-68.9655172413793,4,2,6,50,0,0
25928,-68.9655172413793,4,2,1,50,0,0
26150,-68.9655172413793,4,2,4,50,0,0
26372,-68.9655172413793,4,2,1,50,0,0
26594,-68.9655172413793,4,2,6,50,0,0
26817,-68.9655172413793,4,2,1,50,0,0
26928,-68.9655172413793,4,2,10,50,0,0
27039,447.761194029851,4,2,1,50,1,0
27039,-68.9655172413793,4,2,1,50,0,0
27150,-68.9655172413793,4,2,10,50,0,0
27262,-68.9655172413793,4,2,1,50,0,0
27374,-68.9655172413793,4,2,10,50,0,0
27486,-68.9655172413793,4,2,6,50,0,0
27710,-68.9655172413793,4,2,1,50,0,0
27934,-68.9655172413793,4,2,1,50,0,0
28494,-68.9655172413793,4,2,1,50,0,0
28830,-68.9655172413793,4,2,4,50,0,0
29053,-68.9655172413793,4,2,1,50,0,0
29165,-68.9655172413793,4,2,10,50,0,0
29389,-68.9655172413793,4,2,10,50,0,0
29501,-68.9655172413793,4,2,1,50,0,0
29725,434.782608695652,4,2,4,50,1,0
29725,-68.9655172413793,4,2,4,50,0,0
29942,-68.9655172413793,4,2,1,50,0,0
30159,-68.9655172413793,4,2,6,50,0,0
30377,-68.9655172413793,4,2,1,50,0,0
30485,-68.9655172413793,4,2,10,50,0,0
30594,468.75,4,2,1,50,1,0
30711,-68.9655172413793,4,2,10,50,0,0
30828,-68.9655172413793,4,2,1,50,0,0
30945,-68.9655172413793,4,2,10,50,0,0
31062,447.761194029851,4,2,6,50,1,0
31062,-68.9655172413793,4,2,6,50,0,0
31285,-68.9655172413793,4,2,1,50,0,0
31509,-68.9655172413793,4,2,1,50,0,0
31957,454.545454545455,4,2,1,50,1,0
32070,-68.9655172413793,4,2,1,50,0,0
32411,451.127819548872,4,2,4,50,1,0
32411,-68.9655172413793,4,2,4,50,0,0
32636,-68.9655172413793,4,2,1,50,0,0
32749,-68.9655172413793,4,2,10,50,0,0
32862,-68.9655172413793,4,2,1,50,0,0
32974,-68.9655172413793,4,2,10,50,0,0
33087,-68.9655172413793,4,2,1,50,0,0
33313,-68.9655172413793,4,2,4,50,0,0
33538,-68.9655172413793,4,2,1,50,0,0
33764,437.956204379562,4,2,6,50,1,0
33764,-68.9655172413793,4,2,6,50,0,0
33982,-68.9655172413793,4,2,1,50,0,0
34092,-68.9655172413793,4,2,10,50,0,0
34201,451.127819548872,4,2,1,50,1,0
34201,-68.9655172413793,4,2,1,50,0,0
34313,-68.9655172413793,4,2,10,50,0,0
34426,-68.9655172413793,4,2,1,50,0,0
34539,-68.9655172413793,4,2,10,50,0,0
34652,-68.9655172413793,4,2,6,50,0,0
34877,-68.9655172413793,4,2,1,50,0,0
35103,-68.9655172413793,4,2,1,50,0,0
35998,447.761194029851,4,2,4,50,1,0
35998,-68.9655172413793,4,2,4,50,0,0
36109,-68.9655172413793,4,2,10,50,0,0
36893,-80,4,2,4,50,0,0
37005,-80,4,2,10,50,0,0
37341,-80,4,2,1,50,0,0
37789,-80,4,2,4,50,0,0
38012,-80,4,2,1,50,0,0
38236,-80,4,2,6,50,0,0
38460,-80,4,2,1,50,0,0
38684,437.956204379562,4,2,4,50,1,0
38684,-80,4,2,4,50,0,0
38902,-80,4,2,1,50,0,0
39121,-80,4,2,6,50,0,0
39340,-80,4,2,6,50,0,0
39559,454.545454545455,4,2,1,50,1,0
39559,-80,4,2,1,50,0,0
41036,-80,4,2,1,50,0,0
41263,-79,4,2,1,50,0,0
41377,444.444444444444,4,2,1,50,1,0
41821,-80,4,2,1,50,0,0
42265,447.761194029851,4,2,1,50,1,0
42265,-80,4,2,1,50,0,0
43160,451.127819548872,4,2,1,50,1,0
43611,-80,4,2,1,50,0,0
44513,434.782608695652,4,2,1,50,1,0
44621,-81,4,2,1,50,0,0
44947,447.761194029851,4,2,1,50,1,0
45394,-80,4,2,1,50,0,0
46402,-76.9230769230769,4,2,1,50,0,0
46514,413.793103448276,4,2,1,50,1,0
46720,476.190476190476,4,2,1,50,1,0
46720,-80,4,2,1,50,0,0
46839,461.538461538462,4,2,1,50,1,0
47069,421.052631578947,4,2,1,50,1,0
47174,441.176470588235,4,2,1,50,1,0
47394,461.538461538462,4,2,1,50,1,0
47394,-80,4,2,1,50,0,0
47624,-75.7575757575758,4,2,1,50,0,0
47740,387.096774193548,4,2,1,50,1,0
47836,545.454545454546,4,2,1,50,1,0
47972,422.535211267606,4,2,3,50,1,0
48183,447.761194029851,4,2,3,50,1,0
48406,444.444444444444,4,2,1,50,1,0
48408,-100,4,2,1,50,0,0
48850,500,4,2,1,50,1,0
48850,-80,4,2,1,50,0,0
49100,422.535211267606,4,2,1,50,1,0
49205,434.782608695652,4,2,1,50,1,0
49422,461.538461538462,4,2,2,50,1,0
49652,-100,4,2,3,50,0,0
50114,437.956204379562,4,2,3,50,1,0
50332,444.444444444444,4,2,3,50,1,0
51220,447.761194029851,4,2,3,50,1,0
54354,437.956204379562,4,2,3,50,1,0
54791,446.927374301676,4,2,3,50,1,0
56020,-100,4,2,20,5,0,0
56131,-100,4,2,3,50,0,0
56578,447.761194029851,4,2,3,50,1,0
57921,461.538461538462,4,2,3,50,1,0
58382,447.761194029851,4,2,3,50,1,0
60173,434.782608695652,4,2,3,50,1,0
60607,468.75,4,2,3,50,1,0
61075,444.444444444444,4,2,3,60,1,0
61963,447.761194029851,4,2,3,60,1,0
62858,468.75,4,2,3,60,1,0
63209,-100,4,2,1,60,0,0
63326,434.782608695652,4,2,1,70,1,0
63543,-117.647058823529,4,2,5,70,0,0
63760,447.761194029851,4,2,4,80,1,1
63760,-68.9655172413793,4,2,4,80,0,1
63871,-68.9655172413793,4,2,1,80,0,1
63983,-68.9655172413793,4,2,1,80,0,1
64207,-68.9655172413793,4,2,4,80,0,1
64431,-68.9655172413793,4,2,1,80,0,1
64655,-68.9655172413793,4,2,4,80,0,1
64879,-68.9655172413793,4,2,6,80,0,1
65103,-68.9655172413793,4,2,1,80,0,1
65215,-68.9655172413793,4,2,6,80,0,1
65551,-68.9655172413793,4,2,1,80,0,1
65662,-68.9655172413793,4,2,6,80,0,1
65774,-68.9655172413793,4,2,1,80,0,1
65998,434.782608695652,4,2,4,80,1,1
65998,-68.9655172413793,4,2,4,80,0,1
66106,-68.9655172413793,4,2,1,80,0,1
66215,-68.9655172413793,4,2,6,80,0,1
66324,-68.9655172413793,4,2,6,80,0,1
66432,-68.9655172413793,4,2,4,80,0,1
66650,-68.9655172413793,4,2,1,80,0,1
66758,-68.9655172413793,4,2,6,80,0,1
66867,458.015267175573,4,2,4,80,1,1
66867,-68.9655172413793,4,2,4,80,0,1
66981,-68.9655172413793,4,2,1,80,0,1
67325,441.176470588235,4,2,4,80,1,1
67325,-68.9655172413793,4,2,4,80,0,1
67435,-68.9655172413793,4,2,1,80,0,1
67545,-68.9655172413793,4,2,6,80,0,1
67655,-68.9655172413793,4,2,1,80,0,1
67766,-68.9655172413793,4,2,4,80,0,1
67876,-68.9655172413793,4,2,1,80,0,1
67986,-68.9655172413793,4,2,6,80,0,1
68097,-68.9655172413793,4,2,1,80,0,1
68207,-68.9655172413793,4,2,4,80,0,1
68427,-68.9655172413793,4,2,1,80,0,1
68648,447.761194029851,4,2,4,80,1,1
68648,-68.9655172413793,4,2,4,80,0,1
68759,-65.85,4,2,10,80,0,1
68871,-65.85,4,2,1,80,0,1
69095,451.127819548872,4,2,4,80,1,1
69095,-68.9655172413793,4,2,4,80,0,1
69320,-68.9655172413793,4,2,1,80,0,1
69546,-68.9655172413793,4,2,4,80,0,1
69771,-68.9655172413793,4,2,1,80,0,1
69997,-68.9655172413793,4,2,4,80,0,1
70222,-68.9655172413793,4,2,1,80,0,1
70448,-68.9655172413793,4,2,6,80,0,1
70786,-68.9655172413793,4,2,6,80,0,0
70899,444.444444444444,4,2,4,80,1,1
70899,-67.5,4,2,4,80,0,1
71010,-67.5,4,2,1,80,0,1
71121,-67.5675675675676,4,2,1,80,0,1
71343,-100,4,2,4,80,0,1
71565,-100,4,2,1,80,0,1
71787,-100,4,2,4,80,0,1
72010,-100,4,2,1,80,0,1
72232,-68.9655172413793,4,2,4,80,0,1
72343,-68.9655172413793,4,2,1,80,0,1
72454,-68.9655172413793,4,2,6,80,0,1
72676,447.761194029851,4,2,4,80,1,1
72676,-68.9655172413793,4,2,4,80,0,1
72899,-68.9655172413793,4,2,6,80,0,1
73123,-68.9655172413793,4,2,4,80,0,1
73235,-68.9655172413793,4,2,6,80,0,1
73571,-68.9655172413793,4,2,1,80,0,1
74019,-68.9655172413793,4,2,4,80,0,1
74243,491.803278688525,4,2,6,80,1,1
74488,454.545454545455,4,2,5,80,1,1
74488,-68.9655172413793,4,2,5,80,0,1
74715,-68.9655172413793,4,2,1,80,0,1
74942,434.782608695652,4,2,1,80,1,1
75376,454.545454545455,4,2,1,80,1,1
75376,-68.9655172413793,4,2,1,80,0,1
75830,-65.7894736842105,4,2,5,80,0,1
75944,-65.7894736842105,4,2,5,80,0,1
76285,447.761194029851,4,2,1,80,1,1
76285,-66.6666666666667,4,2,1,80,0,1
76732,434.782608695652,4,2,1,80,1,1
76732,-66.6666666666667,4,2,1,80,0,1
77166,461.538461538462,4,2,1,80,1,1
77166,-66.6666666666667,4,2,1,80,0,1
77627,447.761194029851,4,2,1,80,1,1
77962,480,4,2,1,80,1,0
77962,-100,4,2,1,80,0,0
78322,444.444444444444,4,2,1,35,1,0
79210,491.803278688525,4,2,1,35,1,0
79578,447.761194029851,4,2,1,35,1,0
79637,461.538461538462,4,2,1,35,1,0
79801,454.545454545455,4,2,1,35,1,0
80141,416.666666666667,4,2,1,35,1,0
80557,447.761194029851,4,2,1,35,1,0
81004,491.803278688525,4,2,1,35,1,0
81372,461.538461538462,4,2,1,35,1,0
81440,461.538461538462,4,2,1,35,1,0
81602,322.58064516129,4,2,1,35,1,0
81682,447.761194029851,4,2,1,50,1,0
81682,-80,4,2,1,50,0,0
84816,444.444444444444,4,2,1,50,1,0
84927,-80,4,2,1,50,0,0
85260,468.75,4,2,1,50,1,0
85611,447.761194029851,4,2,6,60,1,0
85834,434.782608695652,4,2,6,60,1,0
86051,394.736842105263,4,2,6,60,1,0
86149,447.761194029851,4,2,6,60,1,0
86820,434.782608695652,4,2,6,60,1,0
87037,495.867768595041,4,2,6,60,1,0
87284,447.761194029851,4,2,6,60,1,0
87715,447.761194029851,4,2,1,80,1,0
87715,-58.8235294117647,4,2,1,80,0,0
88386,-80,4,2,1,20,0,0

[Colours]
Combo1 : 108,0,54
Combo2 : 0,64,128
Combo3 : 0,128,192
Combo4 : 255,255,70
Combo5 : 0,210,0
Combo6 : 192,192,192
Combo7 : 139,139,139
Combo8 : 155,0,0

[HitObjects]
54,197,195,101,2,0:0:0:0:
63,207,328,1,2,0:0:0:0:
249,102,563,5,2,0:0:0:0:
214,199,769,1,2,0:0:0:0:
179,296,976,1,2,0:0:0:0:
273,273,1222,2,0,L|334:262,1,40,2|2,0:0|0:0,0:0:0:0:
416,249,1431,2,0,L|394:307,1,40,2|2,0:0|0:0,0:0:0:0:
367,383,1641,2,0,L|327:335,1,40,2|2,0:0|0:0,0:0:0:0:
268,285,1855,1,2,0:0:0:0:
456,43,2641,102,0,B|521:95|488:211|355:248|342:92|248:68|186:174|272:250|319:176,1,431.999986816407,6|2,1:2|1:3,0:0:0:0:
329,26,4037,21,0,0:0:0:0:
303,31,4505,1,0,0:0:0:0:
277,36,4918,1,0,0:0:0:0:
251,41,5299,1,0,0:0:0:0:
108,25,5512,1,0,0:0:0:0:
28,81,5838,5,0,0:0:0:0:
33,107,6257,1,0,0:0:0:0:
38,133,6688,1,0,0:0:0:0:
43,159,7053,1,0,0:0:0:0:
28,299,7285,1,0,0:0:0:0:
124,320,7595,101,0,0:0:0:0:
150,315,8029,1,0,0:0:0:0:
176,310,8470,1,0,0:0:0:0:
202,305,8857,1,0,0:0:0:0:
321,231,9084,1,0,0:0:0:0:
371,324,9394,5,0,0:0:0:0:
397,329,9822,1,0,0:0:0:0:
423,334,10259,1,0,0:0:0:0:
449,339,10643,1,0,0:0:0:0:
495,168,10855,1,0,0:0:0:0:
486,150,10953,102,0,P|438:137|388:132,1,100,2|2,0:0|0:3,0:0:0:0:
327,4,11400,2,0,P|279:16|229:21,1,100,2|2,0:0|0:3,0:0:0:0:
70,16,11848,2,0,L|85:117,1,100,2|2,0:0|0:3,0:0:0:0:
208,151,12296,1,2,0:0:0:0:
223,164,12402,2,0,L|211:244,1,50,0|2,0:0|0:3,0:0:0:0:
157,270,12615,6,0,P|202:257|267:286,1,111.111111111111
205,345,12944,1,2,0:3:0:0:
356,362,13168,2,0,P|403:351|476:339,1,100,2|2,0:0|0:3,0:0:0:0:
512,212,13616,2,0,L|498:113,1,100,2|2,0:0|0:3,0:0:0:0:
402,0,14058,1,2,0:0:0:0:
381,9,14169,2,0,L|369:89,1,50,0|2,0:0|0:3,0:0:0:0:
367,145,14390,102,0,L|236:125,1,100
182,112,14719,1,2,0:3:0:0:
128,223,14938,2,0,L|227:238,1,100,2|2,0:0|0:3,0:0:0:0:
280,384,15385,2,0,L|182:368,1,100,2|2,0:0|0:3,0:0:0:0:
60,350,15833,1,2,0:0:0:0:
40,357,15945,2,0,L|50:283,1,50,0|2,0:0|0:3,0:0:0:0:
111,253,16169,6,0,P|59:254|16:215,1,100
0,142,16504,1,2,0:3:0:0:
184,140,16728,2,0,P|134:138|91:173,1,100,2|2,0:0|0:3,0:0:0:0:
282,166,17176,2,0,P|287:131|281:97,1,50,2|0,0:0|0:0,0:0:0:0:
185,51,17400,1,2,0:3:0:0:
222,49,17512,1,2,0:3:0:0:
256,34,17624,1,4,0:0:0:0:
425,351,18085,102,0,B|327:295|323:395|218:355,1,216.000000823975,4|8,0:0|1:2,0:0:0:0:
238,159,18756,1,2,0:3:0:0:
256,145,18868,1,0,0:0:0:0:
278,148,18980,2,0,L|267:255,1,108.000000411987,2|2,0:0|0:3,0:0:0:0:
125,0,19428,2,0,L|136:107,1,108.000000411987,8|2,1:2|0:3,0:0:0:0:
88,193,19764,1,2,0:3:0:0:
77,207,19876,6,0,L|20:197,1,40,2|0,0:0|0:0,0:0:0:0:
0,304,20103,2,0,L|62:291,1,50,2|0,0:3|0:0,0:0:0:0:
144,275,20330,2,0,P|133:324|166:376,1,100,8|2,1:2|0:3,0:0:0:0:
246,382,20665,1,0,0:0:0:0:
265,384,20777,2,0,L|313:371,1,50,2|0,0:0|0:0,0:0:0:0:
387,285,21001,2,0,L|339:272,1,50,2|0,0:3|0:0,0:0:0:0:
434,380,21225,2,0,L|482:367,2,50,8|0|2,1:2|0:0|0:3,0:0:0:0:
387,285,21561,102,0,P|391:241|397:181,1,93.0232558139535,2|0,0:3|0:0,0:0:0:0:
424,111,21895,1,2,0:3:0:0:
509,57,22117,2,0,P|476:22|428:10,1,100,8|2,1:2|0:3,0:0:0:0:
345,62,22450,1,0,0:0:0:0:
326,76,22561,2,0,P|278:64|245:27,1,100,2|2,0:0|0:3,0:0:0:0:
85,8,23012,2,0,P|113:47|110:89,1,80,8|2,1:2|0:3,0:0:0:0:
62,149,23347,1,2,0:3:0:0:
46,160,23463,6,0,P|20:158|-7:149,1,40,2|0,0:0|0:0,0:0:0:0:
158,168,23687,2,0,P|180:160|202:156,1,40,2|0,0:3|0:0,0:0:0:0:
106,303,23912,2,0,L|97:245,2,50,8|0|2,1:2|0:0|0:3,0:0:0:0:
241,335,24361,2,0,L|249:392,2,50,2|0|2,0:0|0:0|0:3,0:0:0:0:
204,156,24811,1,8,3:2:0:0:
512,159,25245,102,0,B|483:140|445:154|445:154|442:187|422:209,1,132.00000125885,6|2,0:0|0:3,0:0:0:0:
292,129,25591,2,0,L|347:145,1,58.0000017700196,0|8,0:0|1:2,0:0:0:0:
337,236,25817,2,0,L|269:217,1,58.0000017700196,2|2,0:0|0:3,0:0:0:0:
181,168,26039,1,0,0:0:0:0:
204,156,26150,6,0,L|193:285,1,116.000003540039,2|2,0:0|0:3,0:0:0:0:
0,115,26594,2,0,L|9:0,1,116.000003540039,10|2,1:2|0:3,0:0:0:0:
217,64,26928,102,0,P|183:63|151:49,1,58.0000017700196,2|2,0:3|0:0,0:3:0:0:
363,55,27150,2,0,P|335:45|306:45,1,58.0000017700196,0|2,0:0|0:3,0:0:0:0:
452,146,27374,1,0,0:0:0:0:
439,162,27486,2,0,P|377:163|324:146,1,116.000003540039,10|2,1:2|0:3,0:0:0:0:
143,287,27934,2,0,P|198:268|266:266,1,116.000003540039,2|2,0:0|0:3,0:0:0:0:
373,384,28382,1,8,1:2:0:0:
357,375,28494,2,0,P|342:345|339:318,1,58.0000017700196,0|2,0:0|0:3,0:0:0:0:
493,245,28718,1,2,0:3:0:0:
502,262,28830,6,0,P|450:287|421:222,1,116.000003540039,2|2,0:0|0:3,0:0:0:0:
345,200,29165,2,0,P|339:170|319:139,1,58.0000017700196,0|8,0:0|1:2,0:0:0:0:
224,155,29389,2,0,P|222:125|233:90,1,58.0000017700196,0|2,0:0|0:3,0:0:0:0:
315,33,29613,1,0,0:0:0:0:
325,49,29725,102,0,B|292:65|292:65|164:40,1,116.000003540039,2|2,0:0|0:3,0:0:0:0:
17,167,30159,2,0,B|55:179|55:179|130:166,1,116.000003540039,10|2,1:2|0:3,0:0:0:0:
325,146,30485,6,0,B|311:226,1,58.0000017700196,2|2,0:3|0:0,0:0:0:0:
217,249,30711,2,0,B|230:328,1,58.0000017700196,0|2,0:0|0:3,0:0:0:0:
324,371,30945,1,0,0:0:0:0:
341,384,31062,2,0,L|488:360,1,116.000003540039,10|2,1:2|0:3,0:0:0:0:
439,128,31509,2,0,L|324:146,1,116.000003540039,2|2,0:0|0:3,0:0:0:0:
153,44,31957,1,8,1:2:0:0:
171,58,32070,2,0,L|263:43,1,58.0000017700196,0|2,0:0|0:3,0:0:0:0:
350,42,32297,1,2,0:3:0:0:
333,30,32411,102,0,L|323:154,1,116.000003540039,2|2,0:0|0:3,0:0:0:0:
365,271,32749,2,0,L|272:256,1,58.0000017700196,0|8,0:0|1:2,0:0:0:0:
199,194,32974,2,0,L|106:208,1,58.0000017700196,0|2,0:0|0:3,0:0:0:0:
40,261,33200,1,0,0:0:0:0:
20,264,33313,6,0,P|2:197|20:142,1,116.000003540039,2|2,0:0|0:3,0:0:0:0:
199,194,33764,2,0,P|217:261|199:316,1,116.000003540039,10|2,1:2|0:3,0:0:0:0:
112,370,34092,102,0,L|54:360,1,58.0000017700196,2|2,0:3|0:0,0:0:0:0:
262,295,34313,2,0,L|205:304,1,58.0000017700196,0|2,0:0|0:3,0:0:0:0:
307,162,34539,1,0,0:0:0:0:
316,177,34652,2,0,P|380:171|424:119,1,116.000003540039,10|2,1:2|0:3,0:0:0:0:
419,10,35103,2,0,P|391:68|415:132,1,116.000003540039,2|2,0:0|0:3,0:0:0:0:
512,182,35554,2,0,P|475:129|407:117,1,116.000003540039,8|2,1:2|0:3,0:0:0:0:
238,269,35998,5,2,0:0:0:0:
241,287,36109,1,0,0:0:0:0:
244,306,36221,1,2,0:3:0:0:
248,326,36333,1,0,0:0:0:0:
210,111,36669,101,2,0:3:0:0:
213,130,36781,1,0,0:0:0:0:
216,148,36893,1,2,0:0:0:0:
220,168,37005,1,0,0:0:0:0:
255,367,37341,2,0,L|232:240,1,100,8|2,1:2|0:3,0:0:0:0:
161,231,37677,1,2,0:3:0:0:
153,251,37789,6,0,P|108:275|58:267,1,100,2|2,0:0|0:3,0:0:0:0:
311,223,38236,2,0,P|359:230|403:208,1,100,10|2,1:2|0:3,0:0:0:0:
170,345,38684,2,0,P|120:360|55:359,1,100,2|2,0:0|0:3,0:0:0:0:
327,318,39121,2,0,P|378:316|439:292,1,100,10|0,1:2|3:0,0:0:0:0:
512,170,39450,1,0,3:0:0:0:
491,163,39559,102,0,B|506:282,1,100,6|2,0:0|0:3,0:0:0:0:
336,2,40013,2,0,B|321:121,1,100,8|2,1:2|0:3,0:0:0:0:
304,205,40354,1,0,0:0:0:0:
289,213,40468,2,0,L|177:201,1,100,2|2,0:0|0:3,0:0:0:0:
66,37,40922,1,8,1:2:0:0:
80,27,41036,2,0,P|90:56|96:84,1,50,0|2,0:0|0:3,0:0:0:0:
78,172,41263,6,0,P|65:230|57:288,1,100,2|0,0:3|0:0,0:0:0:0:
84,361,41599,1,2,0:3:0:0:
203,370,41821,2,0,P|262:359|327:355,1,100,8|2,1:2|0:3,0:0:0:0:
382,247,42265,2,0,P|441:258|506:258,1,100,2|2,0:0|0:3,0:0:0:0:
447,78,42712,1,8,1:2:0:0:
429,91,42824,2,0,P|404:89|376:85,1,50,0|2,0:0|0:3,0:0:0:0:
295,108,43048,102,0,P|301:46|327:13,1,100,2|0,0:3|0:0,0:0:0:0:
413,3,43385,1,2,0:3:0:0:
346,193,43611,2,0,P|291:194|223:180,1,100,8|2,1:2|0:3,0:0:0:0:
91,19,44062,2,0,P|119:65|141:132,1,100,2|2,0:0|0:3,0:0:0:0:
99,306,44513,1,8,1:2:0:0:
85,287,44621,2,0,P|100:258|128:227,1,50,0|2,0:0|0:3,0:0:0:0:
246,186,44839,6,0,L|233:286,1,100,2|0,0:3|0:0,0:0:0:0:
214,374,45170,1,2,0:3:0:0:
495,384,45394,2,0,L|482:284,1,100,8|2,1:2|0:3,0:0:0:0:
391,120,45842,2,0,L|378:220,1,100,2|2,0:0|0:3,0:0:0:0:
246,186,46290,1,8,1:2:0:0:
230,168,46402,2,0,L|243:68,1,100,0|2,0:0|0:3,0:0:0:0:
248,34,46720,102,0,L|185:22,1,50,2|8,0:0|3:2,0:0:0:0:
82,106,47069,1,0,3:0:0:0:
101,112,47174,1,8,3:2:0:0:
230,168,47394,2,0,L|276:155,2,33.3333333333333,0|0|0,3:0|3:0|3:0,0:0:0:0:
204,171,47624,6,0,L|193:237,1,53.3333333333333,0|0,1:0|3:0,0:0:0:0:
168,384,47972,101,2,1:3:0:0:
191,247,48183,5,2,1:3:0:0:
59,297,48406,102,0,L|71:357,1,40,8|8,3:2|3:2,0:0:0:0:
168,384,48628,1,8,3:2:0:0:
189,374,48739,1,8,3:0:0:0:
213,363,48850,2,0,B|261:346|261:346|306:364,1,100,4|8,1:2|3:0,0:0:0:0:
329,373,49205,1,8,3:0:0:0:
494,152,49422,54,0,L|484:233,1,80,4|2,0:0|0:3,0:0:0:0:
410,70,49883,2,0,L|400:151,1,80,2|2,0:2|0:3,0:0:0:0:
387,244,50332,1,2,0:2:0:0:
292,231,50554,1,2,0:3:0:0:
305,135,50776,1,2,0:2:0:0:
400,149,50998,1,2,0:3:0:0:
292,231,51220,6,0,L|203:220,1,80,2|2,0:2|0:3,0:0:0:0:
217,327,51667,2,0,L|128:316,1,80,2|2,0:2|0:3,0:0:0:0:
128,221,52115,1,2,0:2:0:0:
52,273,52339,1,2,0:3:0:0:
76,145,52563,1,2,0:2:0:0:
0,196,52787,1,2,0:3:0:0:
175,132,53011,102,0,L|183:44,1,80,2|2,0:2|0:3,0:0:0:0:
263,203,53458,2,0,L|271:115,1,80,2|2,0:2|0:3,0:0:0:0:
273,101,53794,1,0,0:0:0:0:
275,82,53906,1,2,0:2:0:0:
361,131,54130,1,2,0:3:0:0:
448,14,54354,1,2,0:2:0:0:
360,43,54572,1,2,0:3:0:0:
512,85,54791,6,0,L|506:171,1,80,2|2,0:2|0:3,0:0:0:0:
419,205,55237,2,0,L|425:291,1,80,2|2,0:2|0:3,0:0:0:0:
485,365,55684,2,0,P|417:384|347:345,1,120,2|0,0:2|0:0,0:0:0:0:
352,346,56131,2,0,P|317:364|279:374,1,80,2|2,0:2|0:3,0:0:0:0:
96,366,56578,101,2,0:2:0:0:
114,279,56801,1,2,0:3:0:0:
200,298,57025,1,2,0:2:0:0:
182,384,57249,1,2,0:3:0:0:
114,279,57473,2,0,L|132:171,1,80,2|2,0:2|0:3,0:0:0:0:
39,124,57921,2,0,L|25:202,1,80,2|2,0:2|0:3,0:0:0:0:
146,79,58382,5,2,0:2:0:0:
231,143,58605,1,2,0:3:0:0:
321,86,58829,1,2,0:2:0:0:
418,135,59053,2,0,P|422:113|430:95,1,40,2|0,0:3|0:0,0:0:0:0:
499,51,59277,102,0,P|461:57|413:53,1,80,2|2,0:2|0:3,0:0:0:0:
305,49,59725,1,2,0:2:0:0:
305,49,59837,1,0,0:0:0:0:
305,49,59949,2,0,P|318:79|326:115,1,40,2|0,0:3|0:0,0:0:0:0:
317,117,60173,6,0,B|240:82|235:147|156:116,1,160,2|2,0:2|0:2,0:0:0:0:
25,15,60841,1,2,0:3:0:0:
60,111,61075,2,0,B|68:156|68:156|43:205,1,80,2|2,0:2|0:3,0:0:0:0:
141,290,61519,2,0,B|133:245|133:245|158:196,1,80,2|2,0:2|0:3,0:0:0:0:
334,311,61963,101,2,0:2:0:0:
249,258,62186,1,2,0:3:0:0:
273,160,62410,1,2,0:2:0:0:
373,154,62634,1,2,0:3:0:0:
410,246,62858,1,2,0:2:0:0:
482,167,63092,1,2,0:3:0:0:
488,186,63209,1,8,0:0:0:0:
494,205,63326,1,2,0:0:0:0:
373,154,63543,1,12,0:0:0:0:
512,0,63760,6,0,P|484:0|452:2,1,58.0000017700196,6|0,0:0|0:0,0:0:0:0:
383,68,63983,2,0,P|352:66|319:61,1,58.0000017700196,8|0,1:2|0:0,0:0:0:0:
204,13,64207,2,0,P|225:72|197:134,1,116.000003540039,2|8,0:0|1:2,0:0:0:0:
89,201,64543,1,0,0:0:0:0:
67,190,64655,70,0,P|51:131|75:71,1,116.000003540039,2|10,0:0|1:2,0:0:0:0:
254,333,65103,2,0,L|189:322,1,58.0000017700196,2|2,0:0|0:0,0:0:0:0:
279,230,65327,2,0,L|344:241,1,58.0000017700196,8|2,1:2|0:0,0:0:0:0:
378,384,65551,6,0,P|365:348|386:280,1,58.0000017700196,2|2,0:0|0:0,0:0:0:0:
458,278,65774,2,0,P|468:250|470:221,1,58.0000017700196,8|0,1:2|0:0,0:0:0:0:
383,123,65998,2,0,L|445:132,1,58.0000017700196,2|0,0:0|0:0,0:0:0:0:
512,53,66215,2,0,L|454:44,1,58.0000017700196,10|0,1:2|0:0,0:0:0:0:
296,0,66432,102,0,B|307:58|307:58|279:106,1,116.000003540039,2|8,0:0|1:2,0:0:0:0:
165,163,66758,1,2,0:0:0:0:
154,178,66867,2,0,L|220:188,1,58.0000017700196,2|0,0:0|0:0,0:0:0:0:
314,198,67096,1,8,1:2:0:0:
52,384,67325,6,0,P|81:365|143:373,1,58.0000017700196,2|0,0:0|0:0,0:0:0:0:
167,273,67545,2,0,P|192:296|201:358,1,58.0000017700196,10|0,1:2|0:0,0:0:0:0:
345,273,67766,2,0,P|320:296|311:358,1,58.0000017700196,2|0,0:0|0:0,0:0:0:0:
460,384,67986,2,0,P|431:365|369:373,1,58.0000017700196,10|0,1:2|0:0,0:0:0:0:
314,198,68207,102,0,P|356:230|438:213,1,116.000003540039,2|8,0:0|1:2,0:0:0:0:
470,132,68538,1,0,0:0:0:0:
453,119,68648,2,0,L|349:140,1,58.0000017700196,2|0,0:0|0:0,0:0:0:0:
472,29,68871,1,8,1:2:0:0:
101,50,69095,6,0,L|124:172,1,116.000003540039,2|8,0:0|1:2,0:0:0:0:
274,190,69433,1,0,0:0:0:0:
289,172,69546,2,0,L|267:58,1,116.000003540039,2|8,0:0|1:2,0:0:0:0:
91,36,69884,1,0,0:0:0:0:
78,58,69997,102,0,L|101:180,1,116.000003540039,2|8,0:0|1:2,0:0:0:0:
298,205,70335,1,0,0:0:0:0:
313,187,70448,2,0,L|291:73,1,116.000003540039,10|10,1:2|1:2,0:0:0:0:
180,339,70786,1,0,0:0:0:0:
192,364,70899,6,0,B|221:374|221:374|265:373,1,59.2592592592593,6|0,0:0|0:0,0:0:0:0:
283,225,71121,2,0,B|254:222|254:222|221:236,1,59.2000014453125,8|0,1:2|0:0,0:0:0:0:
83,361,71343,2,0,B|74:259,1,80,2|8,0:0|1:2,0:0:0:0:
18,136,71676,1,0,0:0:0:0:
9,160,71787,2,0,P|49:160|98:126,1,80,2|8,0:0|1:2,0:0:0:0:
293,8,72232,102,0,L|277:65,1,58.0000017700196,2|0,0:0|0:0,0:0:0:0:
229,172,72454,2,0,L|245:234,1,58.0000017700196,10|0,1:2|0:0,0:0:0:0:
244,345,72676,6,0,B|300:330|300:330|352:355,1,116.000003540039,2|10,0:0|1:2,0:0:0:0:
468,378,73011,1,0,0:0:0:0:
448,384,73123,2,0,L|460:315,1,58.0000017700196,2|2,0:0|0:0,0:0:0:0:
384,250,73347,2,0,L|396:181,1,58.0000017700196,10|2,1:2|0:0,0:0:0:0:
476,68,73571,102,0,B|442:65|416:76|416:76|391:55|364:52,1,116.000003540039,2|8,0:0|1:2,0:0:0:0:
170,193,74019,2,0,B|204:196|230:185|230:185|255:206|278:208,1,116.000003540039,2|10,0:0|1:2,0:0:0:0:
55,253,74488,6,0,P|37:195|57:131,1,116.000003540039,8|2,1:2|0:0,0:0:0:0:
158,81,74828,1,8,1:2:0:0:
178,81,74942,1,2,0:0:0:0:
64,17,75159,1,8,1:2:0:0:
178,81,75376,102,0,L|312:69,1,116.000003540039,2|2,0:0|0:0,0:0:0:0:
415,16,75716,1,0,0:0:0:0:
433,23,75830,2,0,L|441:87,1,60.7999992578125,12|0,0:0|0:0,0:0:0:0:
352,174,76057,1,0,0:0:0:0:
512,227,76285,6,0,B|490:208|452:208|452:208|443:239|409:262,1,120.000004577637,12|2,0:0|0:0,0:0:0:0:
258,284,76620,1,0,0:0:0:0:
258,261,76732,2,0,P|313:267|337:325,1,120,12|2,0:0|0:0,0:0:0:0:
142,306,77058,1,0,0:0:0:0:
138,330,77166,102,0,B|166:384|166:384|221:357,1,120.000004577637,12|2,0:0|0:0,0:0:0:0:
168,178,77512,1,8,0:0:0:0:
178,151,77627,5,12,0:0:0:0:
217,155,77738,1,8,0:0:0:0:
255,160,77850,1,8,0:0:0:0:
293,164,77962,1,8,0:0:0:0:
343,25,78322,69,2,0:3:0:0:
317,29,78766,1,2,0:3:0:0:
291,33,79210,1,2,0:3:0:0:
266,38,79637,1,2,0:3:0:0:
123,0,79801,1,0,0:0:0:0:
36,51,80085,5,2,0:3:0:0:
41,77,80557,1,2,0:3:0:0:
46,103,81004,1,2,0:3:0:0:
289,278,81440,1,2,0:3:0:0:
310,272,81555,1,0,0:0:0:0:
330,262,81682,102,0,P|270:239|216:266,1,100,2|2,0:0|0:3,0:0:0:0:
148,321,82129,2,0,P|121:265|128:214,1,100,8|2,1:2|0:3,0:0:0:0:
313,144,82577,2,0,B|270:173|252:116|180:164,1,100,2|2,0:0|0:3,0:0:0:0:
9,230,83025,1,8,1:2:0:0:
29,243,83137,2,0,P|36:210|31:173,1,50,0|2,0:0|0:3,0:0:0:0:
0,115,83361,6,0,P|-10:57|12:7,1,100
92,0,83696,1,2,0:3:0:0:
215,146,83920,2,0,B|248:158|248:158|338:139,1,100,8|2,1:2|0:3,0:0:0:0:
426,21,84368,2,0,B|394:9|394:9|306:32,1,100,2|2,0:0|0:3,0:0:0:0:
417,216,84816,1,8,1:2:0:0:
447,208,84927,2,0,P|468:153|459:102,1,100,0|2,0:0|0:0,0:0:0:0:
330,25,85260,101,8,1:2:0:0:
292,251,85611,85,2,0:0:0:0:
185,231,85834,1,2,0:0:0:0:
85,198,86051,1,2,0:0:0:0:
80,212,86149,1,2,0:0:0:0:
272,356,86372,5,2,0:0:0:0:
292,251,86596,1,2,0:0:0:0:
311,144,86820,1,2,0:0:0:0:
6,22,87715,102,0,B|-55:73|-22:189|111:226|124:70|218:46|280:152|194:228|147:154,1,408.000007781983,6|0,3:2|0:0,2:0:0:0:
