osu file format v14

[General]
AudioFilename: audio.mp3
AudioLeadIn: 0
PreviewTime: 63306
Countdown: 0
SampleSet: Soft
StackLeniency: 0.7
Mode: 0
LetterboxInBreaks: 0
WidescreenStoryboard: 1

[Editor]
DistanceSpacing: 0.9
BeatDivisor: 4
GridSize: 4
TimelineZoom: 1.1

[Metadata]
Title:Wild Side (TV Size)
TitleUnicode:Wild Side (TV Size)
Artist:ALI
ArtistUnicode:ALI
Creator:Kroytz
Version:Easy
Source:BEASTARS
Tags:-Anime Ver.- ビースターズ BST BAND Version Alien Liberty International Jazz Anime Japanese English French Opening OP Night Mare Luna Yuuya_ke HowRengar Kowari DeviousPanda Kazato Asa Shizuku- BarkingMadDog BMD kimchii42 -Mikan
BeatmapID:2702470
BeatmapSetID:1055990

[Difficulty]
HPDrainRate:2.5
CircleSize:3
OverallDifficulty:3
ApproachRate:5
SliderMultiplier:1.1
SliderTickRate:1

[Events]
//Background and Video events
0,0,"BG.png",0,0
Video,-500,"video.mp4"
//Break Periods
2,3859,9753
2,49622,55601
2,78322,80482
//Storyboard Layer 0 (Background)
//Storyboard Layer 1 (Fail)
//Storyboard Layer 2 (Pass)
//Storyboard Layer 3 (Foreground)
//Storyboard Layer 4 (Overlay)
//Storyboard Sound Samples

[TimingPoints]
195,535.714285714286,4,2,6,50,1,0
563,413.793103448276,4,2,6,50,1,0
563,-100,4,2,6,50,0,0
769,-100,4,2,6,50,0,0
976,-100,4,2,6,50,0,0
1222,419.58041958042,4,2,6,50,1,0
1222,-96.1538461538461,4,2,6,50,0,0
1641,428.571428571429,4,2,6,50,1,0
1855,495.867768595041,4,2,6,50,1,0
1978,431.654676258993,4,2,6,50,1,0
2409,465.116279069767,4,2,6,50,1,0
2641,483.870967741935,4,2,6,80,1,1
2641,-105.263157894737,4,2,6,80,0,1
3124,461.538461538462,4,2,6,80,1,1
3470,379.746835443038,4,2,6,80,1,1
3659,504.201680672269,4,2,3,35,1,0
4037,468.75,4,2,3,35,1,0
4505,413.793103448276,4,2,3,35,1,0
4918,508.474576271186,4,2,3,35,1,0
5299,427.046263345196,4,2,3,35,1,0
5512,434.782608695652,4,2,3,35,1,0
5838,419.58041958042,4,2,1,35,1,0
6257,431.654676258993,4,2,1,35,1,0
6688,487.80487804878,4,2,1,35,1,0
7053,465.116279069767,4,2,1,35,1,0
7285,413.793103448276,4,2,1,35,1,0
7595,434.782608695652,4,2,1,35,1,0
8029,441.176470588235,4,2,1,35,1,0
8470,517.241379310345,4,2,1,35,1,0
8857,454.545454545455,4,2,1,35,1,0
9084,413.793103448276,4,2,1,35,1,0
9394,428.571428571429,4,2,1,35,1,0
9822,437.956204379562,4,2,1,35,1,0
10259,512.820512820513,4,2,1,35,1,0
10643,425.531914893617,4,2,1,35,1,0
10855,392.156862745098,4,2,1,35,1,0
10953,447.761194029851,4,2,1,50,1,0
10953,-100,4,2,1,50,0,0
12296,425.531914893617,4,2,1,50,1,0
12721,447.761194029851,4,2,1,50,1,0
12721,-100,4,2,1,50,0,0
12944,-100,4,2,1,50,0,0
13168,-100,4,2,1,50,0,0
13616,442.80442804428,4,2,1,50,1,0
13616,-100,4,2,1,50,0,0
13837,-100,4,2,1,50,0,0
14501,437.956204379562,4,2,1,50,1,0
14938,447.761194029851,4,2,1,50,1,0
14938,-100,4,2,1,50,0,0
15833,-100,4,2,16,50,0,0
16281,447.761194029851,4,2,1,50,1,0
16281,-100,4,2,1,50,0,0
17176,-100,4,2,1,50,0,0
17624,461.538461538462,4,2,1,50,1,0
18085,447.761194029851,4,2,2,50,1,0
18085,-100,4,2,2,50,0,0
18308,-100,4,2,1,50,0,0
18532,-100,4,2,1,50,0,0
18980,-100,4,2,16,50,0,0
19428,-100,4,2,1,50,0,0
19876,454.545454545455,4,2,1,50,1,0
19876,-99.009900990099,4,2,1,50,0,0
20330,447.761194029851,4,2,15,50,1,0
20330,-100,4,2,15,50,0,0
20777,-100,4,2,1,50,0,0
21673,444.444444444444,4,2,1,50,1,0
22117,-100,4,2,1,50,0,0
23012,447.761194029851,4,2,1,50,1,0
23012,-100,4,2,1,50,0,0
23463,449.438202247191,4,2,1,50,1,0
23912,-100,4,2,1,50,0,0
24811,434.782608695652,4,2,1,50,1,0
24811,-100,4,2,1,50,0,0
25245,461.538461538462,4,2,4,50,1,0
25245,-100,4,2,4,50,0,0
25475,-100,4,2,1,50,0,0
25591,-100,4,2,10,50,0,0
25706,444.444444444444,4,2,6,50,1,0
25706,-100,4,2,6,50,0,0
25928,-100,4,2,1,50,0,0
26150,-100,4,2,4,50,0,0
26372,-100,4,2,1,50,0,0
26594,-100,4,2,6,50,0,0
26817,-100,4,2,1,50,0,0
26928,-100,4,2,10,50,0,0
27039,447.761194029851,4,2,1,50,1,0
27039,-100,4,2,1,50,0,0
27150,-100,4,2,10,50,0,0
27262,-100,4,2,1,50,0,0
27374,-100,4,2,10,50,0,0
27486,-100,4,2,6,50,0,0
27710,-100,4,2,1,50,0,0
27934,-100,4,2,1,50,0,0
28382,-100,4,2,1,50,0,0
28830,-100,4,2,4,50,0,0
29053,-100,4,2,1,50,0,0
29165,-100,4,2,10,50,0,0
29277,-100,4,2,1,50,0,0
29389,-100,4,2,10,50,0,0
29501,-100,4,2,1,50,0,0
29725,434.782608695652,4,2,4,50,1,0
29725,-100,4,2,4,50,0,0
29942,-100,4,2,1,50,0,0
30159,-100,4,2,6,50,0,0
30377,-100,4,2,1,50,0,0
30485,-100,4,2,10,50,0,0
30594,468.75,4,2,1,50,1,0
30594,-100,4,2,1,50,0,0
30711,-100,4,2,10,50,0,0
30828,-100,4,2,1,50,0,0
30945,-100,4,2,10,50,0,0
31062,447.761194029851,4,2,6,50,1,0
31062,-100,4,2,6,50,0,0
31285,-100,4,2,1,50,0,0
31509,-100,4,2,1,50,0,0
31957,454.545454545455,4,2,1,50,1,0
31957,-100,4,2,1,50,0,0
32411,451.127819548872,4,2,4,50,1,0
32411,-100,4,2,4,50,0,0
32636,-100,4,2,1,50,0,0
32749,-100,4,2,10,50,0,0
32862,-100,4,2,1,50,0,0
32974,-100,4,2,10,50,0,0
33087,-100,4,2,1,50,0,0
33313,-100,4,2,4,50,0,0
33538,-100,4,2,1,50,0,0
33764,437.956204379562,4,2,6,50,1,0
33764,-100,4,2,6,50,0,0
33982,-100,4,2,1,50,0,0
34092,-100,4,2,10,50,0,0
34201,451.127819548872,4,2,1,50,1,0
34201,-100,4,2,1,50,0,0
34313,-100,4,2,10,50,0,0
34426,-100,4,2,1,50,0,0
34539,-100,4,2,10,50,0,0
34652,-100,4,2,6,50,0,0
34877,-100,4,2,1,50,0,0
35103,-100,4,2,1,50,0,0
35998,447.761194029851,4,2,4,50,1,0
35998,-100,4,2,4,50,0,0
36109,-100,4,2,10,50,0,0
36445,-100,4,2,10,50,0,0
36669,-100,4,2,10,50,0,0
36893,-100,4,2,4,50,0,0
37005,-100,4,2,10,50,0,0
37341,-100,4,2,1,50,0,0
37789,-98.85,4,2,4,50,0,0
38012,-100,4,2,1,50,0,0
38236,-100,4,2,15,50,0,0
38460,-100,4,2,1,50,0,0
38684,437.956204379562,4,2,16,50,1,0
38684,-100,4,2,16,50,0,0
38902,-100,4,2,1,50,0,0
39121,-100,4,2,15,50,0,0
39340,-100,4,2,6,50,0,0
39559,454.545454545455,4,2,1,50,1,0
39559,-100,4,2,1,50,0,0
40922,-100,4,2,1,50,0,0
41377,444.444444444444,4,2,1,50,1,0
41377,-100,4,2,1,50,0,0
42265,447.761194029851,4,2,1,50,1,0
42265,-100,4,2,1,50,0,0
43160,451.127819548872,4,2,1,50,1,0
43160,-100,4,2,1,50,0,0
44513,434.782608695652,4,2,1,50,1,0
44513,-100,4,2,1,50,0,0
44947,447.761194029851,4,2,1,50,1,0
44947,-100,4,2,1,50,0,0
45842,-100,4,2,1,50,0,0
46290,-100,4,2,1,50,0,0
46514,413.793103448276,4,2,1,50,1,0
46720,476.190476190476,4,2,1,50,1,0
46720,-100,4,2,1,50,0,0
46839,461.538461538462,4,2,1,50,1,0
47069,421.052631578947,4,2,1,50,1,0
47174,441.176470588235,4,2,1,50,1,0
47394,461.538461538462,4,2,1,50,1,0
47624,-97.4,4,2,1,50,0,0
47740,387.096774193548,4,2,1,50,1,0
47836,545.454545454546,4,2,1,50,1,0
47972,422.535211267606,4,2,3,50,1,0
47972,-100,4,2,3,50,0,0
48183,447.761194029851,4,2,3,50,1,0
48406,444.444444444444,4,2,1,50,1,0
48406,-100,4,2,1,50,0,0
48850,500,4,2,1,50,1,0
49100,422.535211267606,4,2,1,50,1,0
49100,-100,4,2,1,50,0,0
49205,434.782608695652,4,2,1,50,1,0
49422,461.538461538462,4,2,2,50,1,0
49652,-100,4,2,3,50,0,0
50114,437.956204379562,4,2,3,50,1,0
50332,444.444444444444,4,2,3,50,1,0
51220,447.761194029851,4,2,3,50,1,0
54354,437.956204379562,4,2,3,50,1,0
54791,446.927374301676,4,2,3,50,1,0
56578,447.761194029851,4,2,3,50,1,0
56801,-100,4,2,3,50,0,0
57473,-100,4,2,3,50,0,0
57921,461.538461538462,4,2,3,50,1,0
58382,447.761194029851,4,2,3,50,1,0
58382,-100,4,2,3,50,0,0
59277,-100,4,2,3,50,0,0
59725,-100,4,2,17,50,0,0
60173,434.782608695652,4,2,3,50,1,0
60173,-100,4,2,3,50,0,0
60607,468.75,4,2,3,50,1,0
61075,444.444444444444,4,2,3,60,1,0
61075,-100,4,2,3,60,0,0
61963,447.761194029851,4,2,3,60,1,0
61963,-100,4,2,3,60,0,0
62858,468.75,4,2,3,60,1,0
63209,-100,4,2,1,60,0,0
63326,434.782608695652,4,2,1,70,1,0
63326,-100,4,2,1,70,0,0
63543,-100,4,2,5,70,0,0
63760,447.761194029851,4,2,4,80,1,1
63760,-100,4,2,4,80,0,1
63983,-100,4,2,1,80,0,1
64207,-100,4,2,4,80,0,1
64319,-100,4,2,1,80,0,1
64431,-100,4,2,1,80,0,1
64655,-100,4,2,4,80,0,1
64879,-100,4,2,6,80,0,1
64991,-100,4,2,10,80,0,1
65103,-100,4,2,4,80,0,1
65215,-100,4,2,6,80,0,1
65327,-100,4,2,6,80,0,1
65551,-100,4,2,4,80,0,1
65662,-100,4,2,6,80,0,1
65774,-100,4,2,1,80,0,1
65998,434.782608695652,4,2,4,80,1,1
65998,-100,4,2,4,80,0,1
66215,-100,4,2,6,80,0,1
66432,-100,4,2,4,80,0,1
66650,-100,4,2,1,80,0,1
66758,-100,4,2,6,80,0,1
66867,458.015267175573,4,2,4,80,1,1
66867,-100,4,2,4,80,0,1
66981,-100,4,2,1,80,0,1
67096,-100,4,2,1,80,0,1
67325,441.176470588235,4,2,4,80,1,1
67325,-100,4,2,4,80,0,1
67545,-100,4,2,6,80,0,1
67655,-100,4,2,1,80,0,1
67766,-100,4,2,4,80,0,1
67876,-100,4,2,1,80,0,1
67986,-100,4,2,6,80,0,1
68097,-100,4,2,1,80,0,1
68207,-100,4,2,4,80,0,1
68427,-100,4,2,6,80,0,1
68648,447.761194029851,4,2,4,80,1,1
68648,-100,4,2,4,80,0,1
68759,-100,4,2,10,80,0,1
68871,-100,4,2,1,80,0,1
69095,451.127819548872,4,2,4,80,1,1
69095,-100,4,2,4,80,0,1
69207,-100,4,2,1,80,0,1
69320,-100,4,2,1,80,0,1
69546,-100,4,2,4,80,0,1
69658,-100,4,2,1,80,0,1
69771,-100,4,2,1,80,0,1
69997,-100,4,2,4,80,0,1
70110,-100,4,2,1,80,0,1
70222,-100,4,2,1,80,0,1
70448,-100,4,2,6,80,0,1
70786,-100,4,2,6,80,0,0
70899,444.444444444444,4,2,4,80,1,1
70899,-100,4,2,4,80,0,1
71121,-100,4,2,1,80,0,1
71343,-100,4,2,4,80,0,1
71565,-100,4,2,1,80,0,1
71787,-100,4,2,4,80,0,1
71899,-100,4,2,1,80,0,1
72232,-100,4,2,4,80,0,1
72343,-100,4,2,1,80,0,1
72454,-100,4,2,6,80,0,1
72676,447.761194029851,4,2,4,80,1,1
72676,-100,4,2,4,80,0,1
72787,-100,4,2,1,80,0,1
72899,-100,4,2,6,80,0,1
73123,-100,4,2,4,80,0,1
73235,-100,4,2,6,80,0,1
73347,-100,4,2,6,80,0,1
73571,-100,4,2,4,80,0,1
73795,-100,4,2,1,80,0,1
74019,-100,4,2,4,80,0,1
74131,-100,4,2,6,80,0,1
74243,491.803278688525,4,2,6,80,1,1
74488,454.545454545455,4,2,5,80,1,1
74488,-98.5,4,2,5,80,0,1
74715,-100,4,2,1,80,0,1
74942,434.782608695652,4,2,16,80,1,1
74942,-100,4,2,16,80,0,1
75159,-100,4,2,16,80,0,1
75376,454.545454545455,4,2,16,80,1,1
75603,-100,4,2,16,80,0,1
75830,-100,4,2,5,80,0,1
76285,447.761194029851,4,2,1,80,1,1
76508,-100,4,2,1,80,0,1
76732,434.782608695652,4,2,1,80,1,1
76949,-100,4,2,1,80,0,1
77166,461.538461538462,4,2,1,80,1,1
77166,-100,4,2,1,80,0,1
77627,447.761194029851,4,2,1,80,1,1
77962,480,4,2,1,80,1,0
78322,444.444444444444,4,2,1,35,1,0
79210,491.803278688525,4,2,1,35,1,0
79578,447.761194029851,4,2,1,35,1,0
79637,461.538461538462,4,2,1,35,1,0
79801,454.545454545455,4,2,1,35,1,0
80088,-100,4,2,1,35,0,0
80141,416.666666666667,4,2,1,35,1,0
80557,447.761194029851,4,2,1,35,1,0
81004,491.803278688525,4,2,1,35,1,0
81372,461.538461538462,4,2,1,35,1,0
81440,461.538461538462,4,2,1,35,1,0
81602,322.58064516129,4,2,1,35,1,0
81682,447.761194029851,4,2,1,50,1,0
81682,-100,4,2,1,50,0,0
82129,-100,4,2,1,50,0,0
83473,-100,4,2,1,50,0,0
84816,444.444444444444,4,2,1,50,1,0
84816,-100,4,2,1,50,0,0
85260,468.75,4,2,1,50,1,0
85611,447.761194029851,4,2,6,60,1,0
85834,434.782608695652,4,2,6,60,1,0
86051,394.736842105263,4,2,6,60,1,0
86149,447.761194029851,4,2,6,60,1,0
86820,434.782608695652,4,2,6,60,1,0
87037,495.867768595041,4,2,6,60,1,0
87037,-101,4,2,6,60,0,0
87284,447.761194029851,4,2,6,60,1,0
87451,-100,4,2,1,60,0,0
87715,447.761194029851,4,2,1,80,1,0
87715,-100,4,2,1,80,0,0
88386,-100,4,2,1,20,0,0

[Colours]
Combo1 : 108,0,54
Combo2 : 0,64,128
Combo3 : 0,128,192
Combo4 : 255,255,70
Combo5 : 0,210,0
Combo6 : 192,192,192
Combo7 : 139,139,139
Combo8 : 155,0,0

[HitObjects]
44,325,195,101,2,0:0:0:0:
18,231,563,2,0,L|2:173,2,55,2|2|2,0:0|0:0|0:0,0:0:0:0:
112,254,1222,2,0,B|170:221|170:221|304:257,1,206.25,2|0,0:0|3:2,0:0:0:0:
408,338,2641,2,0,B|429:256|429:256|401:207|401:207|422:131,1,220,4|0,1:2|1:3,0:0:0:0:
512,84,10953,22,0,B|475:63|475:63|409:80,1,110,2|2,0:0|0:0,0:0:0:0:
359,164,11848,2,0,B|292:181|292:181|255:160,1,110,2|2,0:0|0:0,0:0:0:0:
176,114,12721,1,2,0:0:0:0:
95,160,13168,1,2,0:0:0:0:
14,113,13616,2,0,L|-17:233,1,110,2|2,0:0|0:0,0:0:0:0:
76,261,14501,2,0,L|108:381,1,110,2|2,0:0|0:0,0:0:0:0:
200,341,15385,2,0,B|348:301|348:301|406:334,1,220,2|2,0:0|0:0,0:0:0:0:
492,384,16728,1,2,0:0:0:0:
492,284,17176,1,2,0:0:0:0:
405,233,17624,2,0,P|390:181|407:130,1,110,4|4,0:0|0:0,0:0:0:0:
473,56,18532,6,0,P|373:96|274:54,1,220,8|8,1:2|1:2,0:0:0:0:
198,116,19876,2,0,P|99:74|0:114,1,220,2|2,0:0|0:0,0:0:0:0:
68,181,21225,1,8,1:2:0:0:
0,253,21673,1,2,0:0:0:0:
68,324,22117,2,0,B|105:303|105:303|171:320,1,110,8|2,1:2|0:0,0:0:0:0:
255,370,23012,2,0,P|270:318|254:266,1,110,8|2,1:2|0:0,0:0:0:0:
168,217,23912,1,8,1:2:0:0:
253,168,24361,1,2,0:0:0:0:
339,217,24811,2,0,L|392:231,1,55,8|2,3:2|3:0,0:0:0:0:
420,194,25245,102,0,L|526:165,1,110,6|8,0:0|1:2,0:0:0:0:
466,87,26150,2,0,L|360:116,1,110,2|10,0:0|1:2,0:0:0:0:
265,141,27039,1,2,0:0:0:0:
197,212,27486,2,0,P|169:165|169:110,2,110,10|2|8,1:2|0:0|1:2,0:0:0:0:
222,314,28830,6,0,P|270:287|297:240,1,110,2|8,0:0|1:2,0:0:0:0:
197,212,29725,2,0,P|150:184|95:184,1,110,2|10,0:0|1:2,0:0:0:0:
0,211,30594,1,2,0:0:0:0:
26,110,31062,2,0,L|53:4,2,110,10|2|8,1:2|0:0|1:2,0:0:0:0:
0,211,32411,102,0,B|37:232|37:232|103:215,1,110,2|8,0:0|1:2,0:0:0:0:
153,131,33313,2,0,B|220:114|220:114|257:135,1,110,2|10,0:0|1:2,0:0:0:0:
338,182,34201,1,2,0:0:0:0:
427,137,34652,2,0,L|398:30,2,110,10|2|8,1:2|0:0|1:2,0:0:0:0:
497,203,35998,6,0,P|449:229|395:227,1,110,2|0,0:0|0:0,0:0:0:0:
345,228,36669,2,0,P|290:226|243:252,1,110,2|0,0:3|0:0,0:0:0:0:
211,290,37341,1,8,1:2:0:0:
116,318,37789,2,0,B|7:346|7:346|118:155|118:155|15:182,1,440,2|6,0:0|0:0,0:0:0:0:
15,88,40013,101,8,1:2:0:0:
100,39,40468,1,2,0:0:0:0:
186,88,40922,2,0,L|239:102,1,55,8|2,1:2|0:3,0:0:0:0:
267,65,41377,2,0,L|373:36,1,110,2|8,0:0|1:2,0:0:0:0:
467,8,42265,1,2,0:0:0:0:
445,103,42712,2,0,L|431:156,1,55,8|2,1:2|0:3,0:0:0:0:
468,184,43160,6,0,L|497:290,1,110,2|8,0:0|1:2,0:0:0:0:
412,339,44062,1,2,0:0:0:0:
326,290,44513,2,0,L|273:276,1,55,8|2,1:2|0:3,0:0:0:0:
245,313,44947,2,0,L|139:342,1,110,2|8,0:0|1:2,0:0:0:0:
45,370,45842,1,2,0:0:0:0:
67,275,46290,2,0,L|81:221,1,55,8|2,1:2|0:3,0:0:0:0:
94,181,46720,1,2,0:0:0:0:
254,57,47624,102,0,B|269:101|248:135|248:135|286:170|286:170|205:251|268:360|268:360|302:301|272:266,1,440,0|4,1:0|0:0,0:0:0:0:
65,86,56801,54,0,L|50:32,2,55,2|2|2,0:3|0:2|0:3,0:0:0:0:
79,133,57473,2,0,B|116:112|116:112|182:129,1,110,2|2,0:2|0:2,0:0:0:0:
277,155,58382,1,2,0:2:0:0:
372,180,58829,1,2,0:2:0:0:
445,106,59277,2,0,P|471:207|396:280,1,220,2|2,0:2|0:2,0:0:0:0:
256,192,61075,12,0,62858,0:0:0:0:
117,384,63760,6,0,L|88:277,1,110,6|2,0:0|0:0,0:0:0:0:
18,210,64655,2,0,P|66:184|120:186,1,110,2|2,0:0|0:0,0:0:0:0:
182,258,65551,2,0,P|236:259|284:234,1,110,2|2,0:0|0:0,0:0:0:0:
214,166,66432,2,0,L|184:60,1,110,2|2,0:0|0:0,0:0:0:0:
285,76,67325,69,2,0:0:0:0:
361,12,67766,1,2,0:0:0:0:
460,27,68207,2,0,L|489:133,1,110,2|2,0:0|0:0,0:0:0:0:
420,198,69095,2,0,L|390:304,2,110,2|2|2,0:0|0:0|0:0,0:0:0:0:
390,107,70448,2,0,L|337:93,1,55,10|10,1:2|1:2,0:0:0:0:
309,130,70899,6,0,L|203:159,1,110,6|2,0:0|0:0,0:0:0:0:
111,126,71787,2,0,P|109:181|135:229,1,110,2|2,0:0|0:0,0:0:0:0:
229,252,72676,2,0,L|335:223,2,110,2|2|2,0:0|0:0|0:0,0:0:0:0:
161,321,74019,1,2,0:0:0:0:
66,282,74488,102,0,B|86:204|86:204|39:122|39:122|60:44|60:44|101:111,1,330,8|12,1:2|0:0,0:0:0:0:
187,144,76285,2,0,B|222:164|222:164|289:147,1,110,12|12,0:0|0:0,0:0:0:0:
344,72,77166,2,0,B|307:51|307:51|241:68,1,110,12|12,0:0|0:0,0:0:0:0:
0,64,81682,86,0,B|37:43|37:43|103:60,1,110,2|8,0:0|1:2,0:0:0:0:
153,144,82577,2,0,B|220:161|220:161|257:140,1,110,2|8,0:0|1:2,0:0:0:0:
341,90,83473,1,2,0:0:0:0:
426,137,83920,1,8,1:2:0:0:
342,187,84368,2,0,L|311:307,1,110,2|8,0:0|1:2,0:0:0:0:
291,384,85260,1,8,1:2:0:0:
56,44,87037,86,0,L|81:143,1,103.125,8|0,3:2|3:0,0:0:0:0:
44,172,87715,2,0,B|13:284|13:284|56:259,1,165,6|0,3:2|0:0,2:0:0:0:
