osu file format v14

[General]
AudioFilename: audio.mp3
AudioLeadIn: 0
PreviewTime: 63306
Countdown: 0
SampleSet: Soft
StackLeniency: 0.2
Mode: 0
LetterboxInBreaks: 0
WidescreenStoryboard: 0

[Editor]
Bookmarks: 88383
DistanceSpacing: 1.1
BeatDivisor: 8
GridSize: 32
TimelineZoom: 1.5

[Metadata]
Title:Wild Side (TV Size)
TitleUnicode:Wild Side (TV Size)
Artist:ALI
ArtistUnicode:ALI
Creator:Kroytz
Version:DeviousPanda's Extra
Source:BEASTARS
Tags:-Anime Ver.- ビースターズ BST BAND Version Alien Liberty International Jazz Anime Japanese English French Opening OP Night Mare Luna Yuuya_ke HowRengar Kowari DeviousPanda Kazato Asa Shizuku- BarkingMadDog BMD kimchii42 -Mikan
BeatmapID:2239422
BeatmapSetID:1055990

[Difficulty]
HPDrainRate:4.5
CircleSize:3.7
OverallDifficulty:8.3
ApproachRate:9.2
SliderMultiplier:1.9
SliderTickRate:1

[Events]
//Background and Video events
Video,-500,"video.mp4"
0,0,"BG.png",0,0
//Break Periods
//Storyboard Layer 0 (Background)
//Storyboard Layer 1 (Fail)
//Storyboard Layer 2 (Pass)
//Storyboard Layer 3 (Foreground)
//Storyboard Layer 4 (Overlay)
//Storyboard Sound Samples

[TimingPoints]
195,535.714285714286,4,2,6,50,1,0
563,413.793103448276,4,2,6,50,1,0
1222,419.58041958042,4,2,6,50,1,0
1641,428.571428571429,4,2,6,50,1,0
1855,495.867768595041,4,2,6,50,1,0
1978,431.654676258993,4,2,6,50,1,0
2409,465.116279069767,4,2,6,50,1,0
2641,483.870967741935,4,2,6,80,1,1
2641,-95.5,4,2,6,80,0,1
3124,461.538461538462,4,2,6,80,1,1
3470,379.746835443038,4,2,6,80,1,1
3564,-100,4,2,6,50,0,1
3659,504.201680672269,4,2,3,35,1,0
3659,-50,4,2,3,35,0,0
3785,-50,4,2,3,20,0,0
4037,468.75,4,2,3,35,1,0
4505,413.793103448276,4,2,3,35,1,0
4918,508.474576271186,4,2,3,35,1,0
5299,427.046263345196,4,2,3,35,1,0
5512,434.782608695652,4,2,3,35,1,0
5838,419.58041958042,4,2,1,35,1,0
6257,431.654676258993,4,2,1,35,1,0
6688,487.80487804878,4,2,1,35,1,0
7053,465.116279069767,4,2,1,35,1,0
7285,413.793103448276,4,2,1,35,1,0
7285,-117.647058823529,4,2,1,35,0,0
7543,-117.647058823529,4,2,20,5,0,0
7595,434.782608695652,4,2,1,35,1,0
8029,441.176470588235,4,2,1,35,1,0
8470,517.241379310345,4,2,1,35,1,0
8857,454.545454545455,4,2,1,35,1,0
9084,413.793103448276,4,2,1,35,1,0
9084,-117.647058823529,4,2,1,35,0,0
9342,-117.647058823529,4,2,20,5,0,0
9394,428.571428571429,4,2,1,35,1,0
9822,437.956204379562,4,2,1,35,1,0
10259,512.820512820513,4,2,1,35,1,0
10643,425.531914893617,4,2,1,35,1,0
10855,392.156862745098,4,2,1,35,1,0
10953,447.761194029851,4,2,1,50,1,0
10953,-80,4,2,1,50,0,0
11400,-57.1428571428571,4,2,1,50,0,0
11848,-50,4,2,1,50,0,0
12296,425.531914893617,4,2,1,50,1,0
12296,-57.1428571428571,4,2,1,50,0,0
12508,-66.6666666666667,4,2,1,50,0,0
12721,447.761194029851,4,2,1,50,1,0
12721,-80,4,2,1,50,0,0
13168,-57.1428571428571,4,2,1,50,0,0
13616,442.80442804428,4,2,1,50,1,0
13616,-50,4,2,1,50,0,0
14058,-57.1428571428571,4,2,1,50,0,0
14280,-66.6666666666667,4,2,1,50,0,0
14501,437.956204379562,4,2,1,50,1,0
14501,-80,4,2,1,50,0,0
14938,447.761194029851,4,2,1,50,1,0
14938,-57.1428571428571,4,2,1,50,0,0
15385,-50,4,2,1,50,0,0
15833,-57.1428571428571,4,2,1,50,0,0
16057,-66.6666666666667,4,2,1,50,0,0
16281,447.761194029851,4,2,1,50,1,0
16281,-66.6666666666667,4,2,1,50,0,0
16728,-57.1428571428571,4,2,1,50,0,0
17176,-50,4,2,1,50,0,0
17624,461.538461538462,4,2,1,50,1,0
17624,-57.1428571428571,4,2,1,50,0,0
18085,447.761194029851,4,2,2,50,1,0
18085,-57.1428571428571,4,2,2,50,0,0
18308,-57.1428571428571,4,2,1,50,0,0
18532,-66.6666666666667,4,2,1,50,0,0
18980,-57.1428571428571,4,2,1,50,0,0
19876,454.545454545455,4,2,1,50,1,0
19876,-57.1428571428571,4,2,1,50,0,0
20330,447.761194029851,4,2,1,50,1,0
20330,-57.1428571428571,4,2,1,50,0,0
20777,-50,4,2,1,50,0,0
21673,444.444444444444,4,2,1,50,1,0
21673,-66.6666666666667,4,2,1,50,0,0
22117,-57.1428571428571,4,2,1,50,0,0
23012,447.761194029851,4,2,1,50,1,0
23012,-50,4,2,1,50,0,0
23463,449.438202247191,4,2,1,50,1,0
23463,-66.6666666666667,4,2,1,50,0,0
24811,434.782608695652,4,2,1,50,1,0
24811,-50,4,2,1,50,0,0
25245,461.538461538462,4,2,4,50,1,0
25245,-57.1428571428571,4,2,4,50,0,0
25475,-57.1428571428571,4,2,1,50,0,0
25591,-57.1428571428571,4,2,10,50,0,0
25706,444.444444444444,4,2,6,50,1,0
25706,-57.1428571428571,4,2,6,50,0,0
25928,-57.1428571428571,4,2,1,50,0,0
26150,-57.1428571428571,4,2,4,50,0,0
26372,-57.1428571428571,4,2,1,50,0,0
26594,-57.1428571428571,4,2,6,50,0,0
26817,-57.1428571428571,4,2,1,50,0,0
26928,-57.1428571428571,4,2,10,50,0,0
27039,447.761194029851,4,2,1,50,1,0
27039,-57.1428571428571,4,2,1,50,0,0
27150,-57.1428571428571,4,2,10,50,0,0
27262,-57.1428571428571,4,2,1,50,0,0
27374,-57.1428571428571,4,2,10,50,0,0
27486,-57.1428571428571,4,2,6,50,0,0
27822,-57.1428571428571,4,2,1,50,0,0
28382,-57.1428571428571,4,2,1,50,0,0
28830,-57.1428571428571,4,2,4,50,0,0
29053,-57.1428571428571,4,2,1,50,0,0
29165,-57.1428571428571,4,2,10,50,0,0
29277,-57.1428571428571,4,2,1,50,0,0
29389,-57.1428571428571,4,2,10,50,0,0
29501,-57.1428571428571,4,2,1,50,0,0
29725,434.782608695652,4,2,4,50,1,0
29725,-57.1428571428571,4,2,4,50,0,0
29942,-57.1428571428571,4,2,1,50,0,0
30159,-57.1428571428571,4,2,6,50,0,0
30377,-57.1428571428571,4,2,1,50,0,0
30485,-57.1428571428571,4,2,10,50,0,0
30594,468.75,4,2,1,50,1,0
30594,-57.1428571428571,4,2,1,50,0,0
30711,-57.1428571428571,4,2,10,50,0,0
30828,-57.1428571428571,4,2,1,50,0,0
30945,-57.1428571428571,4,2,10,50,0,0
31062,447.761194029851,4,2,6,50,1,0
31062,-57.1428571428571,4,2,6,50,0,0
31285,-57.1428571428571,4,2,1,50,0,0
31957,454.545454545455,4,2,1,50,1,0
31957,-57.1428571428571,4,2,1,50,0,0
32411,451.127819548872,4,2,4,50,1,0
32411,-50,4,2,4,50,0,0
32636,-50,4,2,1,50,0,0
32749,-50,4,2,10,50,0,0
32862,-50,4,2,1,50,0,0
32974,-50,4,2,10,50,0,0
33087,-50,4,2,1,50,0,0
33313,-50,4,2,4,50,0,0
33538,-50,4,2,1,50,0,0
33764,437.956204379562,4,2,6,50,1,0
33764,-50,4,2,6,50,0,0
33982,-50,4,2,1,50,0,0
34092,-50,4,2,10,50,0,0
34201,451.127819548872,4,2,1,50,1,0
34201,-50,4,2,1,50,0,0
34313,-50,4,2,10,50,0,0
34426,-50,4,2,1,50,0,0
34539,-50,4,2,10,50,0,0
34652,-50,4,2,6,50,0,0
34877,-50,4,2,1,50,0,0
35554,-50,4,2,1,50,0,0
35998,447.761194029851,4,2,4,50,1,0
35998,-50,4,2,4,50,0,0
36109,-50,4,2,10,50,0,0
36221,-50,4,2,10,50,0,0
36333,-50,4,2,10,50,0,0
36445,-50,4,2,6,50,0,0
36669,-50,4,2,10,50,0,0
36781,-50,4,2,10,50,0,0
36893,-50,4,2,4,50,0,0
37005,-50,4,2,10,50,0,0
37117,-50,4,2,10,50,0,0
37229,-50,4,2,1,50,0,0
37341,-50,4,2,1,50,0,0
37789,-50,4,2,4,50,0,0
38012,-50,4,2,1,50,0,0
38236,-57.1428571428571,4,2,6,50,0,0
38460,-57.1428571428571,4,2,1,50,0,0
38684,437.956204379562,4,2,4,50,1,0
38684,-66.6666666666667,4,2,4,50,0,0
38902,-66.6666666666667,4,2,1,50,0,0
39121,-80,4,2,6,50,0,0
39340,-80,4,2,6,50,0,0
39559,454.545454545455,4,2,1,50,1,0
39559,-57.1428571428571,4,2,1,50,0,0
40922,-57.1428571428571,4,2,1,50,0,0
41377,444.444444444444,4,2,1,50,1,0
41377,-57.1428571428571,4,2,1,50,0,0
42265,447.761194029851,4,2,1,50,1,0
42265,-57.1428571428571,4,2,1,50,0,0
42712,-57.1428571428571,4,2,1,50,0,0
43160,451.127819548872,4,2,1,50,1,0
43160,-57.1428571428571,4,2,1,50,0,0
44513,434.782608695652,4,2,1,50,1,0
44621,-57.1428571428571,4,2,1,50,0,0
44947,447.761194029851,4,2,1,50,1,0
44947,-57.1428571428571,4,2,1,50,0,0
45394,-57.1428571428571,4,2,1,50,0,0
45840,-57.1428571428571,4,2,1,50,0,0
46290,-55.5,4,2,1,50,0,0
46514,413.793103448276,4,2,1,50,1,0
46720,476.190476190476,4,2,1,50,1,0
46839,461.538461538462,4,2,1,50,1,0
46839,-57.1428571428571,4,2,1,50,0,0
47069,421.052631578947,4,2,1,50,1,0
47174,441.176470588235,4,2,1,50,1,0
47394,461.538461538462,4,2,1,50,1,0
47740,387.096774193548,4,2,3,50,1,0
47740,-42.5531914893617,4,2,3,50,0,0
47836,545.454545454546,4,2,3,50,1,0
47972,422.535211267606,4,2,3,50,1,0
47972,-57.1428571428571,4,2,3,50,0,0
48183,447.761194029851,4,2,3,50,1,0
48183,-57.1428571428571,4,2,3,50,0,0
48350,-57.1428571428571,4,2,3,5,0,0
48406,444.444444444444,4,2,1,50,1,0
48408,-57.1428571428571,4,2,1,50,0,0
48850,500,4,2,1,50,1,0
48850,-80,4,2,1,50,0,0
49100,422.535211267606,4,2,1,50,1,0
49205,434.782608695652,4,2,1,50,1,0
49422,461.538461538462,4,2,2,50,1,0
49422,-133.333333333333,4,2,2,50,0,0
49652,-133.333333333333,4,2,3,50,0,0
50114,437.956204379562,4,2,3,50,1,0
50332,444.444444444444,4,2,3,50,1,0
50332,-133.333333333333,4,2,3,50,0,0
51220,447.761194029851,4,2,3,50,1,0
51891,-100,4,2,3,50,0,0
54354,437.956204379562,4,2,3,50,1,0
54682,-100,4,2,20,5,0,0
54791,446.927374301676,4,2,3,50,1,0
56467,-100,4,2,20,5,0,0
56578,447.761194029851,4,2,3,50,1,0
57921,461.538461538462,4,2,3,50,1,0
58382,447.761194029851,4,2,3,50,1,0
60173,434.782608695652,4,2,3,50,1,0
60607,468.75,4,2,3,50,1,0
61075,444.444444444444,4,2,3,60,1,0
61963,447.761194029851,4,2,3,60,1,0
62858,468.75,4,2,3,60,1,0
63209,-100,4,2,1,60,0,0
63326,434.782608695652,4,2,1,70,1,0
63543,-40,4,2,5,70,0,0
63706,-40,4,2,20,5,0,0
63760,447.761194029851,4,2,4,80,1,1
63760,-50,4,2,4,80,0,1
63871,-50,4,2,1,80,0,1
63983,-50,4,2,1,80,0,1
64207,-50,4,2,4,80,0,1
64431,-50,4,2,1,80,0,1
64655,-50,4,2,4,80,0,1
64879,-50,4,2,6,80,0,1
64991,-50,4,2,10,80,0,1
65103,-50,4,2,1,80,0,1
65215,-50,4,2,6,80,0,1
65551,-50,4,2,1,80,0,1
65662,-50,4,2,6,80,0,1
65774,-50,4,2,1,80,0,1
65998,434.782608695652,4,2,4,80,1,1
65998,-50,4,2,4,80,0,1
66215,-50,4,2,6,80,0,1
66324,-50,4,2,6,80,0,1
66432,-50,4,2,4,80,0,1
66541,-50,4,2,1,80,0,1
66758,-50,4,2,6,80,0,1
66867,458.015267175573,4,2,4,80,1,1
66867,-50,4,2,4,80,0,1
67096,-50,4,2,1,80,0,1
67325,441.176470588235,4,2,4,80,1,1
67325,-50,4,2,4,80,0,1
67435,-50,4,2,1,80,0,1
67545,-50,4,2,6,80,0,1
67766,-50,4,2,4,80,0,1
67876,-50,4,2,1,80,0,1
67986,-50,4,2,6,80,0,1
68097,-50,4,2,1,80,0,1
68207,-50,4,2,4,80,0,1
68317,-50,4,2,1,80,0,1
68427,-50,4,2,6,80,0,1
68648,447.761194029851,4,2,4,80,1,1
68648,-50,4,2,4,80,0,1
68759,-50,4,2,10,80,0,1
68871,-50,4,2,1,80,0,1
69095,451.127819548872,4,2,4,80,1,1
69095,-40,4,2,4,80,0,1
69264,-40,4,2,20,5,0,1
69320,-80,4,2,1,80,0,1
69546,-35.7142857142857,4,2,4,80,0,1
69715,-35.7142857142857,4,2,20,5,0,1
69771,-71.4285714285714,4,2,1,80,0,1
69997,-33.3333333333333,4,2,4,80,0,1
70166,-33.3333333333333,4,2,20,5,0,1
70222,-66.6666666666667,4,2,1,80,0,1
70448,-40,4,2,6,80,0,1
70786,-40,4,2,6,80,0,0
70899,444.444444444444,4,2,4,80,1,1
70899,-40,4,2,4,80,0,1
71010,-40,4,2,1,80,0,1
71121,-40,4,2,1,80,0,1
71343,-40,4,2,4,80,0,1
71454,-40,4,2,1,80,0,1
71565,-40,4,2,1,80,0,1
71787,-40,4,2,4,80,0,1
72010,-40,4,2,1,80,0,1
72232,-40,4,2,4,80,0,1
72343,-40,4,2,1,80,0,1
72454,-40,4,2,6,80,0,1
72676,447.761194029851,4,2,4,80,1,1
72676,-40,4,2,4,80,0,1
72787,-40,4,2,1,80,0,1
72899,-40,4,2,6,80,0,1
73123,-40,4,2,4,80,0,1
73235,-40,4,2,6,80,0,1
73795,-40,4,2,1,80,0,1
74019,-40.0416016640665,4,2,4,80,0,1
74243,491.803278688525,4,2,6,80,1,1
74488,454.545454545455,4,2,5,80,1,1
74488,-50,4,2,5,80,0,1
74715,-50,4,2,1,80,0,1
74942,434.782608695652,4,2,1,80,1,1
74942,-50,4,2,1,80,0,1
75376,454.545454545455,4,2,1,80,1,1
75830,-33.3333333333333,4,2,5,80,0,1
76171,-33.3333333333333,4,2,20,5,0,1
76285,447.761194029851,4,2,1,80,1,1
76285,-33.3333333333333,4,2,1,80,0,1
76732,434.782608695652,4,2,1,80,1,1
76732,-40,4,2,1,80,0,1
77166,461.538461538462,4,2,1,80,1,1
77166,-50,4,2,1,80,0,1
77627,447.761194029851,4,2,1,80,1,1
77627,-66.6666666666667,4,2,1,80,0,1
77962,480,4,2,1,80,1,0
77962,-66.6666666666667,4,2,1,80,0,0
78322,444.444444444444,4,2,1,35,1,0
79210,491.803278688525,4,2,1,35,1,0
79578,447.761194029851,4,2,1,35,1,0
79637,461.538461538462,4,2,1,35,1,0
79801,454.545454545455,4,2,1,35,1,0
80141,416.666666666667,4,2,1,35,1,0
80557,447.761194029851,4,2,1,35,1,0
81004,491.803278688525,4,2,1,35,1,0
81372,461.538461538462,4,2,1,35,1,0
81440,461.538461538462,4,2,1,35,1,0
81602,322.58064516129,4,2,1,35,1,0
81682,447.761194029851,4,2,1,50,1,0
81682,-66.6666666666667,4,2,1,50,0,0
82129,-50,4,2,1,50,0,0
82577,-40,4,2,1,50,0,0
82689,-40,4,2,1,50,0,0
82801,-40,4,2,1,50,0,0
83137,-40,4,2,1,50,0,0
83249,-40,4,2,1,50,0,0
83473,-66.6666666666667,4,2,1,50,0,0
83920,-50,4,2,1,50,0,0
84816,444.444444444444,4,2,1,50,1,0
84927,-50,4,2,1,50,0,0
85260,468.75,4,2,1,50,1,0
85611,447.761194029851,4,2,6,60,1,0
85832,-100,4,2,6,60,0,0
85834,434.782608695652,4,2,6,60,1,0
86051,394.736842105263,4,2,6,60,1,0
86149,447.761194029851,4,2,6,60,1,0
86820,434.782608695652,4,2,6,60,1,0
87037,495.867768595041,4,2,6,60,1,0
87117,-142.857142857143,4,2,6,60,0,0
87284,447.761194029851,4,2,6,60,1,0
87451,-100,4,2,1,60,0,0
87715,447.761194029851,4,2,1,80,1,0
87715,-33.3333333333333,4,2,1,80,0,0
88386,-33.3333333333333,4,2,1,20,0,0

[Colours]
Combo1 : 108,0,54
Combo2 : 0,64,128
Combo3 : 0,128,192
Combo4 : 255,255,70
Combo5 : 0,210,0
Combo6 : 192,192,192
Combo7 : 139,139,139
Combo8 : 155,0,0

[HitObjects]
293,0,195,101,2,0:0:0:0:
297,7,328,1,2,0:0:0:0:
250,89,563,5,2,0:0:0:0:
328,144,769,101,2,0:0:0:0:
277,213,976,5,2,0:0:0:0:
345,281,1222,101,2,0:0:0:0:
344,274,1326,1,2,0:0:0:0:
340,269,1431,1,2,0:0:0:0:
333,264,1536,5,2,0:0:0:0:
322,309,1641,1,2,0:0:0:0:
357,348,1748,1,2,0:0:0:0:
407,339,1855,1,2,0:0:0:0:
411,347,1978,102,0,P|397:360|387:375,4,31.6666666666667,0|0|0|0|0,3:2|3:2|3:2|3:2|3:2,0:0:0:0:
491,340,2337,1,0,3:2:0:0:
491,340,2409,1,0,3:2:0:0:
450,172,2641,6,0,P|309:204|48:196,1,380,6|0,1:2|3:0,0:0:0:0:
74,214,3659,102,0,P|123:192|183:245,1,95,2|0,1:3|0:0,0:0:0:0:
259,377,4037,21,0,0:0:0:0:
259,377,4505,1,0,0:0:0:0:
259,377,4918,1,0,0:0:0:0:
259,377,5299,1,0,0:0:0:0:
324,315,5512,5,0,0:0:0:0:
324,315,5838,1,0,0:0:0:0:
295,240,6257,101,0,0:0:0:0:
295,240,6688,1,0,0:0:0:0:
295,240,7053,1,0,0:0:0:0:
105,233,7285,6,0,P|147:210|144:162,1,100.93750192523
145,163,7595,1,0,0:0:0:0:
132,85,8029,101,0,0:0:0:0:
132,85,8470,1,0,0:0:0:0:
132,85,8857,1,0,0:0:0:0:
265,23,9084,6,0,P|313:36|331:81,1,100.93750192523
331,81,9394,1,0,0:0:0:0:
153,13,9822,101,0,0:0:0:0:
153,13,10259,1,0,0:0:0:0:
153,13,10643,1,0,0:0:0:0:
15,177,10855,5,0,0:0:0:0:
19,158,10953,2,0,P|58:135|152:100,1,118.75,2|2,0:0|0:3,0:0:0:0:
143,317,11400,102,0,P|154:273|216:142,1,166.250001585484,2|2,0:0|0:3,0:0:0:0:
326,363,11848,6,0,P|303:249|307:117,1,190,2|2,0:0|0:3,0:0:0:0:
345,112,12184,1,0,0:0:0:0:
355,106,12296,2,0,P|393:124|356:153,1,83.1250007927418,2|0,0:0|0:0,0:0:0:0:
237,132,12508,2,0,P|228:104|268:95,1,71.2500027179719,2|0,0:3|0:0,0:0:0:0:
458,288,12721,102,0,P|415:280|366:286,1,59.375,2|0,0:0|0:0,0:0:0:0:
392,287,12944,1,2,0:3:0:0:
122,228,13168,6,0,P|173:208|244:200,1,83.1250007927418,2|0,0:0|0:0,0:0:0:0:
211,211,13392,2,0,P|192:243|184:326,1,83.1250007927418,2|0,0:3|0:0,0:0:0:0:
285,169,13616,101,2,0:0:0:0:
461,203,13837,2,0,P|416:177|334:156,1,95,2|0,0:3|0:0,0:0:0:0:
115,153,14058,5,2,0:0:0:0:
111,134,14169,2,0,P|141:104|247:63,1,83.1250007927418,0|2,0:0|0:3,0:0:0:0:
445,0,14390,101,0,0:0:0:0:
369,10,14501,2,0,P|429:49|473:97,1,118.75,2|2,0:0|0:3,0:0:0:0:
241,159,14938,6,0,P|313:150|408:167,1,166.250001585484,2|2,0:0|0:3,0:0:0:0:
259,360,15385,102,0,P|317:316|455:274,1,190,2|2,0:0|0:3,0:0:0:0:
498,305,15721,1,0,0:0:0:0:
506,311,15833,2,0,P|505:347|437:345,1,83.1250007927418,2|0,0:0|0:0,0:0:0:0:
494,229,16057,1,2,0:3:0:0:
494,229,16169,1,0,0:0:0:0:
494,229,16281,6,0,P|495:184|504:130,1,71.2500027179719,2|0,0:0|0:0,0:0:0:0:
412,193,16504,2,0,P|413:148|422:94,1,71.2500027179719,2|0,0:3|0:0,0:0:0:0:
316,0,16728,102,0,P|325:70|331:197,1,166.250001585484,2|2,0:0|0:3,0:0:0:0:
309,237,17064,1,0,0:0:0:0:
312,241,17176,2,0,P|258:244|274:194,1,95,2|0,0:0|0:0,0:0:0:0:
410,24,17400,2,0,P|436:57|365:81,1,95,2|2,0:3|0:3,0:0:0:0:
73,30,17624,6,0,B|148:9|189:60|185:68|181:77|232:131|297:93,1,249.375002378225,4|0,0:0|0:0,0:0:0:0:
294,94,18085,1,4,0:0:0:0:
252,31,18308,1,2,0:3:0:0:
47,109,18532,102,0,P|79:178|102:286,1,142.500005435944,8|2,1:2|0:3,0:0:0:0:
216,96,18980,6,0,P|217:163|188:299,1,166.250001585484,2|2,0:0|0:3,0:0:0:0:
138,305,19316,1,0,0:0:0:0:
127,304,19428,2,0,P|110:290|150:238,1,83.1250007927418,8|0,1:2|0:0,0:0:0:0:
249,333,19652,1,2,0:3:0:0:
249,333,19764,1,2,0:3:0:0:
249,333,19876,102,0,P|307:304|455:273,1,166.250001585484,2|2,0:0|0:3,0:0:0:0:
468,318,20216,1,0,0:0:0:0:
472,329,20330,2,0,P|443:363|395:330,1,83.1250007927418,8|0,1:2|0:0,0:0:0:0:
470,240,20553,1,2,0:3:0:0:
198,65,20777,6,0,P|275:78|384:134,1,190,2|2,0:0|0:3,0:0:0:0:
403,198,21113,1,0,0:0:0:0:
397,208,21225,2,0,P|300:201|352:98,1,190,8|2,1:2|0:3,0:0:0:0:
469,31,21561,101,2,0:3:0:0:
480,39,21673,2,0,P|478:154|483:184,1,142.500005435944,2|2,0:0|0:3,0:0:0:0:
464,255,22006,1,0,0:0:0:0:
467,271,22117,2,0,P|441:297|380:278,1,83.1250007927418,8|0,1:2|0:0,0:0:0:0:
339,347,22339,1,2,0:3:0:0:
327,357,22450,2,0,P|291:347|272:285,1,83.1250007927418,0|2,0:0|0:0,0:0:0:0:
332,242,22673,5,0,0:0:0:0:
332,242,22784,1,2,0:3:0:0:
220,0,23012,102,0,P|241:53|257:207,1,190,8|2,1:2|0:3,0:0:0:0:
217,253,23347,1,2,0:3:0:0:
213,241,23463,2,0,P|219:208|258:187,1,71.2500027179719,2|0,0:0|0:0,0:0:0:0:
361,90,23687,1,2,0:3:0:0:
361,90,23800,1,0,0:0:0:0:
361,90,23912,2,0,P|348:136|364:221,1,71.2500027179719,8|0,1:2|0:0,0:0:0:0:
407,225,24137,5,2,0:3:0:0:
155,68,24361,102,0,P|164:92|182:183,1,71.2500027179719,2|0,0:0|0:0,0:0:0:0:
248,49,24586,2,0,P|252:89|248:150,1,71.2500027179719,2|0,0:3|0:0,0:0:0:0:
39,174,24811,6,0,B|9:169|2:149|2:149|72:121|113:176|108:189|106:202|146:239|213:216,1,285,8|2,3:2|3:0,0:0:0:0:
290,238,25245,102,0,P|303:330|211:287,1,166.250001585484,6|2,0:0|0:3,0:0:0:0:
180,370,25591,1,0,0:0:0:0:
172,383,25706,2,0,P|169:340|177:273,1,83.1250007927418,8|2,1:2|0:0,0:0:0:0:
198,144,25928,2,0,P|197:187|204:239,1,83.1250007927418,2|0,0:3|0:0,0:0:0:0:
278,245,26150,5,2,0:0:0:0:
64,279,26372,1,2,0:3:0:0:
206,13,26594,2,0,P|269:19|235:112,1,166.250001585484,10|2,1:2|0:3,0:0:0:0:
198,144,26928,101,2,0:3:0:0:
193,157,27039,2,0,P|146:155|58:183,1,83.1250007927418,2|0,0:0|0:0,0:0:0:0:
207,253,27262,2,0,P|162:238|69:243,1,83.1250007927418,2|0,0:3|0:0,0:0:0:0:
18,359,27486,6,0,P|139:340|329:349,1,249.375002378225,10|0,1:2|0:0,0:0:0:0:
331,382,27934,1,2,0:0:0:0:
264,179,28158,1,2,0:3:0:0:
479,246,28382,2,0,P|421:244|330:280,1,83.1250007927418,8|0,1:2|0:0,0:0:0:0:
123,317,28606,101,2,0:3:0:0:
123,317,28718,1,2,0:3:0:0:
123,317,28830,2,0,P|142:222|33:155,1,166.250001585484,2|2,0:0|0:3,0:0:0:0:
29,186,29165,1,0,0:0:0:0:
18,175,29277,2,0,P|13:151|56:77,1,83.1250007927418,8|0,1:2|0:0,0:0:0:0:
207,88,29501,1,2,0:3:0:0:
0,0,29725,6,0,P|64:17|222:17,1,166.250001585484,2|2,0:0|0:3,0:0:0:0:
236,4,30051,1,0,0:0:0:0:
248,8,30159,2,0,P|280:68|201:82,1,166.250001585484,10|2,1:2|0:3,0:0:0:0:
79,179,30485,101,2,0:3:0:0:
61,164,30594,2,0,P|85:111|144:133,1,83.1250007927418,2|0,0:0|0:0,0:0:0:0:
194,224,30828,2,0,P|160:176|208:136,1,83.1250007927418,2|0,0:3|0:0,0:0:0:0:
338,141,31062,6,0,P|299:214|252:367,1,166.250001585484,10|2,1:2|0:3,0:0:0:0:
294,367,31397,1,0,0:0:0:0:
294,367,31509,1,2,0:0:0:0:
420,330,31733,1,2,0:3:0:0:
199,213,31957,2,0,P|109:243|160:312,1,166.250001585484,8|2,1:2|0:3,0:0:0:0:
292,271,32297,101,2,0:3:0:0:
322,241,32411,2,0,P|305:175|300:1,1,190,2|2,0:0|0:3,0:0:0:0:
376,10,32749,1,0,0:0:0:0:
409,29,32862,2,0,P|421:63|362:98,1,95,8|0,1:2|0:0,0:0:0:0:
222,40,33087,1,2,0:3:0:0:
222,40,33200,1,0,0:0:0:0:
222,40,33313,2,0,P|175:105|267:102,1,190,2|2,0:0|0:3,0:0:0:0:
299,17,33651,5,0,0:0:0:0:
299,17,33764,1,10,1:2:0:0:
342,267,33982,1,2,0:3:0:0:
342,267,34092,1,2,0:3:0:0:
342,267,34201,2,0,P|350:236|405:138,1,95,2|0,0:0|0:0,0:0:0:0:
161,129,34426,2,0,P|183:170|208:249,1,95,2|0,0:3|0:0,0:0:0:0:
290,362,34652,102,0,P|342:311|449:240,1,190,10|2,1:2|0:3,0:0:0:0:
512,277,34990,1,0,0:0:0:0:
512,277,35103,1,2,0:0:0:0:
422,125,35328,1,2,0:3:0:0:
422,125,35441,1,0,0:0:0:0:
422,125,35554,2,0,P|366:156|397:207,1,95,8|0,1:2|0:0,0:0:0:0:
512,146,35779,5,2,0:3:0:0:
512,146,35892,1,2,0:3:0:0:
512,146,35998,2,0,P|510:98|513:46,2,95,2|0|2,0:0|0:0|0:3,0:0:0:0:
421,250,36333,1,0,0:0:0:0:
421,250,36445,2,0,P|419:298|422:350,1,95,8|0,1:2|0:0,0:0:0:0:
389,133,36669,102,0,P|386:85|389:38,2,95,2|0|2,0:3|0:0|0:0,0:0:0:0:
320,381,37005,1,0,0:0:0:0:
320,381,37117,2,0,P|317:334|320:287,1,95,2|0,0:3|0:0,0:0:0:0:
227,5,37341,6,0,P|236:109|228:234,1,190,8|2,1:2|0:3,0:0:0:0:
165,234,37677,1,2,0:3:0:0:
129,221,37789,2,0,B|194:205|229:240|223:250|218:258|264:285|321:264,1,190,2|2,0:0|0:3,0:0:0:0:
460,162,38124,101,0,0:0:0:0:
479,143,38236,2,0,B|426:130|403:160|403:166|403:173|369:194|323:177,1,166.250001585484,10|2,1:2|0:3,0:0:0:0:
193,85,38572,5,0,0:0:0:0:
179,72,38684,2,0,B|224:60|244:86|244:92|244:97|273:116|312:101,1,142.500005435944,2|2,0:0|0:3,0:0:0:0:
436,17,39012,101,0,0:0:0:0:
445,9,39121,2,0,B|407:0|391:24|390:25|391:29|367:45|334:33,1,118.75,10|0,1:2|3:0,0:0:0:0:
119,11,39450,5,0,3:0:0:0:
119,11,39559,2,0,P|142:95|138:198,1,166.250001585484,6|2,0:0|0:3,0:0:0:0:
94,234,39899,1,0,0:0:0:0:
81,238,40013,2,0,P|53:199|91:155,2,83.1250007927418,8|0|2,1:2|0:0|0:3,0:0:0:0:
281,224,40354,101,0,0:0:0:0:
272,218,40468,2,0,P|204:243|133:344,1,166.250001585484,2|2,0:0|0:3,0:0:0:0:
192,371,40809,1,0,0:0:0:0:
211,378,40922,2,0,P|261:352|235:292,1,83.1250007927418,8|0,1:2|0:0,0:0:0:0:
144,171,41149,1,2,0:3:0:0:
388,112,41377,6,0,P|364:199|352:302,1,166.250001585484,2|2,0:0|0:3,0:0:0:0:
391,343,41710,1,0,0:0:0:0:
404,342,41821,2,0,P|433:284|393:228,1,83.1250007927418,8|0,1:2|0:0,0:0:0:0:
338,198,42043,2,0,P|291:223|278:265,1,83.1250007927418,2|0,0:3|0:0,0:0:0:0:
497,209,42265,101,2,0:0:0:0:
209,300,42488,1,2,0:3:0:0:
356,22,42712,6,0,P|366:71|377:171,2,83.1250007927418,8|0|2,1:2|0:0|0:3,0:0:0:0:
230,0,43048,101,2,0:3:0:0:
245,9,43160,2,0,P|264:90|279:224,1,166.250001585484,2|2,0:0|0:3,0:0:0:0:
239,239,43498,1,0,0:0:0:0:
221,238,43611,2,0,P|194:215|215:154,1,83.1250007927418,8|0,1:2|0:0,0:0:0:0:
333,248,43836,1,2,0:3:0:0:
333,248,43949,1,0,0:0:0:0:
333,248,44062,2,0,P|311:298|299:369,1,83.1250007927418,2|0,0:0|0:0,0:0:0:0:
234,97,44287,5,2,0:3:0:0:
461,168,44513,1,8,1:2:0:0:
461,168,44621,2,0,P|402:176|343:194,1,83.1250007927418,0|2,0:0|0:3,0:0:0:0:
488,67,44839,101,2,0:3:0:0:
476,82,44947,2,0,P|390:71|289:-1,1,166.250001585484,2|2,0:0|0:3,0:0:0:0:
140,158,45394,2,0,P|176:136|215:123,1,83.1250007927418,8|0,1:2|0:0,0:0:0:0:
162,40,45618,1,2,0:3:0:0:
162,40,45730,1,0,0:0:0:0:
162,40,45842,2,0,P|203:39|243:48,1,83.1250007927418,2|0,0:0|0:0,0:0:0:0:
242,203,46066,5,2,0:3:0:0:
7,36,46290,2,0,P|36:157|49:286,1,249.375002378225,8|2,1:2|0:3,0:0:0:0:
17,357,46720,101,2,0:0:0:0:
60,290,46839,2,0,B|107:282|140:302|135:313|132:323|155:355|214:344,1,166.250001585484,8|0,3:2|3:0,0:0:0:0:
353,340,47174,5,8,3:2:0:0:
280,379,47284,1,0,3:0:0:0:
284,300,47394,1,0,3:0:0:0:
278,294,47470,1,0,3:0:0:0:
271,292,47547,1,0,3:0:0:0:
263,294,47624,101,0,1:0:0:0:
191,266,47740,2,0,P|194:219|217:147,1,110.833334390322,0|8,3:0|3:0,0:0:0:0:
386,34,47972,6,0,B|425:22|425:22|466:48,1,83.1250007927418,2|0,1:3|0:0,0:0:0:0:
473,123,48183,2,0,L|320:102,1,124.687501189113,2|0,1:3|0:0,0:0:0:0:
338,113,48406,101,8,3:2:0:0:
356,187,48517,1,8,3:2:0:0:
284,171,48628,1,8,3:2:0:0:
284,171,48739,1,8,3:0:0:0:
217,61,48850,6,0,L|300:53,1,59.375,4|0,1:2|0:0,0:0:0:0:
512,37,49100,101,8,3:0:0:0:
512,37,49205,1,8,3:0:0:0:
139,19,49422,53,4,0:0:0:0:
20,45,49652,5,2,0:3:0:0:
20,45,49883,1,2,0:2:0:0:
20,45,50114,1,2,0:3:0:0:
203,95,50332,102,0,P|195:145|176:178,1,71.2500027179719,2|2,0:2|0:3,0:0:0:0:
89,83,50776,2,0,P|100:112|102:176,1,71.2500027179719,2|2,0:2|0:3,0:0:0:0:
43,204,51220,6,0,P|121:186|79:320,1,285,2|2,0:2|0:3,0:0:0:0:
89,321,52115,2,0,P|105:279|167:261,1,95,2|2,0:2|0:3,0:0:0:0:
209,209,52563,2,0,P|265:224|292:282,1,95,2|2,0:2|0:3,0:0:0:0:
302,363,53011,102,0,P|316:263|377:84,1,285,2|2,0:2|0:3,0:0:0:0:
439,43,53794,1,0,0:0:0:0:
439,43,53906,2,0,P|463:63|444:127,1,95,2|2,0:2|0:3,0:0:0:0:
259,135,54354,2,0,P|254:60|330:34,1,142.5,2|0,0:2|0:0,0:0:0:0:
310,36,54791,2,0,P|227:38|112:18,1,190,2|2,0:2|0:2,0:0:0:0:
3,96,55684,6,0,P|47:101|71:169,1,95,2|2,0:2|0:3,0:0:0:0:
27,202,56020,1,0,0:0:0:0:
27,202,56131,2,0,P|93:192|175:203,1,142.5,2|0,0:2|0:0,0:0:0:0:
176,212,56578,101,2,0:2:0:0:
137,280,56801,1,2,0:3:0:0:
214,280,57025,1,2,0:2:0:0:
252,215,57249,1,2,0:3:0:0:
219,34,57473,5,2,0:2:0:0:
152,65,57697,1,2,0:3:0:0:
214,110,57921,1,2,0:2:0:0:
281,79,58151,1,2,0:3:0:0:
403,16,58382,102,0,P|377:111|363:239,1,190,2|2,0:2|0:2,0:0:0:0:
417,273,59053,1,2,0:3:0:0:
417,273,59165,1,0,0:0:0:0:
417,273,59277,5,2,0:2:0:0:
243,186,59501,1,2,0:3:0:0:
460,131,59725,1,2,0:2:0:0:
460,131,59837,1,0,0:0:0:0:
460,131,59949,2,0,P|443:165|437:191,1,47.5,2|0,0:3|0:0,0:0:0:0:
332,39,60173,101,2,0:2:0:0:
341,116,60390,1,2,0:3:0:0:
352,194,60607,1,2,0:2:0:0:
366,271,60841,1,2,0:3:0:0:
166,359,61075,5,2,0:2:0:0:
177,256,61297,1,2,0:3:0:0:
192,152,61519,1,2,0:2:0:0:
207,48,61741,1,2,0:3:0:0:
91,155,61963,101,2,0:2:0:0:
346,125,62186,1,2,0:3:0:0:
44,277,62410,1,2,0:2:0:0:
408,331,62634,1,2,0:3:0:0:
207,48,62858,1,2,0:2:0:0:
282,243,63092,5,2,0:3:0:0:
289,251,63209,1,8,0:0:0:0:
289,251,63326,2,0,P|270:274|238:283,1,47.5,2|0,0:0|0:0,0:0:0:0:
173,240,63543,102,0,P|179:178|294:195,1,178.125,12|0,0:0|0:0,0:0:0:0:
287,159,63760,86,0,P|322:131|283:69,1,95,6|0,0:0|0:0,0:0:0:0:
193,28,63983,2,0,P|208:83|212:160,1,95,8|0,1:2|0:0,0:0:0:0:
440,296,64207,6,0,B|391:277|346:303|348:314|350:326|323:361|262:354,1,190,2|8,0:0|1:2,0:0:0:0:
259,348,64543,1,0,0:0:0:0:
489,181,64655,102,0,P|469:269|461:380,1,190,2|10,0:0|1:2,0:0:0:0:
464,375,64991,1,0,0:0:0:0:
468,381,65103,2,0,P|478:331|456:272,1,95,2|2,0:0|0:0,0:0:0:0:
310,189,65327,2,0,P|287:220|279:284,1,95,8|2,1:2|0:0,0:0:0:0:
502,174,65551,6,0,P|501:125|447:138,1,95,2|2,0:0|0:0,0:0:0:0:
194,207,65774,2,0,P|195:158|249:171,1,95,8|0,1:2|0:0,0:0:0:0:
395,10,65998,102,0,P|298:40|138:26,1,190,2|10,0:0|1:2,0:0:0:0:
203,52,66324,1,0,0:0:0:0:
299,65,66432,6,0,P|361:90|416:160,1,95,2|0,0:0|0:0,0:0:0:0:
134,95,66650,101,8,1:2:0:0:
134,95,66758,1,2,0:0:0:0:
134,95,66867,1,2,0:0:0:0:
112,172,67096,1,8,1:2:0:0:
9,30,67325,6,0,P|33:72|51:139,1,95,2|0,0:0|0:0,0:0:0:0:
33,349,67545,2,0,P|64:260|132:167,1,190,10|2,1:2|0:0,0:0:0:0:
195,200,67876,1,0,0:0:0:0:
203,206,67986,2,0,P|208:247|155:277,1,95,10|0,1:2|0:0,0:0:0:0:
352,12,68207,102,0,P|298:16|212:30,1,95,2|0,0:0|0:0,0:0:0:0:
34,103,68427,2,0,P|130:109|235:127,1,190,10|2,1:2|0:0,0:0:0:0:
297,104,68759,1,0,0:0:0:0:
308,100,68871,2,0,P|336:120|279:173,1,95,8|0,1:2|0:0,0:0:0:0:
0,384,69095,6,0,P|-7:242|17:160,1,178.125,2|0,0:0|0:0,0:0:0:0:
8,207,69320,2,0,P|25:235|68:260,1,59.375,8|0,1:2|0:0,0:0:0:0:
167,366,69546,102,0,P|160:224|184:120,1,199.499993911743,2|0,0:0|0:0,0:0:0:0:
186,160,69771,2,0,P|213:170|278:166,1,66.4999979705811,8|0,1:2|0:0,0:0:0:0:
346,351,69997,6,0,P|337:205|357:77,1,213.750008153916,2|0,0:0|0:0,0:0:0:0:
367,119,70222,2,0,P|398:103|421:55,1,71.2500027179719,8|0,1:2|0:0,0:0:0:0:
500,103,70448,102,0,P|491:234|502:364,1,237.5,10|10,1:2|1:2,0:0:0:0:
489,348,70786,1,0,0:0:0:0:
378,221,70899,6,0,P|445:216|464:282,1,118.75,6|0,0:0|0:0,0:0:0:0:
357,359,71121,2,0,B|293:382|250:335|255:327|260:319|217:263|138:295,1,237.5,8|2,1:2|0:0,0:0:0:0:
140,302,71454,1,0,0:0:0:0:
260,293,71565,102,0,P|269:256|243:156,1,118.75,8|0,1:2|0:0,0:0:0:0:
36,372,71787,2,0,P|14:255|38:140,1,237.5,2|8,0:0|1:2,0:0:0:0:
51,136,72121,1,0,0:0:0:0:
4,0,72232,6,0,P|14:31|94:11,1,118.75,2|0,0:0|0:0,0:0:0:0:
389,90,72454,2,0,P|379:121|299:101,1,118.75,10|0,1:2|0:0,0:0:0:0:
199,3,72676,102,0,P|187:57|183:185,1,118.75,2|0,0:0|0:0,0:0:0:0:
236,309,72899,1,10,1:2:0:0:
170,218,73011,1,0,0:0:0:0:
242,171,73123,1,2,0:0:0:0:
347,234,73235,6,0,P|359:288|363:416,1,118.75,2|10,0:0|1:2,0:0:0:0:
497,152,73459,2,0,P|459:274|452:403,1,237.5,2|0,0:0|0:0,0:0:0:0:
183,298,73795,102,0,P|244:295|242:382,1,118.75,8|0,1:2|0:0,0:0:0:0:
392,155,74019,2,0,B|340:125|275:159|280:168|283:178|242:212|167:182,1,237.5,2|10,0:0|1:2,0:0:0:0:
114,128,74365,5,0,0:0:0:0:
159,194,74488,2,0,P|115:210|90:287,1,95,8|0,1:2|0:0,0:0:0:0:
418,254,74715,101,2,0:0:0:0:
360,305,74828,1,8,1:2:0:0:
344,227,74942,2,0,P|346:179|367:106,1,95,2|0,0:0|0:0,0:0:0:0:
207,16,75159,2,0,P|218:72|221:143,1,95,8|0,1:2|0:0,0:0:0:0:
0,384,75376,5,2,0:0:0:0:
0,384,75603,1,2,0:0:0:0:
19,312,75716,101,0,0:0:0:0:
18,305,75830,2,0,B|96:250|153:285|148:297|143:307|205:354|297:331|316:244|270:177|206:180|159:215|178:266,1,427.500016307831,12|0,0:0|0:0,0:0:0:0:
375,384,76285,6,0,P|338:197|356:77,1,285.000010871888,12|2,0:0|0:0,0:0:0:0:
360,100,76620,1,0,0:0:0:0:
90,265,76732,102,0,P|118:184|133:9,1,237.5,12|2,0:0|0:0,0:0:0:0:
120,16,77058,1,0,0:0:0:0:
498,166,77166,6,0,P|432:154|445:265,1,190,12|2,0:0|0:0,0:0:0:0:
448,266,77512,1,8,0:0:0:0:
169,296,77627,102,0,P|225:283|216:376,1,142.500005435944,12|8,0:0|0:0,0:0:0:0:
235,375,77962,1,8,0:0:0:0:
283,232,78322,85,2,0:3:0:0:
226,138,78766,5,2,0:3:0:0:
317,68,79210,101,2,0:3:0:0:
167,0,79637,5,2,0:3:0:0:
164,7,79801,1,0,0:0:0:0:
283,220,80085,101,2,0:3:0:0:
387,44,80557,5,2,0:3:0:0:
471,173,81004,101,2,0:3:0:0:
512,83,81440,6,0,P|496:66|489:57,1,23.75,2|0,0:3|0:0,0:0:0:0:
507,90,81682,102,0,P|432:107|350:157,1,142.500005435944,2|2,0:0|0:3,0:0:0:0:
512,247,82129,6,0,P|440:224|271:235,1,190,8|2,1:2|0:3,0:0:0:0:
136,369,82577,102,0,P|189:328|264:303,1,118.75,2|0,0:0|0:0,0:0:0:0:
317,322,82801,1,2,0:3:0:0:
317,322,82913,1,0,0:0:0:0:
189,239,83025,5,8,1:2:0:0:
183,229,83137,2,0,P|196:187|309:95,1,118.75,0|2,0:0|0:3,0:0:0:0:
438,280,83361,101,0,0:0:0:0:
445,260,83473,2,0,P|433:189|402:126,1,142.500005435944,2|2,0:0|0:3,0:0:0:0:
423,7,83808,5,0,0:0:0:0:
478,58,83920,2,0,P|431:41|374:41,1,95,8|0,1:2|0:0,0:0:0:0:
160,69,84144,2,0,P|205:47|291:31,1,95,2|0,0:3|0:0,0:0:0:0:
360,236,84368,101,2,0:0:0:0:
347,309,84592,1,2,0:3:0:0:
189,181,84816,5,8,1:2:0:0:
184,194,84927,2,0,P|205:244|241:413,1,190,0|2,0:0|0:0,0:0:0:0:
256,0,85260,101,8,1:2:0:0:
256,8,85611,85,2,0:0:0:0:
431,71,85834,5,2,0:0:0:0:
99,141,86051,101,2,0:0:0:0:
102,151,86149,1,2,0:0:0:0:
389,205,86372,5,2,0:0:0:0:
157,273,86596,101,2,0:0:0:0:
335,330,86820,5,2,0:0:0:0:
255,377,87037,101,8,3:2:0:0:
255,362,87119,2,0,L|254:315,1,44.5312516987324,0|0,3:0|3:2,0:0:0:0:
256,230,87395,5,0,3:2:0:0:
256,221,87451,2,0,L|255:188,1,23.75,8|0,3:2|3:0,0:0:0:0:
219,43,87715,102,0,B|177:9|151:52|97:35|97:35|119:125|216:117|216:117|216:150|198:176|198:176|237:192|256:230|256:230|274:192|314:176|314:176|295:150|295:118|295:118|397:131|404:30|404:30|356:51|337:10|288:46,1,855.000032615663,6|0,3:2|0:0,2:0:0:0:
