osu file format v14

[General]
AudioFilename: audio.mp3
AudioLeadIn: 0
PreviewTime: 63306
Countdown: 0
SampleSet: Soft
StackLeniency: 0.3
Mode: 0
LetterboxInBreaks: 0
WidescreenStoryboard: 0

[Editor]
Bookmarks: 36099,88383
DistanceSpacing: 1.9
BeatDivisor: 4
GridSize: 16
TimelineZoom: 2.5

[Metadata]
Title:Wild Side (TV Size)
TitleUnicode:Wild Side (TV Size)
Artist:ALI
ArtistUnicode:ALI
Creator:Kroytz
Version:BMD's Expert
Source:BEASTARS
Tags:-Anime Ver.- ビースターズ BST BAND Version Alien Liberty International Jazz Anime Japanese English French Opening OP Night Mare Luna Yuuya_ke HowRengar Kowari DeviousPanda Kazato Asa Shizuku- BarkingMadDog BMD kimchii42 -Mikan
BeatmapID:2210959
BeatmapSetID:1055990

[Difficulty]
HPDrainRate:5.5
CircleSize:3.8
OverallDifficulty:8.6
ApproachRate:9.3
SliderMultiplier:1.8
SliderTickRate:1

[Events]
//Background and Video events
0,0,"BG.png",0,0
Video,-500,"video.mp4"
//Break Periods
//Storyboard Layer 0 (Background)
//Storyboard Layer 1 (Fail)
//Storyboard Layer 2 (Pass)
//Storyboard Layer 3 (Foreground)
//Storyboard Layer 4 (Overlay)
//Storyboard Sound Samples

[TimingPoints]
195,535.714285714286,4,2,6,50,1,0
563,413.793103448276,4,2,6,50,1,0
666,-100,4,2,20,5,0,0
769,-100,4,2,6,50,0,0
873,-100,4,2,20,5,0,0
976,-100,4,2,6,50,0,0
1080,-100,4,2,20,5,0,0
1222,419.58041958042,4,2,6,50,1,0
1222,-100,4,2,6,50,0,0
1641,428.571428571429,4,2,6,50,1,0
1855,495.867768595041,4,2,6,50,1,0
1978,431.654676258993,4,2,6,50,1,0
2409,465.116279069767,4,2,6,50,1,0
2641,483.870967741935,4,2,6,80,1,1
2641,-66.6666666666667,4,2,6,80,0,1
3124,461.538461538462,4,2,6,80,1,1
3470,379.746835443038,4,2,6,80,1,1
3659,504.201680672269,4,2,3,35,1,0
4037,468.75,4,2,3,35,1,0
4037,-200,4,2,3,35,0,0
4505,413.793103448276,4,2,3,35,1,0
4918,508.474576271186,4,2,3,35,1,0
4918,-149.253731343284,4,2,3,35,0,0
5108,-149.253731343284,4,2,20,5,0,0
5299,427.046263345196,4,2,3,35,1,0
5512,434.782608695652,4,2,3,35,1,0
5512,-70.4225352112676,4,2,3,35,0,0
5783,-70.4225352112676,4,2,20,5,0,0
5838,419.58041958042,4,2,1,35,1,0
5838,-200,4,2,1,35,0,0
6257,431.654676258993,4,2,1,35,1,0
6688,487.80487804878,4,2,1,35,1,0
6688,-149.253731343284,4,2,1,35,0,0
6870,-149.253731343284,4,2,20,5,0,0
7053,465.116279069767,4,2,1,35,1,0
7285,413.793103448276,4,2,1,35,1,0
7285,-70.4225352112676,4,2,1,35,0,0
7543,-70.4225352112676,4,2,20,5,0,0
7595,434.782608695652,4,2,1,35,1,0
7595,-200,4,2,1,35,0,0
8029,441.176470588235,4,2,1,35,1,0
8470,517.241379310345,4,2,1,35,1,0
8470,-149.253731343284,4,2,1,35,0,0
8663,-149.253731343284,4,2,20,5,0,0
8857,454.545454545455,4,2,1,35,1,0
9084,413.793103448276,4,2,1,35,1,0
9084,-70.4225352112676,4,2,1,35,0,0
9342,-70.4225352112676,4,2,20,5,0,0
9394,428.571428571429,4,2,1,35,1,0
9394,-200,4,2,1,35,0,0
9822,437.956204379562,4,2,1,35,1,0
10259,512.820512820513,4,2,1,35,1,0
10259,-149.253731343284,4,2,1,35,0,0
10451,-149.253731343284,4,2,20,5,0,0
10643,425.531914893617,4,2,1,35,1,0
10855,392.156862745098,4,2,1,35,1,0
10953,447.761194029851,4,2,1,50,1,0
10953,-400,4,2,1,50,0,0
11176,-80,4,2,1,50,0,0
11400,-400,4,2,1,50,0,0
11624,-80,4,2,1,50,0,0
12296,425.531914893617,4,2,1,50,1,0
12402,-80,4,2,1,50,0,0
12721,447.761194029851,4,2,1,50,1,0
12721,-80,4,2,1,50,0,0
13616,442.80442804428,4,2,1,50,1,0
13616,-80,4,2,1,50,0,0
14501,437.956204379562,4,2,1,50,1,0
14719,-80,4,2,1,50,0,0
14938,447.761194029851,4,2,1,50,1,0
14938,-80,4,2,1,50,0,0
15385,-57.1428571428571,4,2,1,50,0,0
16281,447.761194029851,4,2,1,50,1,0
16728,-100,4,2,1,50,0,0
17400,-100,4,2,1,50,0,0
17624,461.538461538462,4,2,1,50,1,0
17624,-44.4444444444445,4,2,1,50,0,0
18085,447.761194029851,4,2,2,50,1,0
18308,-80,4,2,1,50,0,0
18980,-50,4,2,1,50,0,0
19428,-100,4,2,1,50,0,0
19876,454.545454545455,4,2,1,50,1,0
20330,447.761194029851,4,2,1,50,1,0
21673,444.444444444444,4,2,1,50,1,0
22117,-80,4,2,1,50,0,0
22673,-50,4,2,1,50,0,0
23012,447.761194029851,4,2,1,50,1,0
23235,-100,4,2,1,50,0,0
23463,449.438202247191,4,2,1,50,1,0
24361,-57.1428571428571,4,2,1,50,0,0
24811,434.782608695652,4,2,1,50,1,0
24811,-57.1428571428571,4,2,1,50,0,0
25245,461.538461538462,4,2,4,50,1,0
25245,-50,4,2,4,50,0,0
25591,-50,4,2,10,50,0,0
25706,444.444444444444,4,2,6,50,1,0
25706,-66.6666666666667,4,2,6,50,0,0
25928,-66.6666666666667,4,2,1,50,0,0
26150,-50,4,2,4,50,0,0
26483,-50,4,2,1,50,0,0
26594,-50,4,2,6,50,0,0
26817,-50,4,2,1,50,0,0
26928,-50,4,2,10,50,0,0
27039,447.761194029851,4,2,1,50,1,0
27039,-66.6666666666667,4,2,1,50,0,0
27150,-66.6666666666667,4,2,10,50,0,0
27262,-66.6666666666667,4,2,1,50,0,0
27374,-66.6666666666667,4,2,10,50,0,0
27486,-66.6666666666667,4,2,6,50,0,0
27934,-57.1428571428571,4,2,1,50,0,0
28382,-80,4,2,1,50,0,0
28830,-50,4,2,4,50,0,0
29165,-50,4,2,10,50,0,0
29277,-66.6666666666667,4,2,1,50,0,0
29389,-66.6666666666667,4,2,10,50,0,0
29501,-66.6666666666667,4,2,1,50,0,0
29725,434.782608695652,4,2,4,50,1,0
29725,-50,4,2,4,50,0,0
30051,-50,4,2,1,50,0,0
30159,-50,4,2,6,50,0,0
30377,-50,4,2,1,50,0,0
30485,-50,4,2,10,50,0,0
30594,468.75,4,2,1,50,1,0
30594,-66.6666666666667,4,2,1,50,0,0
30711,-66.6666666666667,4,2,10,50,0,0
30828,-66.6666666666667,4,2,1,50,0,0
30945,-66.6666666666667,4,2,10,50,0,0
31062,447.761194029851,4,2,6,50,1,0
31062,-66.6666666666667,4,2,6,50,0,0
31173,-66.6666666666667,4,2,6,50,0,0
31285,-66.6666666666667,4,2,1,50,0,0
31509,-57.1428571428571,4,2,1,50,0,0
31957,454.545454545455,4,2,1,50,1,0
31957,-80,4,2,1,50,0,0
32411,451.127819548872,4,2,4,50,1,0
32411,-44.4444444444445,4,2,4,50,0,0
32749,-44.4444444444445,4,2,10,50,0,0
32862,-57.1428571428571,4,2,1,50,0,0
32974,-57.1428571428571,4,2,10,50,0,0
33087,-57.1428571428571,4,2,1,50,0,0
33313,-44.4444444444445,4,2,4,50,0,0
33651,-44.4444444444445,4,2,1,50,0,0
33764,437.956204379562,4,2,6,50,1,0
33764,-44.4444444444445,4,2,6,50,0,0
33982,-44.4444444444445,4,2,1,50,0,0
34092,-44.4444444444445,4,2,10,50,0,0
34201,451.127819548872,4,2,1,50,1,0
34201,-57.1428571428571,4,2,1,50,0,0
34313,-57.1428571428571,4,2,10,50,0,0
34426,-57.1428571428571,4,2,1,50,0,0
34539,-57.1428571428571,4,2,10,50,0,0
34652,-57.1428571428571,4,2,6,50,0,0
34764,-57.1428571428571,4,2,6,50,0,0
34877,-57.1428571428571,4,2,1,50,0,0
35103,-50,4,2,1,50,0,0
35554,-66.6666666666667,4,2,1,50,0,0
35998,447.761194029851,4,2,4,50,1,0
35998,-66.6666666666667,4,2,4,50,0,0
36109,-66.6666666666667,4,2,10,50,0,0
36221,-66.6666666666667,4,2,10,50,0,0
36333,-66.6666666666667,4,2,10,50,0,0
36445,-66.6666666666667,4,2,1,50,0,0
36669,-66.6666666666667,4,2,10,50,0,0
36893,-66.6666666666667,4,2,4,50,0,0
37005,-66.6666666666667,4,2,10,50,0,0
37341,-66.6666666666667,4,2,1,50,0,0
37789,-50,4,2,4,50,0,0
37900,-50,4,2,1,50,0,0
38236,-57.1428571428571,4,2,6,50,0,0
38460,-57.1428571428571,4,2,1,50,0,0
38684,437.956204379562,4,2,4,50,1,0
38684,-66.6666666666667,4,2,4,50,0,0
38793,-66.6666666666667,4,2,1,50,0,0
39121,-80,4,2,6,50,0,0
39340,-80,4,2,6,50,0,0
39559,454.545454545455,4,2,1,50,1,0
39559,-80,4,2,1,50,0,0
40922,-80,4,2,1,50,0,0
41377,444.444444444444,4,2,1,50,1,0
41377,-80,4,2,1,50,0,0
42265,447.761194029851,4,2,1,50,1,0
42488,-80,4,2,1,50,0,0
43160,451.127819548872,4,2,1,50,1,0
43160,-80,4,2,1,50,0,0
44513,434.782608695652,4,2,1,50,1,0
44513,-80,4,2,1,50,0,0
44947,447.761194029851,4,2,1,50,1,0
44947,-80,4,2,1,50,0,0
45394,-80,4,2,1,50,0,0
45730,-72.992700729927,4,2,1,50,0,0
46066,-80,4,2,1,50,0,0
46290,-80,4,2,1,50,0,0
46514,413.793103448276,4,2,1,50,1,0
46720,476.190476190476,4,2,1,50,1,0
46839,461.538461538462,4,2,1,50,1,0
46839,-80,4,2,1,50,0,0
47069,421.052631578947,4,2,1,50,1,0
47174,441.176470588235,4,2,1,50,1,0
47394,461.538461538462,4,2,1,50,1,0
47740,387.096774193548,4,2,1,50,1,0
47740,-50,4,2,1,50,0,0
47836,545.454545454546,4,2,1,50,1,0
47972,422.535211267606,4,2,3,50,1,0
47972,-50,4,2,3,50,0,0
48183,447.761194029851,4,2,3,50,1,0
48183,-50,4,2,3,50,0,0
48406,444.444444444444,4,2,1,50,1,0
48406,-50,4,2,1,50,0,0
48850,500,4,2,1,50,1,0
48850,-100,4,2,1,50,0,0
49100,422.535211267606,4,2,1,50,1,0
49205,434.782608695652,4,2,1,50,1,0
49422,461.538461538462,4,2,2,50,1,0
49652,-133.333333333333,4,2,3,50,0,0
50114,437.956204379562,4,2,3,50,1,0
50114,-133.333333333333,4,2,3,50,0,0
50332,444.444444444444,4,2,3,50,1,0
50332,-133.333333333333,4,2,3,50,0,0
51220,447.761194029851,4,2,3,50,1,0
52115,-133.333333333333,4,2,3,50,0,0
54354,437.956204379562,4,2,3,50,1,0
54791,446.927374301676,4,2,3,50,1,0
55684,-133.333333333333,4,2,3,50,0,0
56578,447.761194029851,4,2,3,50,1,0
56578,-133.333333333333,4,2,3,50,0,0
57921,461.538461538462,4,2,3,50,1,0
58382,447.761194029851,4,2,3,50,1,0
59277,-133.333333333333,4,2,3,50,0,0
60173,434.782608695652,4,2,3,50,1,0
60390,-100,4,2,3,50,0,0
60607,468.75,4,2,3,50,1,0
61075,444.444444444444,4,2,3,60,1,0
61075,-100,4,2,3,60,0,0
61186,-100,4,2,3,50,0,0
61297,-100,4,2,3,60,0,0
61408,-100,4,2,3,50,0,0
61519,-100,4,2,3,60,0,0
61630,-100,4,2,3,50,0,0
61741,-100,4,2,3,60,0,0
61852,-100,4,2,3,50,0,0
61963,447.761194029851,4,2,3,60,1,0
61963,-80,4,2,3,60,0,0
62186,-80,4,2,3,60,0,0
62410,-80,4,2,3,60,0,0
62634,-80,4,2,3,60,0,0
62858,468.75,4,2,3,60,1,0
62858,-100,4,2,3,60,0,0
62975,-100,4,2,3,70,0,0
63092,-66.6666666666667,4,2,3,60,0,0
63209,-66.6666666666667,4,2,1,60,0,0
63326,434.782608695652,4,2,1,70,1,0
63326,-50,4,2,1,70,0,0
63543,-40,4,2,5,70,0,0
63760,447.761194029851,4,2,4,80,1,1
63760,-44.4444444444445,4,2,4,80,0,1
63983,-44.4444444444445,4,2,1,80,0,1
64207,-44.4444444444445,4,2,4,80,0,1
64319,-44.4444444444445,4,2,1,80,0,1
64431,-44.4444444444445,4,2,1,80,0,1
64655,-44.4444444444445,4,2,4,80,0,1
64879,-44.4444444444445,4,2,6,80,0,1
64991,-44.4444444444445,4,2,10,80,0,1
65103,-44.4444444444445,4,2,1,80,0,1
65215,-44.4444444444445,4,2,6,80,0,1
65551,-44.4444444444445,4,2,1,80,0,1
65662,-44.4444444444445,4,2,6,80,0,1
65774,-44.4444444444445,4,2,1,80,0,1
65998,434.782608695652,4,2,4,80,1,1
65998,-44.4444444444445,4,2,4,80,0,1
66215,-44.4444444444445,4,2,6,80,0,1
66324,-44.4444444444445,4,2,6,80,0,1
66432,-44.4444444444445,4,2,4,80,0,1
66541,-44.4444444444445,4,2,1,80,0,1
66758,-44.4444444444445,4,2,6,80,0,1
66867,458.015267175573,4,2,4,80,1,1
66867,-44.4444444444445,4,2,4,80,0,1
66981,-44.4444444444445,4,2,1,80,0,1
67096,-44.4444444444445,4,2,1,80,0,1
67325,441.176470588235,4,2,4,80,1,1
67325,-44.4444444444445,4,2,4,80,0,1
67435,-44.4444444444445,4,2,1,80,0,1
67545,-44.4444444444445,4,2,6,80,0,1
67655,-44.4444444444445,4,2,1,80,0,1
67766,-44.4444444444445,4,2,4,80,0,1
67876,-44.4444444444445,4,2,1,80,0,1
67986,-44.4444444444445,4,2,6,80,0,1
68097,-44.4444444444445,4,2,1,80,0,1
68207,-44.4444444444445,4,2,4,80,0,1
68317,-44.4444444444445,4,2,1,80,0,1
68427,-44.4444444444445,4,2,6,80,0,1
68538,-44.4444444444445,4,2,1,80,0,1
68648,447.761194029851,4,2,4,80,1,1
68648,-44.4444444444445,4,2,4,80,0,1
68871,-44.4444444444445,4,2,1,80,0,1
69095,451.127819548872,4,2,4,80,1,1
69095,-50,4,2,4,80,0,1
69207,-50,4,2,1,80,0,1
69320,-200,4,2,1,80,0,1
69546,-50,4,2,4,80,0,1
69658,-50,4,2,1,80,0,1
69771,-200,4,2,1,80,0,1
69997,-40,4,2,4,80,0,1
70110,-40,4,2,1,80,0,1
70222,-200,4,2,1,80,0,1
70448,-40,4,2,6,80,0,1
70673,-40,4,2,6,80,0,1
70786,-200,4,2,6,80,0,0
70899,444.444444444444,4,2,4,80,1,1
70899,-44.4444444444445,4,2,4,80,0,1
71121,-44.4444444444445,4,2,1,80,0,1
71343,-44.4444444444445,4,2,4,80,0,1
71454,-44.4444444444445,4,2,1,80,0,1
71565,-44.4444444444445,4,2,1,80,0,1
71787,-44.4444444444445,4,2,4,80,0,1
72010,-44.4444444444445,4,2,1,80,0,1
72232,-44.4444444444445,4,2,4,80,0,1
72343,-44.4444444444445,4,2,1,80,0,1
72454,-44.4444444444445,4,2,6,80,0,1
72676,447.761194029851,4,2,4,80,1,1
72676,-44.4444444444445,4,2,4,80,0,1
72787,-44.4444444444445,4,2,1,80,0,1
72899,-44.4444444444445,4,2,6,80,0,1
73123,-44.4444444444445,4,2,4,80,0,1
73235,-44.4444444444445,4,2,6,80,0,1
73795,-80,4,2,1,80,0,1
74019,-57.1428571428571,4,2,4,80,0,1
74131,-57.1428571428571,4,2,1,80,0,1
74243,491.803278688525,4,2,6,80,1,1
74243,-44.4444444444445,4,2,6,80,0,1
74488,454.545454545455,4,2,5,80,1,1
74488,-57.1428571428571,4,2,5,80,0,1
74715,-57.1428571428571,4,2,1,80,0,1
74942,434.782608695652,4,2,1,80,1,1
74942,-57.1428571428571,4,2,1,80,0,1
75376,454.545454545455,4,2,1,80,1,1
75376,-80,4,2,1,80,0,1
75603,-44.4444444444445,4,2,1,80,0,1
75830,-40,4,2,5,80,0,1
76057,-100,4,2,1,80,0,1
76285,447.761194029851,4,2,1,80,1,1
76285,-80,4,2,1,80,0,1
76508,-80,4,2,1,80,0,1
76732,434.782608695652,4,2,1,80,1,1
76732,-66.6666666666667,4,2,1,80,0,1
77166,461.538461538462,4,2,1,80,1,1
77166,-57.1428571428571,4,2,1,80,0,1
77396,-57.1428571428571,4,2,1,80,0,1
77627,447.761194029851,4,2,1,80,1,1
77627,-50,4,2,1,80,0,1
77962,480,4,2,1,80,1,0
77962,-100,4,2,1,80,0,0
78322,444.444444444444,4,2,1,35,1,0
78322,-200,4,2,1,35,0,0
79210,491.803278688525,4,2,1,35,1,0
79210,-200,4,2,1,35,0,0
79455,-200,4,2,20,5,0,0
79578,447.761194029851,4,2,1,35,1,0
79637,461.538461538462,4,2,1,35,1,0
79801,454.545454545455,4,2,1,35,1,0
79801,-55.5555555555556,4,2,1,35,0,0
80028,-55.5555555555556,4,2,20,5,0,0
80085,-208.333333333333,4,2,1,35,0,0
80141,416.666666666667,4,2,1,35,1,0
80557,447.761194029851,4,2,1,35,1,0
81004,491.803278688525,4,2,1,35,1,0
81004,-200,4,2,1,35,0,0
81372,461.538461538462,4,2,1,50,1,0
81440,461.538461538462,4,2,1,50,1,0
81602,322.58064516129,4,2,1,50,1,0
81682,447.761194029851,4,2,1,50,1,0
81682,-400,4,2,1,50,0,0
81793,-400,4,2,1,50,0,0
81905,-80,4,2,1,50,0,0
82017,-80,4,2,1,50,0,0
82129,-400,4,2,1,50,0,0
82241,-400,4,2,1,50,0,0
82353,-80,4,2,1,50,0,0
83137,-80,4,2,1,50,0,0
83249,-80,4,2,1,50,0,0
83473,-80,4,2,1,50,0,0
84816,444.444444444444,4,2,1,50,1,0
84816,-80,4,2,1,50,0,0
85260,468.75,4,2,1,50,1,0
85611,447.761194029851,4,2,6,60,1,0
85611,-200,4,2,6,60,0,0
85834,434.782608695652,4,2,6,60,1,0
85834,-100,4,2,6,60,0,0
86051,394.736842105263,4,2,6,60,1,0
86149,447.761194029851,4,2,6,60,1,0
86149,-50,4,2,6,60,0,0
86372,-66.6666666666667,4,2,6,60,0,0
86596,-100,4,2,6,60,0,0
86820,434.782608695652,4,2,6,60,1,0
87037,495.867768595041,4,2,6,60,1,0
87284,447.761194029851,4,2,6,60,1,0
87395,-100,4,2,1,60,0,0
87715,447.761194029851,4,2,1,80,1,0
87715,-50,4,2,1,80,0,0
88386,-50,4,2,1,20,0,0

[Colours]
Combo1 : 108,0,54
Combo2 : 0,64,128
Combo3 : 0,128,192
Combo4 : 255,255,70
Combo5 : 0,210,0
Combo6 : 192,192,192
Combo7 : 139,139,139
Combo8 : 155,0,0

[HitObjects]
60,126,195,101,2,0:0:0:0:
138,122,328,1,2,0:0:0:0:
144,116,563,6,0,L|139:199,1,45,2|0,0:0|0:0,0:0:0:0:
230,187,769,2,0,L|227:142,1,45,2|0,0:0|0:0,0:0:0:0:
295,38,976,2,0,L|292:82,1,45,2|0,0:0|0:0,0:0:0:0:
280,273,1222,101,2,0:0:0:0:
279,281,1326,1,2,0:0:0:0:
271,375,1431,5,2,0:0:0:0:
357,335,1536,1,2,0:0:0:0:
201,226,1641,1,2,0:0:0:0:
315,177,1748,1,2,0:0:0:0:
287,104,1855,1,2,0:0:0:0:
287,104,1978,101,0,3:2:0:0:
287,104,2049,1,0,3:2:0:0:
287,104,2121,2,0,L|284:74,2,30,0|0|0,3:2|3:2|3:2,0:0:0:0:
277,0,2337,1,0,3:2:0:0:
277,0,2409,1,0,3:2:0:0:
27,325,2641,6,0,B|92:322|92:322|95:328|95:328|177:323,1,135.000005149842,6|0,1:2|3:0,0:0:0:0:
373,269,3003,1,0,3:0:0:0:
326,361,3124,1,0,3:0:0:0:
269,276,3239,1,0,3:0:0:0:
264,271,3354,1,0,3:0:0:0:
317,186,3470,101,0,3:0:0:0:
321,181,3564,1,0,3:0:0:0:
209,95,3659,1,2,1:3:0:0:
209,95,4037,22,0,L|212:5,1,90
123,70,4918,2,0,L|126:12,1,45.224997860756
42,44,5299,1,0,0:0:0:0:
25,311,5512,6,0,P|96:278|166:311,1,159.749991955948
166,311,5838,102,0,P|209:321|252:310,1,90
327,384,6688,2,0,P|343:367|352:344,1,45.224997860756
335,254,7053,1,0,0:0:0:0:
474,41,7285,6,0,B|383:63|413:-2|310:19,1,159.299994409332
322,17,7595,102,0,L|326:106,1,90
212,179,8470,2,0,L|251:152,1,45.224997860756
329,195,8857,1,0,0:0:0:0:
188,272,9084,6,0,P|126:226|119:148,1,159.749991955948
119,150,9394,102,0,L|29:154,1,90
105,64,10259,6,0,L|151:66,1,45.224997860756
240,75,10643,1,0,0:0:0:0:
78,228,10855,101,0,0:0:0:0:
79,239,10953,6,0,L|80:257,1,11.25,2|0,0:0|0:0,0:0:0:0:
165,265,11176,102,0,P|169:237|164:209,1,56.25,2|0,0:3|0:0,0:0:0:0:
79,239,11400,6,0,L|80:257,1,11.25,2|0,0:0|0:0,0:0:0:0:
227,149,11624,102,0,P|199:128|173:121,1,56.25,2|0,0:3|0:0,0:0:0:0:
114,339,11848,6,0,P|164:355|220:337,1,112.5,2|2,0:0|0:3,0:0:0:0:
300,217,12184,1,0,0:0:0:0:
305,300,12296,1,2,0:0:0:0:
306,307,12402,2,0,L|309:365,1,56.25,0|2,0:0|0:3,0:0:0:0:
371,170,12615,1,0,0:0:0:0:
447,207,12721,102,0,P|475:212|506:207,1,56.25,2|0,0:0|0:0,0:0:0:0:
394,38,12944,2,0,P|375:59|364:89,1,56.25,2|0,0:3|0:0,0:0:0:0:
300,217,13168,5,2,0:0:0:0:
213,176,13280,1,0,0:0:0:0:
172,215,13392,1,2,0:3:0:0:
102,192,13504,1,0,0:0:0:0:
88,201,13616,102,0,L|91:257,1,56.25,2|0,0:0|0:0,0:0:0:0:
5,290,13837,2,0,L|1:226,1,56.25,2|0,0:3|0:0,0:0:0:0:
246,119,14058,5,2,0:0:0:0:
170,80,14169,1,0,0:0:0:0:
174,168,14280,2,0,L|177:224,1,56.25,2|0,0:3|0:0,0:0:0:0:
466,66,14501,101,2,0:0:0:0:
466,66,14719,2,0,P|441:61|409:66,1,56.25,2|0,0:3|0:0,0:0:0:0:
419,236,14938,2,0,P|447:237|473:230,1,56.25,2|0,0:0|0:0,0:0:0:0:
495,146,15161,2,0,L|439:149,1,56.25,2|0,0:3|0:0,0:0:0:0:
216,44,15385,6,0,P|292:52|340:113,1,157.500001502037,2|2,0:0|0:3,0:0:0:0:
340,112,15721,1,0,0:0:0:0:
287,222,15833,101,2,0:0:0:0:
238,150,15945,1,0,0:0:0:0:
196,227,16057,2,0,P|158:236|119:230,1,78.7500007510185,2|0,0:3|0:0,0:0:0:0:
4,56,16281,5,2,0:0:0:0:
135,50,16392,1,0,0:0:0:0:
13,56,16504,1,2,0:3:0:0:
13,56,16728,102,0,L|16:111,1,45,2|0,0:0|0:0,0:0:0:0:
21,282,16952,5,2,0:3:0:0:
22,295,17064,1,0,0:0:0:0:
17,192,17176,101,2,0:0:0:0:
95,235,17288,1,0,0:0:0:0:
171,188,17400,6,0,L|169:161,1,22.5,2|2,0:3|0:3,0:0:0:0:
182,183,17512,2,0,L|180:156,1,22.5,2|2,0:3|0:3,0:0:0:0:
270,342,17624,102,0,P|412:358|475:230,1,303.750011587143,4|0,0:0|0:0,0:0:0:0:
500,123,18085,5,4,0:0:0:0:
500,123,18308,2,0,P|472:118|445:123,1,56.25,2|0,0:3|0:0,0:0:0:0:
367,48,18532,2,0,P|349:68|339:101,1,56.25,8|0,1:2|0:0,0:0:0:0:
504,278,18756,2,0,P|494:252|471:227,1,56.25,2|0,0:3|0:0,0:0:0:0:
340,95,18980,102,0,B|232:74|278:154|136:118,1,180,2|2,0:0|0:3,0:0:0:0:
81,106,19316,1,0,0:0:0:0:
90,241,19428,2,0,L|86:181,1,45,8|0,1:2|0:0,0:0:0:0:
78,61,19652,2,0,L|82:121,1,45,2|2,0:3|0:3,0:0:0:0:
0,333,19876,5,2,0:0:0:0:
39,314,19989,1,0,0:0:0:0:
100,330,20103,1,2,0:3:0:0:
177,305,20216,1,0,0:0:0:0:
273,324,20330,1,8,1:2:0:0:
280,321,20441,2,0,L|277:266,1,45,0|2,0:0|0:3,0:0:0:0:
284,273,20777,102,0,L|281:218,1,45,2|0,0:0|0:0,0:0:0:0:
275,114,21001,1,2,0:3:0:0:
274,106,21113,1,0,0:0:0:0:
372,164,21225,2,0,P|392:154|409:140,1,45,8|0,1:2|0:0,0:0:0:0:
186,171,21449,2,0,P|165:162|146:150,1,45,2|2,0:3|0:3,0:0:0:0:
509,49,21673,5,2,0:0:0:0:
499,83,21784,1,0,0:0:0:0:
512,135,21895,1,2,0:3:0:0:
498,205,22006,1,0,0:0:0:0:
409,140,22117,102,0,B|383:134|383:134|353:142,1,56.25,8|0,1:2|0:0,0:0:0:0:
273,169,22339,1,2,0:3:0:0:
316,37,22450,2,0,B|297:56|297:56|289:86,1,56.25,0|2,0:0|0:0,0:0:0:0:
318,253,22673,6,0,B|248:258|248:258|213:235|213:235|146:239,1,180
56,248,23012,101,8,1:2:0:0:
56,248,23123,1,0,0:0:0:0:
91,121,23235,2,0,L|94:166,1,45,2|2,0:3|0:3,0:0:0:0:
108,323,23463,5,2,0:0:0:0:
181,357,23575,1,0,0:0:0:0:
187,362,23687,1,2,0:3:0:0:
257,322,23800,1,0,0:0:0:0:
330,356,23912,102,0,L|374:353,1,45,8|0,1:2|0:0,0:0:0:0:
392,267,24137,2,0,L|347:269,1,45,2|0,0:3|0:0,0:0:0:0:
71,176,24361,6,0,L|150:181,1,78.7500007510185,2|0,0:0|0:0,0:0:0:0:
194,101,24586,2,0,L|116:97,1,78.7500007510185,2|0,0:3|0:0,0:0:0:0:
3,17,24811,2,0,L|81:12,1,78.7500007510185,8|0,3:2|0:0,0:0:0:0:
239,186,25028,101,2,3:0:0:0:
254,188,25137,1,2,3:0:0:0:
352,151,25245,6,0,B|275:104|275:104|287:287,1,270,6|0,0:0|0:0,0:0:0:0:
292,384,25706,2,0,L|366:380,1,67.5000025749208,8|2,1:2|0:0,0:0:0:0:
497,374,25928,1,2,0:3:0:0:
497,374,26150,102,0,B|428:376|428:376|396:342|396:342|282:346|282:346|309:353|331:375,1,270,2|0,0:0|0:0,0:0:0:0:
378,133,26594,2,0,P|453:178|471:264,1,180,10|2,1:2|0:3,0:0:0:0:
471,263,26928,1,2,0:3:0:0:
471,263,27039,1,2,0:0:0:0:
292,64,27150,6,0,B|313:38|313:38|345:29,1,67.5000025749208,0|2,0:0|0:3,0:0:0:0:
378,133,27374,1,0,0:0:0:0:
190,95,27486,2,0,B|179:63|179:63|187:31,1,67.5000025749208,8|0,1:2|0:0,0:0:0:0:
378,133,27710,2,0,B|389:164|389:164|381:197,1,67.5000025749208,2|0,0:3|0:0,0:0:0:0:
303,252,27934,102,0,L|460:247,1,157.500001502037,2|2,0:0|0:3,0:0:0:0:
460,247,28270,1,0,0:0:0:0:
485,336,28382,2,0,L|416:334,1,56.25,8|0,1:2|0:0,0:0:0:0:
278,163,28606,1,2,0:3:0:0:
271,157,28718,1,2,0:3:0:0:
145,340,28830,6,0,P|259:280|263:151,1,270,2|0,0:0|0:0,0:0:0:0:
250,42,29277,2,0,P|217:51|190:71,1,67.5000025749208,8|0,1:2|0:0,0:0:0:0:
147,210,29501,1,2,0:3:0:0:
147,210,29725,102,0,B|133:30|133:30|63:87,1,270,2|0,0:0|0:0,0:0:0:0:
246,307,30159,2,0,L|259:125,1,180,10|2,1:2|0:3,0:0:0:0:
258,127,30485,1,2,0:3:0:0:
258,127,30594,1,2,0:0:0:0:
436,197,30711,6,0,L|439:129,1,67.5000025749208,0|2,0:0|0:3,0:0:0:0:
445,31,30945,1,0,0:0:0:0:
349,157,31062,2,0,L|345:89,1,67.5000025749208,10|0,1:2|0:0,0:0:0:0:
254,60,31285,2,0,L|257:127,1,67.5000025749208,2|0,0:3|0:0,0:0:0:0:
470,280,31509,102,0,B|389:307|400:241|306:270,1,157.500001502037,2|2,0:0|0:3,0:0:0:0:
318,267,31845,1,0,0:0:0:0:
299,378,31957,2,0,P|326:368|348:351,1,56.25,8|0,1:2|0:0,0:0:0:0:
285,176,32184,1,2,0:3:0:0:
281,167,32297,1,2,0:3:0:0:
203,345,32411,6,0,B|124:348|124:348|102:356|102:356|81:349|81:349|51:350|51:350|48:271|48:271|44:266|44:266|42:195,1,303.750011587143,2|0,0:0|0:0,0:0:0:0:
0,110,32862,2,0,L|92:105,1,78.7500007510185,8|0,1:2|0:0,0:0:0:0:
257,98,33087,1,2,0:3:0:0:
257,98,33313,102,0,B|239:20|334:-25|426:17|400:184|302:207,1,303.750011587143,2|0,0:0|0:0,0:0:0:0:
192,363,33764,2,0,B|142:274|142:274|188:175,1,202.500007724762,10|2,1:2|0:3,0:0:0:0:
184,182,34092,1,2,0:3:0:0:
184,182,34201,1,2,0:0:0:0:
264,266,34313,6,0,P|302:277|341:270,1,78.7500007510185,0|2,0:0|0:3,0:0:0:0:
414,185,34539,1,0,0:0:0:0:
409,354,34652,2,0,P|435:327|450:286,1,78.7500007510185,10|0,1:2|0:0,0:0:0:0:
419,16,34877,2,0,P|392:42|377:83,1,78.7500007510185,2|0,0:3|0:0,0:0:0:0:
264,266,35103,102,0,B|166:292|187:223|83:244,1,180,2|2,0:0|0:3,0:0:0:0:
91,242,35441,1,0,0:0:0:0:
49,346,35554,2,0,L|117:349,1,67.5000025749208,8|0,1:2|0:0,0:0:0:0:
62,130,35779,1,2,0:3:0:0:
60,121,35892,1,2,0:3:0:0:
58,110,35998,5,2,0:2:0:0:
147,162,36109,1,0,0:0:0:0:
261,92,36221,1,2,0:3:0:0:
350,144,36333,2,0,B|384:142|384:142|386:144|386:144|431:142,1,67.5000025749208,0|8,0:0|1:2,0:0:0:0:
160,172,36669,101,2,0:3:0:0:
275,102,36781,1,0,0:0:0:0:
363,157,36893,1,2,0:0:0:0:
474,79,37005,1,0,0:0:0:0:
256,384,37341,5,8,1:2:0:0:
256,0,37565,1,2,0:3:0:0:
256,9,37677,1,2,0:3:0:0:
266,110,37789,102,0,P|308:96|342:68,1,90,2|0,0:0|0:0,0:0:0:0:
443,22,38012,2,0,P|451:67|442:110,1,90,2|0,0:3|0:0,0:0:0:0:
194,193,38236,6,0,P|167:163|156:126,1,78.7500007510185,10|0,1:2|0:0,0:0:0:0:
86,44,38460,2,0,P|59:72|47:110,1,78.7500007510185,2|0,0:3|0:0,0:0:0:0:
268,271,38684,102,0,P|289:246|301:214,1,67.5000025749208,2|0,0:0|0:0,0:0:0:0:
376,135,38902,2,0,P|397:160|408:192,1,67.5000025749208,2|0,0:3|0:0,0:0:0:0:
233,375,39121,6,0,P|207:366|187:347,1,56.25,10|0,1:2|0:0,0:0:0:0:
82,319,39340,2,0,P|76:346|81:373,1,56.25,0|0,3:0|3:0,0:0:0:0:
157,241,39559,102,0,L|152:113,1,112.5,6|2,0:0|0:3,0:0:0:0:
234,97,39899,1,0,0:0:0:0:
234,97,40013,2,0,L|238:168,1,56.25,8|0,1:2|0:0,0:0:0:0:
320,186,40240,2,0,L|324:115,1,56.25,2|0,0:3|0:0,0:0:0:0:
400,17,40468,1,2,0:0:0:0:
401,29,40581,1,0,0:0:0:0:
402,40,40695,2,0,L|406:111,1,56.25,2|0,0:3|0:0,0:0:0:0:
320,186,40922,6,0,L|324:115,1,56.25,8|0,1:2|0:0,0:0:0:0:
402,40,41149,2,0,L|406:111,1,56.25,2|2,0:3|0:3,0:0:0:0:
415,345,41377,102,0,P|362:332|309:349,1,112.5,2|2,0:0|0:3,0:0:0:0:
226,382,41710,1,0,0:0:0:0:
226,382,41821,2,0,P|220:354|224:325,1,56.25,8|0,1:2|0:0,0:0:0:0:
204,239,42043,2,0,P|182:258|155:269,1,56.25,2|0,0:3|0:0,0:0:0:0:
71,324,42265,1,2,0:0:0:0:
82,327,42376,1,0,0:0:0:0:
92,330,42488,2,0,P|119:338|142:356,1,56.25,2|0,0:3|0:0,0:0:0:0:
204,239,42712,6,0,P|182:258|155:269,1,56.25,8|0,1:2|0:0,0:0:0:0:
92,330,42936,2,0,P|119:338|142:356,1,56.25,2|2,0:3|0:3,0:0:0:0:
139,180,43160,102,0,L|135:62,1,112.5,2|2,0:0|0:3,0:0:0:0:
55,32,43498,1,0,0:0:0:0:
55,32,43611,2,0,L|53:92,1,56.25,8|0,1:2|0:0,0:0:0:0:
47,172,43836,1,2,0:3:0:0:
135,67,43949,2,0,L|137:127,1,56.25,0|2,0:0|0:0,0:0:0:0:
142,209,44175,1,0,0:0:0:0:
217,39,44287,2,0,L|219:99,1,56.25,2|0,0:3|0:0,0:0:0:0:
300,179,44513,6,0,L|302:119,1,56.25,8|0,1:2|0:0,0:0:0:0:
383,90,44730,2,0,L|385:150,1,56.25,2|2,0:3|0:3,0:0:0:0:
250,273,44947,102,0,P|261:218|299:178,1,112.5,2|2,0:0|0:3,0:0:0:0:
280,357,45282,1,0,0:0:0:0:
280,357,45394,2,0,P|249:363|220:358,1,56.25,8|0,1:2|0:0,0:0:0:0:
163,295,45618,1,2,0:3:0:0:
220,220,45730,2,0,P|241:243|250:273,1,61.6500017403031,0|2,0:0|0:0,0:0:0:0:
224,359,45954,1,0,0:0:0:0:
190,145,46066,2,0,P|221:139|250:144,1,56.25,2|0,0:3|0:0,0:0:0:0:
280,357,46290,6,0,P|249:363|220:358,1,56.25,8|0,1:2|0:0,0:0:0:0:
104,130,46514,1,2,0:3:0:0:
100,122,46617,1,2,0:3:0:0:
48,196,46720,101,2,0:0:0:0:
190,145,46839,2,0,L|183:39,1,56.25,8|0,3:2|0:0,0:0:0:0:
75,49,47069,5,0,3:0:0:0:
133,211,47174,2,0,L|131:263,1,45,8|0,3:2|3:0,0:0:0:0:
238,217,47394,101,0,3:0:0:0:
272,200,47470,1,0,3:0:0:0:
309,200,47547,1,0,3:0:0:0:
341,218,47624,5,0,1:0:0:0:
338,354,47740,2,0,B|300:329|300:329|291:286,1,90.0000034332277,0|8,3:0|3:0,0:0:0:0:
430,71,47972,2,0,B|423:115|423:115|392:148,1,90,2|0,1:3|0:0,0:0:0:0:
135,134,48183,2,0,B|177:116|177:116|221:127,1,90,2|0,1:3|0:0,0:0:0:0:
427,227,48406,101,8,3:2:0:0:
237,359,48517,1,8,3:2:0:0:
462,306,48628,1,8,3:2:0:0:
250,205,48739,1,8,3:0:0:0:
373,384,48850,6,0,B|373:346|373:346|376:345|376:345|377:291,1,90,4|8,1:2|3:0,0:0:0:0:
470,46,49205,1,8,3:0:0:0:
470,46,49422,37,4,0:0:0:0:
367,0,49652,2,0,L|350:35,1,33.7500012874604,2|0,0:3|0:0,0:0:0:0:
275,66,49883,2,0,L|297:98,1,33.7500012874604,2|0,0:2|0:0,0:0:0:0:
286,178,50114,2,0,L|325:174,1,33.7500012874604,2|0,0:3|0:0,0:0:0:0:
348,262,50332,6,0,L|315:260,1,33.7500012874604,2|0,0:2|0:0,0:0:0:0:
289,341,50554,2,0,L|322:343,1,33.7500012874604,2|0,0:3|0:0,0:0:0:0:
354,257,50776,2,0,L|320:254,1,33.7500012874604,2|0,0:2|0:0,0:0:0:0:
294,335,50998,2,0,L|327:337,1,33.7500012874604,2|0,0:3|0:0,0:0:0:0:
290,172,51220,101,2,0:2:0:0:
207,140,51443,1,2,0:3:0:0:
154,226,51667,1,2,0:2:0:0:
47,186,51891,1,2,0:3:0:0:
82,82,52115,6,0,P|85:99|84:119,1,33.7500012874604,2|0,0:2|0:0,0:0:0:0:
19,204,52339,2,0,P|32:192|50:183,1,33.7500012874604,2|0,0:3|0:0,0:0:0:0:
158,196,52563,2,0,P|141:190|124:179,1,33.7500012874604,2|0,0:2|0:0,0:0:0:0:
82,82,52787,2,0,P|85:99|84:119,1,33.7500012874604,2|0,0:3|0:0,0:0:0:0:
90,288,53011,101,2,0:2:0:0:
90,288,53234,1,2,0:3:0:0:
179,312,53458,1,2,0:2:0:0:
268,253,53682,5,2,0:3:0:0:
268,253,53794,1,0,0:0:0:0:
268,253,53906,2,0,L|266:286,1,33.7500012874604,2|0,0:2|0:0,0:0:0:0:
179,312,54130,2,0,L|177:278,1,33.7500012874604,2|0,0:3|0:0,0:0:0:0:
172,191,54354,1,2,0:2:0:0:
172,191,54572,1,2,0:3:0:0:
353,278,54791,101,2,0:2:0:0:
452,329,55014,1,2,0:3:0:0:
437,112,55237,5,2,0:2:0:0:
343,172,55461,1,2,0:3:0:0:
478,219,55684,102,0,L|436:222,1,33.7500012874604,2|0,0:2|0:0,0:0:0:0:
432,301,55908,6,0,L|465:298,1,33.7500012874604,2|0,0:3|0:0,0:0:0:0:
402,64,56131,102,0,L|368:61,1,33.7500012874604,2|0,0:2|0:0,0:0:0:0:
380,141,56355,2,0,L|413:143,1,33.7500012874604,2|0,0:3|0:0,0:0:0:0:
281,47,56578,6,0,L|283:80,1,33.7500012874604,2|0,0:2|0:0,0:0:0:0:
192,104,56801,2,0,L|195:71,1,33.7500012874604,2|0,0:3|0:0,0:0:0:0:
104,46,57025,2,0,L|107:80,1,33.7500012874604,2|0,0:2|0:0,0:0:0:0:
19,24,57249,2,0,L|16:57,1,33.7500012874604,2|0,0:3|0:0,0:0:0:0:
0,235,57473,102,0,L|33:237,1,33.7500012874604,2|0,0:2|0:0,0:0:0:0:
241,252,57697,2,0,L|207:249,1,33.7500012874604,2|0,0:3|0:0,0:0:0:0:
120,244,57921,1,2,0:2:0:0:
120,244,58151,1,2,0:3:0:0:
163,108,58382,5,2,0:2:0:0:
184,187,58605,1,2,0:3:0:0:
220,50,58829,1,2,0:2:0:0:
285,287,59053,101,2,0:3:0:0:
285,287,59165,1,0,0:0:0:0:
285,287,59277,2,0,L|324:289,1,33.7500012874604,2|0,0:2|0:0,0:0:0:0:
463,192,59501,2,0,L|444:220,1,33.7500012874604,2|0,0:3|0:0,0:0:0:0:
349,190,59725,2,0,L|364:220,1,33.7500012874604,2|0,0:2|0:0,0:0:0:0:
476,295,59949,2,0,L|510:297,1,33.7500012874604,2|0,0:3|0:0,0:0:0:0:
318,288,60173,5,2,0:2:0:0:
277,358,60390,1,2,0:3:0:0:
182,356,60607,1,2,0:2:0:0:
127,263,60841,1,2,0:3:0:0:
193,146,61075,102,0,L|189:101,1,45,2|0,0:2|0:0,0:0:0:0:
295,68,61297,2,0,L|299:119,1,45,2|0,0:3|0:0,0:0:0:0:
187,140,61519,2,0,L|183:95,1,45,2|0,0:2|0:0,0:0:0:0:
289,62,61741,2,0,L|293:113,1,45,2|0,0:3|0:0,0:0:0:0:
284,322,61963,6,0,L|286:265,1,56.25,2|0,0:2|0:0,0:0:0:0:
422,230,62186,2,0,L|424:286,1,56.25,2|0,0:3|0:0,0:0:0:0:
291,317,62410,2,0,L|293:260,1,56.25,2|0,0:2|0:0,0:0:0:0:
429,225,62634,2,0,L|431:281,1,56.25,2|0,0:3|0:0,0:0:0:0:
97,274,62858,102,0,P|119:272|140:263,1,45,2|0,0:2|0:0,0:0:0:0:
203,281,63092,2,0,P|169:278|139:263,1,67.5000025749208,2|8,0:3|0:0,0:0:0:0:
328,33,63326,6,0,P|346:73|346:118,1,90,2|0,0:0|0:0,0:0:0:0:
0,214,63543,2,0,P|27:165|74:136,1,112.5,12|0,0:0|0:0,0:0:0:0:
303,220,63760,70,0,B|420:257|380:155|521:209,1,202.500007724762,6|8,0:0|1:2,0:0:0:0:
495,200,64095,1,0,0:0:0:0:
458,382,64207,2,0,L|453:281,1,101.250003862381,2|0,0:0|0:0,0:0:0:0:
339,36,64431,2,0,L|344:138,1,101.250003862381,8|0,1:2|0:0,0:0:0:0:
222,375,64655,6,0,P|124:368|67:287,1,202.500007724762,2|10,0:0|1:2,0:0:0:0:
67,287,64991,1,0,0:0:0:0:
221,184,65103,2,0,P|209:232|177:271,1,101.250003862381,2|2,0:0|0:0,0:0:0:0:
54,102,65327,2,0,P|102:87|151:96,1,101.250003862381,8|2,1:2|0:0,0:0:0:0:
293,269,65551,102,0,B|342:283|342:283|395:262,1,101.250003862381,2|2,0:0|0:0,0:0:0:0:
435,51,65774,2,0,B|386:37|386:37|339:55,1,101.250003862381,8|0,1:2|0:0,0:0:0:0:
129,206,65998,2,0,B|211:199|211:199|237:168|237:168|317:162,1,202.500007724762,2|10,0:0|1:2,0:0:0:0:
316,162,66324,1,0,0:0:0:0:
158,11,66432,6,0,L|164:113,1,101.250003862381,2|0,0:0|0:0,0:0:0:0:
28,252,66650,2,0,L|22:150,1,101.250003862381,8|2,1:2|0:0,0:0:0:0:
269,57,66867,2,0,L|264:159,1,101.250003862381,2|0,0:0|0:0,0:0:0:0:
123,307,67096,2,0,L|128:205,1,101.250003862381,8|0,1:2|0:0,0:0:0:0:
364,1,67325,102,0,L|369:103,1,101.250003862381,2|0,0:0|0:0,0:0:0:0:
469,213,67545,2,0,B|505:177|505:177|513:126,1,101.250003862381,10|0,1:2|0:0,0:0:0:0:
279,222,67766,2,0,B|238:190|238:190|226:140,1,101.250003862381,2|0,0:0|0:0,0:0:0:0:
364,1,67986,2,0,L|369:103,1,101.250003862381,10|0,1:2|0:0,0:0:0:0:
431,335,68207,6,0,P|383:348|333:340,1,101.250003862381,2|0,0:0|0:0,0:0:0:0:
39,218,68427,2,0,P|87:204|137:213,1,101.250003862381,10|0,1:2|0:0,0:0:0:0:
183,313,68648,2,0,L|172:110,1,202.500007724762,2|8,0:0|1:2,0:0:0:0:
172,110,68983,1,0,0:0:0:0:
275,70,69095,102,0,L|271:159,1,90,2|0,0:0|0:0,0:0:0:0:
367,232,69320,2,0,L|369:210,1,22.5,8|0,1:2|0:0,0:0:0:0:
168,20,69546,6,0,L|171:109,1,90,2|0,0:0|0:0,0:0:0:0:
75,183,69771,2,0,L|73:160,1,22.5,8|0,1:2|0:0,0:0:0:0:
465,0,69997,102,0,P|419:12|373:56,1,112.5,2|0,0:0|0:0,0:0:0:0:
351,291,70222,2,0,L|353:269,1,22.5,8|0,1:2|0:0,0:0:0:0:
263,0,70448,6,0,P|250:45|265:106,1,112.5,10|0,1:2|0:0,0:0:0:0:
469,341,70673,2,0,L|463:221,1,112.5,10|0,1:2|0:0,0:0:0:0:
3,166,70899,102,0,B|117:131|77:233|192:187,1,202.500007724762,6|8,0:0|1:2,0:0:0:0:
192,187,71232,1,0,0:0:0:0:
46,344,71343,2,0,P|31:295|42:247,1,101.250003862381,2|0,0:0|0:0,0:0:0:0:
147,3,71565,2,0,L|150:104,1,101.250003862381,8|0,1:2|0:0,0:0:0:0:
165,297,71787,6,0,B|244:301|244:301|270:332|270:332|352:336,1,202.500007724762,2|8,0:0|1:2,0:0:0:0:
352,336,72121,1,0,0:0:0:0:
417,238,72232,2,0,L|316:242,1,101.250003862381,2|0,0:0|0:0,0:0:0:0:
201,68,72454,2,0,L|303:65,1,101.250003862381,10|0,1:2|0:0,0:0:0:0:
498,287,72676,102,0,B|448:276|448:276|416:237,1,101.250003862381,2|0,0:0|0:0,0:0:0:0:
399,95,72899,1,10,1:2:0:0:
292,281,73011,2,0,B|275:232|275:232|292:185,1,101.250003862381,0|2,0:0|0:0,0:0:0:0:
401,0,73235,2,0,B|417:48|417:48|399:95,1,101.250003862381,2|10,0:0|1:2,0:0:0:0:
334,371,73459,6,0,B|224:408|251:318|140:351,1,202.500007724762,2|0,0:0|0:0,0:0:0:0:
141,350,73795,2,0,P|137:323|139:295,1,56.25,8|0,1:2|0:0,0:0:0:0:
205,114,74019,102,0,P|174:88|137:77,1,78.7500007510185,2|0,0:0|0:0,0:0:0:0:
42,237,74243,2,0,P|75:200|123:185,1,101.250003862381,10|0,1:2|0:0,0:0:0:0:
334,70,74488,6,0,L|330:148,1,78.7500007510185,8|0,1:2|0:0,0:0:0:0:
438,279,74715,2,0,L|441:200,1,78.7500007510185,2|8,0:0|1:2,0:0:0:0:
232,27,74942,2,0,L|228:105,1,78.7500007510185,2|0,0:0|0:0,0:0:0:0:
445,284,75159,2,0,L|448:206,1,78.7500007510185,8|0,1:2|0:0,0:0:0:0:
124,0,75376,102,0,L|126:56,1,56.25,2|0,0:0|0:0,0:0:0:0:
141,384,75603,2,0,L|137:274,1,101.250003862381,2|0,0:0|0:0,0:0:0:0:
304,228,75830,6,0,B|209:222|209:222|185:191|185:191|80:184,1,225,12|2,0:0|0:0,0:0:0:0:
3,180,76171,1,0,0:0:0:0:
218,0,76285,102,0,P|230:24|234:52,1,56.25,12|0,0:0|0:0,0:0:0:0:
334,98,76508,2,0,P|318:121|296:138,1,56.25,2|0,0:0|0:0,0:0:0:0:
28,256,76732,6,0,P|38:224|58:197,1,67.5000025749208,12|0,0:0|0:0,0:0:0:0:
25,65,76949,2,0,P|58:58|92:63,1,67.5000025749208,2|0,0:0|0:0,0:0:0:0:
422,374,77166,102,0,P|385:363|355:338,1,78.7500007510185,12|0,0:0|0:0,0:0:0:0:
175,381,77396,2,0,P|166:343|173:305,1,78.7500007510185,2|8,0:0|0:0,0:0:0:0:
512,139,77627,6,0,P|497:181|468:215,1,90,12|8,0:0|0:0,0:0:0:0:
173,304,77850,1,8,0:0:0:0:
255,0,77962,1,8,0:0:0:0:
89,310,78322,70,0,L|93:216,1,90,2|2,0:3|0:3,0:0:0:0:
175,289,79210,2,0,L|176:244,1,45,2|0,0:3|0:0,0:0:0:0:
259,269,79637,1,2,0:3:0:0:
44,181,79801,6,0,B|139:204|109:139|198:157,1,161.999995056153
198,157,80085,102,0,P|209:122|198:71,1,90,2|2,0:3|0:3,0:0:0:0:
134,9,81004,6,0,P|120:25|112:47,1,45,2|0,0:3|2:0,0:0:0:0:
198,71,81440,101,2,0:3:0:0:
286,91,81555,1,0,2:3:0:0:
296,91,81682,6,0,L|307:90,1,11.25,2|0,0:0|0:0,0:0:0:0:
393,65,81905,2,0,L|390:128,1,56.25,2|0,0:3|0:0,0:0:0:0:
296,91,82129,102,0,L|307:90,1,11.25,8|0,1:2|0:0,0:0:0:0:
479,31,82353,2,0,L|482:94,1,56.25,2|0,0:3|0:0,0:0:0:0:
379,235,82577,6,0,P|329:219|273:237,1,112.5,2|2,0:0|0:3,0:0:0:0:
231,308,82913,1,0,0:0:0:0:
148,312,83025,1,8,1:2:0:0:
141,314,83137,2,0,L|83:317,1,56.25,0|2,0:0|0:3,0:0:0:0:
273,236,83361,1,0,0:0:0:0:
231,163,83473,101,2,0:0:0:0:
231,163,83584,1,0,0:0:0:0:
231,163,83696,2,0,P|227:138|231:107,1,56.25,2|0,0:3|0:0,0:0:0:0:
346,40,83920,2,0,P|326:55|297:68,1,56.25,8|0,1:2|0:0,0:0:0:0:
181,1,84144,2,0,P|204:10|229:28,1,56.25,2|0,0:3|0:0,0:0:0:0:
313,164,84368,6,0,L|433:160,1,112.5,2|2,0:0|0:3,0:0:0:0:
502,122,84704,1,0,0:0:0:0:
498,205,84816,1,8,1:2:0:0:
497,212,84927,2,0,L|494:270,1,56.25,0|2,0:0|0:3,0:0:0:0:
430,74,85149,1,2,0:0:0:0:
269,236,85260,101,8,1:2:0:0:
269,236,85611,86,0,L|230:239,1,22.5,2|0,0:0|0:0,0:0:0:0:
234,244,85834,2,0,L|282:241,1,45,2|0,0:0|0:0,0:0:0:0:
369,237,86051,1,2,0:0:0:0:
360,84,86149,6,0,P|331:119|319:162,1,90,2|0,0:0|0:0,0:0:0:0:
330,384,86372,102,0,L|327:309,1,67.5000025749208,2|0,0:0|0:0,0:0:0:0:
241,375,86596,2,0,L|239:330,1,45,2|0,0:0|0:0,0:0:0:0:
152,357,86820,1,2,0:0:0:0:
171,52,87037,5,8,3:2:0:0:
171,52,87119,2,0,L|167:111,1,60,0|0,3:2|3:2,0:2:0:0:
159,107,87395,1,2,3:2:0:0:
159,107,87451,2,0,L|161:133,1,22.5,8|2,3:2|3:2,0:0:0:0:
512,0,87715,102,0,B|459:19|437:42|428:89|436:109|475:133|509:146|522:166|522:218|459:273|418:263|366:250|348:173|347:125|401:100|473:120|521:91,1,540,6|0,3:2|0:0,2:0:0:0:
