osu file format v14

[General]
AudioFilename: audio.mp3
AudioLeadIn: 0
PreviewTime: 63328
Countdown: 0
SampleSet: Soft
StackLeniency: 0.4
Mode: 0
LetterboxInBreaks: 0
WidescreenStoryboard: 1

[Editor]
DistanceSpacing: 1.2
BeatDivisor: 4
GridSize: 32
TimelineZoom: 1.7

[Metadata]
Title:Wild Side (TV Size)
TitleUnicode:Wild Side (TV Size)
Artist:ALI
ArtistUnicode:ALI
Creator:Ducky-
Version:Hard
Source:BEASTARS
Tags:ビースターズ BST BAND Version Alien Liberty International Jazz Anime Japanese English French Opening OP -Eresh Vgogetto
BeatmapID:2564747
BeatmapSetID:1233752

[Difficulty]
HPDrainRate:4
CircleSize:3.5
OverallDifficulty:7
ApproachRate:8
SliderMultiplier:1.5
SliderTickRate:1

[Events]
//Background and Video events
0,0,"cyclone1.jpg",0,0
Video,-500,"video.mp4"
//Break Periods
2,4038,10199
2,78169,80932
//Storyboard Layer 0 (Background)
//Storyboard Layer 1 (Fail)
//Storyboard Layer 2 (Pass)
//Storyboard Layer 3 (Foreground)
//Storyboard Layer 4 (Overlay)
//Storyboard Sound Samples

[TimingPoints]
202,500,4,2,1,50,1,0
327,472.44094488189,4,2,1,50,1,0
563,425.531914893617,4,2,1,50,1,0
775,447.761194029851,4,2,1,50,1,0
1222,419.58041958042,4,2,1,50,1,0
1641,428.571428571429,4,2,1,50,1,0
1855,495.867768595041,4,2,1,50,1,0
1978,431.654676258993,4,2,1,50,1,0
1978,-99.8003992015968,4,2,1,50,0,0
2409,465.116279069767,4,2,1,50,1,0
2641,483.870967741935,4,2,1,80,1,1
2641,-101.522842639594,4,2,1,80,0,1
3124,461.538461538462,4,2,1,80,1,1
3470,379.746835443038,4,2,1,80,1,1
3659,504.201680672269,4,2,1,80,1,0
4037,468.75,4,2,1,80,1,0
4505,413.793103448276,4,2,1,80,1,0
4918,508.474576271186,4,2,1,80,1,0
5299,427.046263345196,4,2,1,80,1,0
5512,434.782608695652,4,2,1,80,1,0
5838,419.58041958042,4,2,1,80,1,0
6257,431.654676258993,4,2,1,80,1,0
6688,487.80487804878,4,2,1,80,1,0
7053,465.116279069767,4,2,1,80,1,0
7285,413.793103448276,4,2,1,80,1,0
7595,434.782608695652,4,2,1,80,1,0
8029,441.176470588235,4,2,1,80,1,0
8470,517.241379310345,4,2,1,80,1,0
8857,454.545454545455,4,2,1,80,1,0
9084,413.793103448276,4,2,1,80,1,0
9394,428.571428571429,4,2,1,80,1,0
9822,437.956204379562,4,2,1,80,1,0
10259,512.820512820513,4,2,1,80,1,0
10643,425.531914893617,4,2,1,80,1,0
10855,392.156862745098,4,2,1,80,1,0
10953,447.761194029851,4,2,1,50,1,0
12296,425.531914893617,4,2,1,50,1,0
12721,447.761194029851,4,2,1,50,1,0
13616,442.80442804428,4,2,1,50,1,0
14501,437.956204379562,4,2,1,50,1,0
14938,447.761194029851,4,2,1,50,1,0
16281,447.761194029851,4,2,1,50,1,0
17624,461.538461538462,4,2,1,50,1,0
18085,447.761194029851,4,2,1,50,1,0
19876,454.545454545455,4,2,1,50,1,0
20330,447.761194029851,4,2,1,50,1,0
21673,444.444444444444,4,2,1,50,1,0
22561,451.127819548872,4,2,1,50,1,0
23463,449.438202247191,4,2,1,50,1,0
24811,434.782608695652,4,2,1,50,1,0
25245,461.538461538462,4,2,1,50,1,0
25706,444.444444444444,4,2,1,50,1,0
27039,447.761194029851,4,2,1,50,1,0
29725,434.782608695652,4,2,1,50,1,0
30594,468.75,4,2,1,50,1,0
31062,447.761194029851,4,2,1,50,1,0
31957,454.545454545455,4,2,1,50,1,0
32411,451.127819548872,4,2,1,50,1,0
33764,437.956204379562,4,2,1,50,1,0
34201,451.127819548872,4,2,1,50,1,0
35103,447.761194029851,4,2,1,50,1,0
35998,447.761194029851,4,2,1,50,1,0
38684,437.956204379562,4,2,1,50,1,0
39559,454.545454545455,4,2,1,50,1,0
41377,444.444444444444,4,2,1,50,1,0
42265,447.761194029851,4,2,1,50,1,0
43160,451.127819548872,4,2,1,50,1,0
44513,434.782608695652,4,2,1,50,1,0
44947,447.761194029851,4,2,1,50,1,0
46514,413.793103448276,4,2,1,50,1,0
46720,476.190476190476,4,2,1,50,1,0
46839,461.538461538462,4,2,1,50,1,0
47069,421.052631578947,4,2,1,50,1,0
47069,-104.166666666667,4,2,1,50,0,0
47174,441.176470588235,4,2,1,50,1,0
47394,461.538461538462,4,2,1,50,1,0
47740,387.096774193548,4,2,1,50,1,0
47836,545.454545454546,4,2,1,50,1,0
47972,422.535211267606,4,2,1,50,1,0
48183,447.761194029851,4,2,1,50,1,0
48406,444.444444444444,4,2,1,50,1,0
48850,500,4,2,1,50,1,0
49100,422.535211267606,4,2,1,50,1,0
49205,434.782608695652,4,2,1,50,1,0
49422,461.538461538462,4,2,1,50,1,0
50114,437.956204379562,4,2,1,50,1,0
50332,444.444444444444,4,2,1,50,1,0
51220,447.761194029851,4,2,1,50,1,0
54354,437.956204379562,4,2,1,50,1,0
54791,446.927374301676,4,2,1,50,1,0
56578,447.761194029851,4,2,1,50,1,0
57921,461.538461538462,4,2,1,50,1,0
58382,447.761194029851,4,2,1,50,1,0
60173,434.782608695652,4,2,1,50,1,0
60607,468.75,4,2,1,50,1,0
61075,444.444444444444,4,2,1,50,1,0
61963,447.761194029851,4,2,1,50,1,0
62858,468.75,4,2,1,50,1,0
63326,434.782608695652,4,2,1,70,1,0
63326,-90.9090909090909,4,2,1,70,0,0
63760,447.761194029851,4,2,1,70,1,1
63760,-83.3333333333333,4,2,1,70,0,1
65998,434.782608695652,4,2,1,80,1,1
66867,458.015267175573,4,2,1,80,1,1
67325,441.176470588235,4,2,1,80,1,1
67325,-83.3333333333333,4,2,1,80,0,1
67766,-100,4,2,1,80,0,1
68648,447.761194029851,4,2,1,80,1,1
68648,-80.6451612903226,4,2,1,80,0,1
69095,451.127819548872,4,2,1,80,1,1
69095,-83.3333333333333,4,2,1,80,0,1
70448,-100,4,2,1,80,0,1
70899,444.444444444444,4,2,1,80,1,1
70899,-83.3333333333333,4,2,1,80,0,1
72676,447.761194029851,4,2,1,80,1,1
72676,-83.3333333333333,4,2,1,80,0,1
73571,-80,4,2,1,80,0,1
74243,491.803278688525,4,2,1,80,1,1
74488,454.545454545455,4,2,1,80,1,1
74488,-83.3333333333333,4,2,1,80,0,1
74942,434.782608695652,4,2,1,80,1,1
75376,454.545454545455,4,2,1,80,1,1
75603,-80,4,2,1,80,0,1
76285,447.761194029851,4,2,1,80,1,1
76285,-83.3333333333333,4,2,1,80,0,1
76732,434.782608695652,4,2,1,80,1,1
77166,461.538461538462,4,2,1,80,1,1
77166,-104.166666666667,4,2,1,80,0,1
77627,447.761194029851,4,2,1,80,1,1
77962,480,4,2,1,80,1,0
78322,444.444444444444,4,2,1,80,1,0
79210,491.803278688525,4,2,1,80,1,0
79578,447.761194029851,4,2,1,80,1,0
79801,454.545454545455,4,2,1,80,1,0
80141,416.666666666667,4,2,1,80,1,0
80557,447.761194029851,4,2,1,80,1,0
81004,491.803278688525,4,2,1,80,1,0
81372,461.538461538462,4,2,1,80,1,0
81602,322.58064516129,4,2,1,80,1,0
81682,447.761194029851,4,2,1,60,1,0
84816,444.444444444444,4,2,1,60,1,0
85260,468.75,4,2,1,60,1,0
85611,447.761194029851,4,2,1,60,1,0
85834,434.782608695652,4,2,1,60,1,0
86051,394.736842105263,4,2,1,60,1,0
86051,-74.0740740740741,4,2,1,60,0,0
86149,447.761194029851,4,2,1,60,1,0
86820,434.782608695652,4,2,1,60,1,0
87037,495.867768595041,4,2,1,60,1,0
87037,-97.5609756097561,4,2,1,60,0,0
87284,363.636363636364,4,2,1,60,1,0
87465,500,4,2,1,60,1,0
87715,447.761194029851,4,2,1,60,1,0

[Colours]
Combo1 : 37,23,255
Combo2 : 26,12,154

[HitObjects]
41,267,202,5,2,2:0:0:0:
41,267,327,1,0,2:0:0:0:
138,318,563,1,0,2:0:0:0:
223,257,775,1,2,2:0:0:0:
311,314,998,1,0,2:0:0:0:
390,272,1222,1,2,2:0:0:0:
390,272,1326,1,0,2:0:0:0:
403,226,1431,2,0,L|394:184,1,37.5,0|0,2:0|2:0,0:0:0:0:
432,166,1641,2,0,L|441:124,1,37.5,0|0,2:0|2:0,0:0:0:0:
431,91,1855,1,2,2:0:0:0:
399,50,1978,6,0,P|324:52|255:80,1,150.3507,8|8,2:0|2:0,2:0:0:0:
230,161,2641,2,0,B|130:148|-13:123|-13:123|29:152|38:168,1,311.13815,6|8,3:2|3:0,2:0:0:0:
37,373,10953,6,0,P|54:309|60:291,1,75,0|2,3:0|2:0,2:0:0:0:
133,253,11400,2,0,P|116:189|110:171,1,75,0|2,3:0|2:0,2:0:0:0:
161,96,11848,6,0,P|223:102|246:109,1,75,2|0,3:0|2:0,2:0:0:0:
270,143,12184,1,2,3:0:0:0:
270,143,12296,1,0,3:0:0:0:
244,229,12508,1,2,3:0:0:0:
306,281,12721,2,0,P|354:269|391:261,1,75,2|2,3:0|2:0,2:0:0:0:
456,214,13168,1,0,3:0:0:0:
456,214,13280,1,0,0:0:0:0:
456,214,13392,2,0,P|463:179|467:163,1,37.5,2|0,2:0|3:0,0:0:0:0:
458,132,13616,6,0,P|400:114|371:104,1,75,2|0,3:0|3:0,2:0:0:0:
333,43,14058,1,0,3:0:0:0:
333,43,14169,1,2,3:0:0:0:
333,43,14280,1,2,3:0:0:0:
290,122,14501,1,2,3:0:0:0:
222,62,14719,1,2,2:0:0:0:
152,130,14938,2,0,P|160:164|174:211,1,75,0|2,3:0|2:0,0:0:0:0:
142,287,15385,6,0,P|186:296|211:317,1,75,2|0,3:0|2:0,2:0:0:0:
271,380,15833,1,0,3:0:0:0:
271,380,15945,1,2,2:0:0:0:
271,380,16057,2,0,P|290:368|318:365,1,37.5,0|2,3:0|2:0,0:0:0:0:
343,342,16281,2,0,P|348:317|355:302,2,37.5,2|0|2,3:0|3:0|3:0,0:0:0:0:
426,376,16728,2,0,P|458:365|501:354,1,75,0|2,3:0|3:0,2:0:0:0:
459,266,17176,1,2,3:0:0:0:
459,266,17288,1,0,3:0:0:0:
459,266,17400,1,0,3:0:0:0:
410,189,17624,6,0,B|376:187|353:152|369:136|359:92|295:92,1,150,12|2,2:0|3:0,2:0:0:0:
281,179,18308,1,2,2:0:0:0:
225,108,18532,1,8,2:0:0:0:
177,184,18756,1,2,2:0:0:0:
122,106,18980,2,0,P|84:102|47:99,1,75,2|2,3:0|2:0,2:0:0:0:
0,175,19428,1,10,2:0:0:0:
85,204,19652,1,2,3:0:0:0:
57,276,19876,6,0,P|51:308|48:324,1,37.5,0|0,3:0|3:0,0:0:0:0:
87,337,20103,2,0,P|93:369|96:385,1,37.5,2|0,3:0|3:0,0:0:0:0:
138,381,20330,2,0,P|165:365|213:361,1,75,8|0,2:0|0:0,2:0:0:0:
303,304,20777,6,0,P|354:314|391:318,1,75,2|0,3:0|3:0,2:0:0:0:
420,306,21113,1,0,3:0:0:0:
420,306,21225,1,10,2:0:0:0:
461,226,21449,1,2,3:0:0:0:
404,146,21673,1,2,3:0:0:0:
350,218,21895,5,0,2:0:0:0:
350,218,22006,1,0,3:0:0:0:
350,218,22117,2,0,P|310:212|266:204,1,75,10|2,2:0|3:0,2:0:0:0:
251,168,22450,1,0,3:0:0:0:
251,168,22561,1,0,3:0:0:0:
187,232,22786,1,0,0:0:0:0:
125,160,23012,2,0,P|140:124|144:78,1,75,10|2,2:0|3:0,0:0:0:0:
208,21,23463,6,0,P|242:23|295:37,1,75,0|2,3:0|3:0,2:0:0:0:
311,66,23800,1,0,3:0:0:0:
311,66,23912,1,8,2:0:0:0:
259,140,24137,2,0,P|275:164|286:216,1,75,2|2,3:0|3:0,2:0:0:0:
348,273,24586,1,0,3:0:0:0:
295,346,24811,2,0,P|230:338|179:331,1,112.5,8|0,2:0|2:0,2:0:0:0:
150,358,25245,6,0,P|100:353|76:300,1,112.5,4|0,3:2|3:0,2:0:0:0:
100,263,25706,1,10,2:0:0:0:
137,238,25817,2,0,P|138:187|158:167,1,75,2|0,2:0|0:0,0:0:0:0:
194,153,26150,2,0,L|185:73,1,75,2|0,3:0|3:0,2:0:0:0:
266,37,26594,2,0,L|280:163,1,112.5,10|0,2:0|3:0,2:0:0:0:
360,186,27150,1,2,2:0:0:0:
332,274,27374,1,2,3:0:0:0:
332,274,27486,2,0,B|319:294|319:294|332:349,1,75,10|0,2:0|2:0,2:0:0:0:
254,377,27934,5,0,3:0:0:0:
219,294,28158,1,0,3:0:0:0:
141,351,28382,2,0,P|104:329|60:330,1,75,8|0,2:0|2:0,2:0:0:0:
26,250,28830,6,0,P|56:221|45:145,1,112.5,2|0,3:0|3:0,2:0:0:0:
25,124,29277,1,10,2:0:0:0:
8,82,29389,2,0,P|22:34|29:10,1,75,2|0,3:0|3:0,2:0:0:0:
73,20,29725,2,0,P|122:7|154:1,1,75,2|0,3:0|2:0,2:0:0:0:
208,64,30159,2,0,P|237:75|283:90,1,75,8|0,2:0|2:0,2:0:0:0:
327,161,30594,2,0,P|384:153|406:151,1,75,2|0,3:0|2:0,2:0:0:0:
443,192,30945,1,2,3:0:0:0:
443,192,31062,2,0,P|434:237|421:275,1,75,10|0,2:0|3:0,2:0:0:0:
390,337,31509,5,0,3:0:0:0:
318,282,31733,1,0,2:0:0:0:
254,346,31957,2,0,P|212:340|169:336,1,75,8|0,2:0|2:0,2:0:0:0:
117,263,32411,6,0,P|143:224|153:194,1,75,2|0,3:0|2:0,2:0:0:0:
133,156,32749,1,0,3:0:0:0:
104,121,32862,2,0,P|107:69|127:37,1,75,10|0,2:0|2:0,0:0:0:0:
199,11,33313,2,0,P|232:25|279:42,1,75,2|0,3:0|3:0,2:0:0:0:
312,117,33764,2,0,P|347:112|397:103,1,75,10|0,2:0|2:0,2:0:0:0:
422,78,34092,1,2,3:0:0:0:
458,54,34201,2,0,P|486:73|495:117,1,75,2|0,3:0|2:0,2:0:0:0:
482,154,34539,1,2,3:0:0:0:
465,196,34652,2,0,P|483:248|482:277,1,75,10|0,2:0|3:0,2:0:0:0:
414,326,35103,6,0,P|373:342|336:355,1,75,0|0,3:0|3:0,2:0:0:0:
288,282,35550,1,8,2:0:0:0:
229,350,35774,1,0,3:0:0:0:
191,326,35886,1,0,3:0:0:0:
168,287,35998,2,0,P|176:264|180:240,3,37.5,2|2|2|2,3:0|2:0|3:0|3:0,0:0:0:0:
128,125,36669,2,0,P|151:117|175:113,3,37.5,2|2|2|2,2:0|2:0|3:0|3:0,0:0:0:0:
74,217,37341,5,8,2:0:0:0:
18,146,37565,1,0,3:0:0:0:
11,103,37677,1,0,3:0:0:0:
24,66,37789,2,0,P|66:56|112:53,1,75,2|0,3:0|3:0,2:0:0:0:
181,20,38236,2,0,P|218:23|254:32,1,75,10|0,2:0|3:0,2:0:0:0:
295,113,38684,2,0,P|332:109|368:100,1,75,2|0,3:0|3:0,2:0:0:0:
400,15,39121,2,0,P|436:24|473:27,1,75,10|0,2:0|3:0,2:0:0:0:
489,75,39450,1,0,3:0:0:0:
489,75,39559,5,6,3:2:0:0:
505,163,39786,1,0,3:0:0:0:
454,237,40013,1,8,2:0:0:0:
486,331,40240,1,2,2:0:0:0:
486,331,40354,1,2,3:0:0:0:
486,331,40468,1,0,3:0:0:0:
407,375,40695,1,2,3:0:0:0:
368,288,40922,6,0,P|325:286|281:274,1,75,10|0,2:0|2:0,2:0:0:0:
255,199,41377,2,0,P|298:197|342:185,1,75,0|2,3:0|3:0,2:0:0:0:
363,160,41710,1,0,2:0:0:0:
363,160,41821,2,0,P|377:102|381:74,1,75,10|2,2:0|2:0,2:0:0:0:
309,23,42265,1,0,3:0:0:0:
254,93,42488,1,2,3:0:0:0:
171,56,42712,6,0,P|148:68|95:80,1,75,10|0,2:0|3:0,0:0:0:0:
66,109,43048,1,0,2:0:0:0:
66,109,43160,2,0,P|74:151|83:199,1,75,0|2,3:0|2:0,2:0:0:0:
45,266,43611,1,10,2:0:0:0:
113,340,43836,1,2,3:0:0:0:
113,340,43949,1,2,3:0:0:0:
113,340,44062,2,0,L|200:320,1,75,0|2,3:0|3:0,2:0:0:0:
276,316,44513,1,10,2:0:0:0:
353,361,44730,1,0,2:0:0:0:
436,320,44947,6,0,P|456:265|464:234,1,75,0|2,3:0|3:0,2:0:0:0:
440,208,45282,1,0,2:0:0:0:
440,208,45394,1,10,2:0:0:0:
469,123,45618,1,2,3:0:0:0:
469,123,45730,1,2,3:0:0:0:
469,123,45842,1,2,3:0:0:0:
412,53,46066,1,2,3:0:0:0:
347,117,46290,2,0,P|297:115|264:104,1,75.335,10|0,2:0|3:0,2:0:0:0:
218,43,46720,6,0,P|186:51|165:54,1,37.5,0|8,3:0|2:0,0:0:0:0:
82,116,47069,2,0,P|114:124|135:127,1,35.9736,8|0,2:0|3:0,0:0:0:0:
194,190,47394,2,0,B|223:184,2,25,0|0|0,3:0|3:0|3:0,0:0:0:0:
169,220,47624,1,2,3:0:0:0:
169,220,47740,1,6,3:2:0:0:
224,301,47972,1,6,3:2:0:0:
313,307,48183,1,6,3:2:0:0:
390,260,48406,6,0,P|399:232|399:212,1,37.5,10|8,2:0|2:0,0:0:0:0:
393,189,48628,1,10,2:0:0:0:
393,189,48739,1,10,2:0:0:0:
393,189,48850,1,6,3:2:0:0:
502,111,49100,2,0,L|454:97,1,37.5,8|8,2:0|2:0,0:0:0:0:
417,31,49422,1,4,3:2:0:0:
356,97,49652,6,0,P|304:107|270:117,1,75,2|2,2:0|3:0,0:0:0:0:
237,191,50114,1,2,2:0:0:0:
185,117,50332,2,0,P|148:107|111:101,1,75,2|2,3:0|2:0,0:0:0:0:
56,172,50776,1,2,3:0:0:0:
54,262,50998,1,2,2:0:0:0:
113,326,51220,2,0,B|208:315|154:380|258:372,1,150,2|0,3:0|3:0,2:0:0:0:
331,340,51891,5,2,2:0:0:0:
287,260,52115,1,2,3:0:0:0:
351,197,52339,1,2,2:0:0:0:
305,122,52563,1,2,3:0:0:0:
352,45,52787,1,2,2:0:0:0:
434,84,53011,2,0,B|480:115|480:115|459:161|454:217,1,150,2|0,3:0|3:0,0:0:0:0:
498,285,53682,1,2,2:0:0:0:
498,285,53794,1,2,2:0:0:0:
498,285,53906,2,0,P|445:296|413:310,1,75,2|2,3:0|2:0,2:0:0:0:
356,361,54354,2,0,P|312:350|269:348,1,75,2|0,3:0|2:0,2:0:0:0:
194,369,54791,6,0,B|167:351|167:351|192:225,1,150,2|0,3:0|3:0,0:0:0:0:
344,162,55684,2,0,P|302:155|287:50,1,150,2|2,3:0|3:0,2:0:0:0:
99,38,56578,1,2,3:0:0:0:
156,106,56801,1,2,2:0:0:0:
99,176,57025,2,0,P|80:220|75:256,1,75,2|2,3:0|2:0,0:0:0:0:
127,319,57473,2,0,P|167:313|213:308,1,75,2|2,3:0|2:0,0:0:0:0:
273,363,57921,2,0,P|331:356|352:351,1,75,2|0,3:0|2:0,2:0:0:0:
418,295,58382,6,0,B|395:210|482:239|446:152,1,150,2|0,3:0|3:0,0:0:0:0:
372,111,59053,1,2,2:0:0:0:
372,111,59277,2,0,P|345:105|287:95,1,75,2|2,3:0|2:0,2:0:0:0:
248,171,59725,2,0,P|211:177|174:185,1,75,2|2,3:0|2:0,2:0:0:0:
122,112,60173,6,0,B|102:95|102:95|46:120|51:207,1,149.785,2|0,3:0|3:0,2:0:0:0:
103,270,60841,1,2,2:0:0:0:
185,234,61075,2,0,P|225:242|270:259,1,75,2|2,3:0|2:0,0:0:0:0:
331,312,61519,1,2,3:0:0:0:
427,300,61741,1,2,2:0:0:0:
482,229,61963,6,0,P|483:170|464:111,1,112.5,2|0,3:0|0:0,0:0:0:0:
439,88,62410,2,0,P|359:70|315:61,1,112.5,2|0,3:0|0:0,0:0:0:0:
284,65,62858,1,2,3:0:0:0:
223,131,63092,1,8,2:0:0:0:
152,60,63326,6,0,P|117:54|106:53,1,41.25,2|0,3:0|2:0,2:0:0:0:
69,80,63543,2,0,P|48:82|28:86,1,41.25,10|0,2:0|2:0,2:0:0:0:
15,144,63760,6,0,P|35:199|43:248,1,89.9999972534181,6|8,3:2|2:0,2:0:0:0:
114,281,64207,2,0,P|123:237|140:195,1,89.9999972534181,2|8,3:0|2:0,2:0:0:0:
159,175,64543,1,2,2:0:0:0:
203,166,64655,2,0,P|250:172|303:184,1,89.9999972534181,2|8,3:0|2:0,2:0:0:0:
365,259,65103,1,2,3:0:0:0:
461,210,65327,1,10,2:0:0:0:
403,127,65551,6,0,P|421:77|441:29,2,90,2|10|2,3:0|2:0|3:0,2:0:0:0:
307,177,66215,1,8,2:0:0:0:
252,178,66324,1,2,3:0:0:0:
214,216,66432,1,2,3:0:0:0:
269,308,66650,2,0,P|265:338|258:360,1,37.5,8|0,2:0|2:0,2:0:0:0:
220,370,66867,2,0,P|190:366|168:359,1,37.5,0|0,3:0|2:0,2:0:0:0:
135,384,67096,1,10,2:0:0:0:
75,270,67325,6,0,P|79:220|90:164,1,90,2|10,3:0|2:0,2:0:0:0:
24,91,67766,2,0,P|28:41|39:-15,1,75,2|10,3:0|2:0,2:0:0:0:
122,70,68207,1,2,3:0:0:0:
221,34,68427,1,10,2:0:0:0:
268,127,68648,2,0,P|306:138|315:227,1,139.5,2|0,3:0|2:0,2:0:0:0:
292,258,69095,6,0,P|346:280|431:305,1,135,6|0,3:2|2:0,2:0:0:0:
465,329,69546,2,0,P|464:270|478:174,1,135,4|0,3:2|2:0,2:0:0:0:
508,150,69997,1,4,3:2:0:0:
474,66,70222,1,8,2:0:0:0:
405,123,70448,2,0,L|367:117,1,37.5,10|8,2:0|2:0,0:0:0:0:
334,87,70673,1,2,3:0:0:0:
243,13,70899,6,0,P|208:27|158:53,1,90,4|8,3:2|2:0,2:0:0:0:
184,153,71343,2,0,P|219:167|269:193,1,90,2|8,3:0|2:0,2:0:0:0:
300,232,71676,1,0,2:0:0:0:
273,279,71787,2,0,P|233:318|223:354,1,90,2|8,3:0|2:0,2:0:0:0:
145,303,72232,1,2,3:0:0:0:
83,367,72454,1,10,2:0:0:0:
8,306,72676,6,0,L|32:204,1,90,2|10,3:0|2:0,2:0:0:0:
133,193,73123,1,2,3:0:0:0:
169,152,73235,2,0,P|186:117|179:61,1,90,0|2,3:0|2:0,0:0:0:0:
214,21,73571,2,0,P|264:31|302:10,1,93.75,2|8,3:0|2:0,2:0:0:0:
387,27,74019,1,0,3:0:0:0:
355,108,74243,1,10,2:0:0:0:
417,179,74488,6,0,P|461:183|503:199,2,89.943,6|10|2,3:2|2:0|3:0,2:0:0:0:
354,237,75159,1,2,3:0:0:0:
418,303,75376,1,14,2:0:0:0:
319,324,75603,2,0,P|296:328|277:342,1,46.875,2|0,3:0|0:0,2:0:0:0:
253,371,75830,2,0,P|183:352|114:341,1,140.625,14|0,2:0|2:0,2:0:0:0:
68,354,76285,6,0,P|34:324|51:241,1,135,12|0,2:0|2:0,2:0:0:0:
91,206,76732,2,0,P|99:153|121:96,1,112.5,12|0,2:0|2:0,2:0:0:0:
147,76,77166,2,0,P|189:96|258:113,1,108,12|0,2:0|2:0,2:0:0:0:
289,90,77627,1,8,2:0:0:0:
333,90,77738,1,8,2:0:0:0:
371,113,77850,1,8,2:0:0:0:
387,151,77962,1,8,2:0:0:0:
482,33,81682,6,0,P|481:71|473:113,1,75,2|2,3:0|2:0,2:0:0:0:
408,166,82129,2,0,P|409:204|421:250,1,75,8|2,2:0|2:0,2:0:0:0:
449,279,82465,1,0,3:0:0:0:
449,279,82577,1,2,3:0:0:0:
377,333,82801,2,0,P|383:358|390:384,2,37.5,0|0|10,2:0|3:0|2:0,0:0:0:0:
342,303,83137,1,0,2:0:0:0:
342,303,83249,1,2,3:0:0:0:
255,327,83473,6,0,P|212:309|180:300,1,75,2|2,3:0|2:0,2:0:0:0:
137,224,83920,2,0,P|180:206|212:197,1,75,8|2,2:0|2:0,2:0:0:0:
250,213,84256,1,0,3:0:0:0:
250,213,84368,1,2,3:0:0:0:
309,145,84592,1,2,2:0:0:0:
249,77,84816,2,0,P|272:48|265:9,1,75,8|2,2:0|3:0,2:0:0:0:
177,27,85260,1,4,3:2:0:0:
94,135,85611,5,10,2:0:0:0:
176,168,85834,1,10,2:0:0:0:
117,236,86051,2,0,P|110:260|106:281,1,50.3070008225441,10|2,2:0|3:0,0:0:0:0:
169,332,86372,1,2,3:0:0:0:
247,287,86596,1,10,2:0:0:0:
317,350,86820,1,2,3:0:0:0:
317,350,87037,2,0,B|403:361|381:306|460:327|460:327|446:279|455:259,1,210.3474375,8|6,2:0|3:2,0:0:0:0:
