osu file format v14

[General]
AudioFilename: audio.mp3
AudioLeadIn: 0
PreviewTime: 114163
Countdown: 0
SampleSet: Soft
StackLeniency: 0.7
Mode: 0
LetterboxInBreaks: 0
EpilepsyWarning: 1
WidescreenStoryboard: 0

[Editor]
DistanceSpacing: 1.4
BeatDivisor: 6
GridSize: 8
TimelineZoom: 1.4

[Metadata]
Title:Wild Side
TitleUnicode:Wild Side
Artist:ALI
ArtistUnicode:ALI
Creator:Revolver
Version:Normal
Source:BEASTARS
Tags:ビースターズ anime opening op full version furry alien liberty international 2019 jazz rap hip hop studio orange netflix paru itagaki anime opening op full version japanese english french alien liberty international gouhin fieryrage venerablenyanta storyboard
BeatmapID:3416967
BeatmapSetID:1672763

[Difficulty]
HPDrainRate:3
CircleSize:3
OverallDifficulty:5
ApproachRate:6
SliderMultiplier:1.3
SliderTickRate:1

[Events]
//Background and Video events
0,0,"a2.png",0,0
//Break Periods
2,4363,10248
2,61447,74187
2,114279,126826
2,143170,145421
//Storyboard Layer 0 (Background)
//Storyboard Layer 1 (Fail)
//Storyboard Layer 2 (Pass)
//Storyboard Layer 3 (Foreground)
Sprite,Foreground,Centre,"sb\px.png",486,253 R,0,146541,,-0.247 C,0,146541,,209,209,201 V,0,146541,,2,620 P,0,146541,,A F,2,146541,146961,0.1
Sprite,Foreground,Centre,"sb\px.png",481,235 R,0,146541,,-0.289 C,0,146541,,209,209,201 V,0,146541,,2,620 P,0,146541,,A F,2,146541,146961,0.1
Sprite,Foreground,Centre,"sb\px.png",353,273 R,0,146982,,-0.205 C,0,146982,,209,209,201 V,0,146982,,2,620 P,0,146982,,A F,2,146982,147409,0.1
Sprite,Foreground,Centre,"sb\px.png",334,268 R,0,146982,,-0.307 C,0,146982,,209,209,201 V,0,146982,,2,620 P,0,146982,,A F,2,146982,147409,0.1
Sprite,Foreground,Centre,"sb\px.png",244,178 R,0,147436,,-0.204 C,0,147436,,209,209,201 V,0,147436,,2,620 P,0,147436,,A F,2,147436,147636,0.1
Sprite,Foreground,Centre,"sb\px.png",226,189 R,0,147436,,-0.201 C,0,147436,,209,209,201 V,0,147436,,2,620 P,0,147436,,A F,2,147436,147636,0.1
Sprite,Foreground,Centre,"sb\px.png",162,136 R,0,147663,,-0.237 C,0,147663,,209,209,201 V,0,147663,,2,620 P,0,147663,,A F,2,147663,147863,0.1
Sprite,Foreground,Centre,"sb\px.png",167,156 R,0,147663,,-0.394 C,0,147663,,209,209,201 V,0,147663,,2,620 P,0,147663,,A F,2,147663,147863,0.1
Sprite,Foreground,Centre,"sb\px.png",106,216 R,0,147891,,-0.214 C,0,147891,,209,209,201 V,0,147891,,2,620 P,0,147891,,A F,2,147891,148314,0.1
Sprite,Foreground,Centre,"sb\px.png",106,217 R,0,147891,,-0.384 C,0,147891,,209,209,201 V,0,147891,,2,620 P,0,147891,,A F,2,147891,148314,0.1
Sprite,Foreground,Centre,"sb\px.png",128,363 R,0,148338,,-0.341 C,0,148338,,209,209,201 V,0,148338,,2,620 P,0,148338,,A F,2,148338,148767,0.1
Sprite,Foreground,Centre,"sb\px.png",152,369 R,0,148338,,-0.248 C,0,148338,,209,209,201 V,0,148338,,2,620 P,0,148338,,A F,2,148338,148767,0.1
Sprite,Foreground,Centre,"sb\px.png",275,379 R,0,148796,,-0.332 C,0,148796,,209,209,201 V,0,148796,,2,620 P,0,148796,,A F,2,148796,149216,0.1
Sprite,Foreground,Centre,"sb\px.png",303,383 R,0,148796,,-0.257 C,0,148796,,209,209,201 V,0,148796,,2,620 P,0,148796,,A F,2,148796,149216,0.1
Sprite,Foreground,Centre,"sb\px.png",426,359 R,0,149237,,-0.219 C,0,149237,,209,209,201 V,0,149237,,2,620 P,0,149237,,A F,2,149237,149437,0.1
Sprite,Foreground,Centre,"sb\px.png",446,361 R,0,149237,,-0.309 C,0,149237,,209,209,201 V,0,149237,,2,620 P,0,149237,,A F,2,149237,149437,0.1
Sprite,Foreground,Centre,"sb\px.png",474,279 R,0,149460,,-0.318 C,0,149460,,209,209,201 V,0,149460,,2,620 P,0,149460,,A F,2,149460,149660,0.1
Sprite,Foreground,Centre,"sb\px.png",491,291 R,0,149460,,-0.303 C,0,149460,,209,209,201 V,0,149460,,2,620 P,0,149460,,A F,2,149460,149660,0.1
Sprite,Foreground,Centre,"sb\px.png",470,203 R,0,149684,,-0.235 C,0,149684,,209,209,201 V,0,149684,,2,620 P,0,149684,,A F,2,149684,150309,0.1
Sprite,Foreground,Centre,"sb\px.png",487,202 R,0,149684,,-0.265 C,0,149684,,209,209,201 V,0,149684,,2,620 P,0,149684,,A F,2,149684,150309,0.1
Sprite,Foreground,Centre,"sb\px.png",240,99 R,0,150460,,-0.221 C,0,150460,,209,209,201 V,0,150460,,2,620 P,0,150460,,A F,2,150460,150900,0.1
Sprite,Foreground,Centre,"sb\px.png",248,95 R,0,150460,,-0.233 C,0,150460,,209,209,201 V,0,150460,,2,620 P,0,150460,,A F,2,150460,150900,0.1
Sprite,Foreground,Centre,"sb\px.png",256,262 R,0,150905,,-0.235 C,0,150905,,209,209,201 V,0,150905,,2,620 P,0,150905,,A F,2,150905,151238,0.1
Sprite,Foreground,Centre,"sb\px.png",257,272 R,0,150905,,-0.304 C,0,150905,,209,209,201 V,0,150905,,2,620 P,0,150905,,A F,2,150905,151238,0.1
Sprite,Foreground,Centre,"sb\px.png",286,397 R,0,151256,,-0.239 C,0,151256,,209,209,201 V,0,151256,,2,620 P,0,151256,,A F,2,151256,151456,0.1
Sprite,Foreground,Centre,"sb\px.png",270,397 R,0,151256,,-0.257 C,0,151256,,209,209,201 V,0,151256,,2,620 P,0,151256,,A F,2,151256,151456,0.1
Sprite,Foreground,Centre,"sb\px.png",347,364 R,0,151475,,-0.363 C,0,151475,,209,209,201 V,0,151475,,2,620 P,0,151475,,A F,2,151475,151905,0.1
Sprite,Foreground,Centre,"sb\px.png",358,353 R,0,151475,,-0.335 C,0,151475,,209,209,201 V,0,151475,,2,620 P,0,151475,,A F,2,151475,151905,0.1
Sprite,Foreground,Centre,"sb\px.png",519,374 R,0,151903,,-0.234 C,0,151903,,209,209,201 V,0,151903,,2,620 P,0,151903,,A F,2,151903,152557,0.1
Sprite,Foreground,Centre,"sb\px.png",523,383 R,0,151903,,-0.248 C,0,151903,,209,209,201 V,0,151903,,2,620 P,0,151903,,A F,2,151903,152557,0.1
Sprite,Foreground,Centre,"sb\px.png",500,120 R,0,152559,,-0.296 C,0,152559,,209,209,201 V,0,152559,,2,620 P,0,152559,,A F,2,152559,152759,0.1
Sprite,Foreground,Centre,"sb\px.png",491,121 R,0,152559,,-0.343 C,0,152559,,209,209,201 V,0,152559,,2,620 P,0,152559,,A F,2,152559,152759,0.1
Sprite,Foreground,Centre,"sb\px.png",329,239 R,0,152670,,-0.363 C,0,152670,,209,209,201 V,0,152670,,2,620 P,0,152670,,A F,2,152670,153878,0.1
Sprite,Foreground,Centre,"sb\px.png",307,251 R,0,152670,,-0.262 C,0,152670,,209,209,201 V,0,152670,,2,620 P,0,152670,,A F,2,152670,153878,0.1
Sprite,Foreground,Centre,"sb\px.png",501,268 R,0,128583,,0.253 C,0,128583,,209,209,201 V,0,128583,,2,620 P,0,128583,,A F,2,128583,129234,0.1
Sprite,Foreground,Centre,"sb\px.png",496,250 R,0,128583,,0.211 C,0,128583,,209,209,201 V,0,128583,,2,620 P,0,128583,,A F,2,128583,129234,0.1
Sprite,Foreground,Centre,"sb\px.png",264,336 R,0,129377,,0.295 C,0,129377,,209,209,201 V,0,129377,,2,620 P,0,129377,,A F,2,129377,129920,0.1
Sprite,Foreground,Centre,"sb\px.png",245,331 R,0,129377,,0.193 C,0,129377,,209,209,201 V,0,129377,,2,620 P,0,129377,,A F,2,129377,129920,0.1
Sprite,Foreground,Centre,"sb\px.png",261,129 R,0,129936,,0.296 C,0,129936,,209,209,201 V,0,129936,,2,620 P,0,129936,,A F,2,129936,130136,0.1
Sprite,Foreground,Centre,"sb\px.png",243,140 R,0,129936,,0.299 C,0,129936,,209,209,201 V,0,129936,,2,620 P,0,129936,,A F,2,129936,130136,0.1
Sprite,Foreground,Centre,"sb\px.png",162,120 R,0,130152,,0.263 C,0,130152,,209,209,201 V,0,130152,,2,620 P,0,130152,,A F,2,130152,130352,0.1
Sprite,Foreground,Centre,"sb\px.png",167,140 R,0,130152,,0.106 C,0,130152,,209,209,201 V,0,130152,,2,620 P,0,130152,,A F,2,130152,130352,0.1
Sprite,Foreground,Centre,"sb\px.png",162,217 R,0,130384,,0.286 C,0,130384,,209,209,201 V,0,130384,,2,620 P,0,130384,,A F,2,130384,130807,0.1
Sprite,Foreground,Centre,"sb\px.png",162,218 R,0,130384,,0.116 C,0,130384,,209,209,201 V,0,130384,,2,620 P,0,130384,,A F,2,130384,130807,0.1
Sprite,Foreground,Centre,"sb\px.png",198,349 R,0,130831,,0.159 C,0,130831,,209,209,201 V,0,130831,,2,620 P,0,130831,,A F,2,130831,131031,0.1
Sprite,Foreground,Centre,"sb\px.png",222,355 R,0,130831,,0.252 C,0,130831,,209,209,201 V,0,130831,,2,620 P,0,130831,,A F,2,130831,131031,0.1
Sprite,Foreground,Centre,"sb\px.png",339,433 R,0,131167,,0.168 C,0,131167,,209,209,201 V,0,131167,,2,620 P,0,131167,,A F,2,131167,131702,0.1
Sprite,Foreground,Centre,"sb\px.png",367,437 R,0,131167,,0.243 C,0,131167,,209,209,201 V,0,131167,,2,620 P,0,131167,,A F,2,131167,131702,0.1
Sprite,Foreground,Centre,"sb\px.png",504,352 R,0,131727,,0.281 C,0,131727,,209,209,201 V,0,131727,,2,620 P,0,131727,,A F,2,131727,131927,0.1
Sprite,Foreground,Centre,"sb\px.png",524,354 R,0,131727,,0.191 C,0,131727,,209,209,201 V,0,131727,,2,620 P,0,131727,,A F,2,131727,131927,0.1
Sprite,Foreground,Centre,"sb\px.png",496,254 R,0,131951,,0.182 C,0,131951,,209,209,201 V,0,131951,,2,620 P,0,131951,,A F,2,131951,132151,0.1
Sprite,Foreground,Centre,"sb\px.png",513,266 R,0,131951,,0.197 C,0,131951,,209,209,201 V,0,131951,,2,620 P,0,131951,,A F,2,131951,132151,0.1
Sprite,Foreground,Centre,"sb\px.png",425,219 R,0,132175,,0.265 C,0,132175,,209,209,201 V,0,132175,,2,620 P,0,132175,,A F,2,132175,132602,0.1
Sprite,Foreground,Centre,"sb\px.png",442,218 R,0,132175,,0.235 C,0,132175,,209,209,201 V,0,132175,,2,620 P,0,132175,,A F,2,132175,132602,0.1
Sprite,Foreground,Centre,"sb\px.png",358,105 R,0,132629,,0.279 C,0,132629,,209,209,201 V,0,132629,,2,620 P,0,132629,,A F,2,132629,133056,0.1
Sprite,Foreground,Centre,"sb\px.png",366,101 R,0,132629,,0.267 C,0,132629,,209,209,201 V,0,132629,,2,620 P,0,132629,,A F,2,132629,133056,0.1
Sprite,Foreground,Centre,"sb\px.png",257,228 R,0,133084,,0.265 C,0,133084,,209,209,201 V,0,133084,,2,620 P,0,133084,,A F,2,133084,133284,0.1
Sprite,Foreground,Centre,"sb\px.png",258,238 R,0,133084,,0.196 C,0,133084,,209,209,201 V,0,133084,,2,620 P,0,133084,,A F,2,133084,133284,0.1
Sprite,Foreground,Centre,"sb\px.png",184,202 R,0,133307,,0.261 C,0,133307,,209,209,201 V,0,133307,,2,620 P,0,133307,,A F,2,133307,133507,0.1
Sprite,Foreground,Centre,"sb\px.png",168,202 R,0,133307,,0.243 C,0,133307,,209,209,201 V,0,133307,,2,620 P,0,133307,,A F,2,133307,133507,0.1
Sprite,Foreground,Centre,"sb\px.png",123,287 R,0,133531,,0.137 C,0,133531,,209,209,201 V,0,133531,,2,620 P,0,133531,,A F,2,133531,133954,0.1
Sprite,Foreground,Centre,"sb\px.png",134,276 R,0,133531,,0.165 C,0,133531,,209,209,201 V,0,133531,,2,620 P,0,133531,,A F,2,133531,133954,0.1
Sprite,Foreground,Centre,"sb\px.png",246,345 R,0,133979,,0.266 C,0,133979,,209,209,201 V,0,133979,,2,620 P,0,133979,,A F,2,133979,134620,0.1
Sprite,Foreground,Centre,"sb\px.png",250,354 R,0,133979,,0.252 C,0,133979,,209,209,201 V,0,133979,,2,620 P,0,133979,,A F,2,133979,134620,0.1
Sprite,Foreground,Centre,"sb\px.png",408,256 R,0,134640,,0.204 C,0,134640,,209,209,201 V,0,134640,,2,620 P,0,134640,,A F,2,134640,134840,0.1
Sprite,Foreground,Centre,"sb\px.png",399,257 R,0,134640,,0.157 C,0,134640,,209,209,201 V,0,134640,,2,620 P,0,134640,,A F,2,134640,134840,0.1
Sprite,Foreground,Centre,"sb\px.png",439,171 R,0,134861,,0.137 C,0,134861,,209,209,201 V,0,134861,,2,620 P,0,134861,,A F,2,134861,135284,0.1
Sprite,Foreground,Centre,"sb\px.png",417,183 R,0,134861,,0.238 C,0,134861,,209,209,201 V,0,134861,,2,620 P,0,134861,,A F,2,134861,135284,0.1
Sprite,Foreground,Centre,"sb\px.png",509,91 R,0,135308,,0.144 C,0,135308,,209,209,201 V,0,135308,,2,620 P,0,135308,,A F,2,135308,135508,0.1
Sprite,Foreground,Centre,"sb\px.png",518,65 R,0,135308,,0.28 C,0,135308,,209,209,201 V,0,135308,,2,620 P,0,135308,,A F,2,135308,135508,0.1
Sprite,Foreground,Centre,"sb\px.png",557,144 R,0,135532,,0.129 C,0,135532,,209,209,201 V,0,135532,,2,620 P,0,135532,,A F,2,135532,135732,0.1
Sprite,Foreground,Centre,"sb\px.png",540,160 R,0,135532,,0.29 C,0,135532,,209,209,201 V,0,135532,,2,620 P,0,135532,,A F,2,135532,135732,0.1
Sprite,Foreground,Centre,"sb\px.png",532,234 R,0,135756,,0.235 C,0,135756,,209,209,201 V,0,135756,,2,620 P,0,135756,,A F,2,135756,136407,0.1
Sprite,Foreground,Centre,"sb\px.png",535,236 R,0,135756,,0.223 C,0,135756,,209,209,201 V,0,135756,,2,620 P,0,135756,,A F,2,135756,136407,0.1
Sprite,Foreground,Centre,"sb\px.png",551,379 R,0,136319,,0.27 C,0,136319,,209,209,201 V,0,136319,,2,620 P,0,136319,,A F,2,136319,136519,0.1
Sprite,Foreground,Centre,"sb\px.png",552,377 R,0,136319,,0.24 C,0,136319,,209,209,201 V,0,136319,,2,620 P,0,136319,,A F,2,136319,136519,0.1
Sprite,Foreground,Centre,"sb\px.png",501,445 R,0,136545,,0.177 C,0,136545,,209,209,201 V,0,136545,,2,620 P,0,136545,,A F,2,136545,137083,0.1
Sprite,Foreground,Centre,"sb\px.png",488,424 R,0,136545,,0.201 C,0,136545,,209,209,201 V,0,136545,,2,620 P,0,136545,,A F,2,136545,137083,0.1
Sprite,Foreground,Centre,"sb\px.png",301,381 R,0,137109,,0.156 C,0,137109,,209,209,201 V,0,137109,,2,620 P,0,137109,,A F,2,137109,137309,0.1
Sprite,Foreground,Centre,"sb\px.png",300,405 R,0,137109,,0.222 C,0,137109,,209,209,201 V,0,137109,,2,620 P,0,137109,,A F,2,137109,137309,0.1
Sprite,Foreground,Centre,"sb\px.png",201,378 R,0,137331,,0.18 C,0,137331,,209,209,201 V,0,137331,,2,620 P,0,137331,,A F,2,137331,137531,0.1
Sprite,Foreground,Centre,"sb\px.png",226,359 R,0,137331,,0.239 C,0,137331,,209,209,201 V,0,137331,,2,620 P,0,137331,,A F,2,137331,137531,0.1
Sprite,Foreground,Centre,"sb\px.png",170,301 R,0,137553,,0.237 C,0,137553,,209,209,201 V,0,137553,,2,620 P,0,137553,,A F,2,137553,137975,0.1
Sprite,Foreground,Centre,"sb\px.png",169,282 R,0,137553,,0.136 C,0,137553,,209,209,201 V,0,137553,,2,620 P,0,137553,,A F,2,137553,137975,0.1
Sprite,Foreground,Centre,"sb\px.png",241,166 R,0,137997,,0.299 C,0,137997,,209,209,201 V,0,137997,,2,620 P,0,137997,,A F,2,137997,138308,0.1
Sprite,Foreground,Centre,"sb\px.png",240,160 R,0,137997,,0.152 C,0,137997,,209,209,201 V,0,137997,,2,620 P,0,137997,,A F,2,137997,138308,0.1
Sprite,Foreground,Centre,"sb\px.png",321,98 R,0,138332,,0.229 C,0,138332,,209,209,201 V,0,138332,,2,620 P,0,138332,,A F,2,138332,138867,0.1
Sprite,Foreground,Centre,"sb\px.png",311,110 R,0,138332,,0.115 C,0,138332,,209,209,201 V,0,138332,,2,620 P,0,138332,,A F,2,138332,138867,0.1
Sprite,Foreground,Centre,"sb\px.png",492,59 R,0,138892,,0.262 C,0,138892,,209,209,201 V,0,138892,,2,620 P,0,138892,,A F,2,138892,139092,0.1
Sprite,Foreground,Centre,"sb\px.png",496,72 R,0,138892,,0.21 C,0,138892,,209,209,201 V,0,138892,,2,620 P,0,138892,,A F,2,138892,139092,0.1
Sprite,Foreground,Centre,"sb\px.png",544,161 R,0,139116,,0.16 C,0,139116,,209,209,201 V,0,139116,,2,620 P,0,139116,,A F,2,139116,139316,0.1
Sprite,Foreground,Centre,"sb\px.png",525,145 R,0,139116,,0.196 C,0,139116,,209,209,201 V,0,139116,,2,620 P,0,139116,,A F,2,139116,139316,0.1
Sprite,Foreground,Centre,"sb\px.png",499,218 R,0,139340,,0.146 C,0,139340,,209,209,201 V,0,139340,,2,620 P,0,139340,,A F,2,139340,139994,0.1
Sprite,Foreground,Centre,"sb\px.png",497,229 R,0,139340,,0.19 C,0,139340,,209,209,201 V,0,139340,,2,620 P,0,139340,,A F,2,139340,139994,0.1
Sprite,Foreground,Centre,"sb\px.png",405,205 R,0,140014,,0.263 C,0,140014,,209,209,201 V,0,140014,,2,620 P,0,140014,,A F,2,140014,140657,0.1
Sprite,Foreground,Centre,"sb\px.png",411,221 R,0,140014,,0.105 C,0,140014,,209,209,201 V,0,140014,,2,620 P,0,140014,,A F,2,140014,140657,0.1
Sprite,Foreground,Centre,"sb\px.png",407,312 R,0,140682,,0.298 C,0,140682,,209,209,201 V,0,140682,,2,620 P,0,140682,,A F,2,140682,141105,0.1
Sprite,Foreground,Centre,"sb\px.png",392,303 R,0,140682,,0.155 C,0,140682,,209,209,201 V,0,140682,,2,620 P,0,140682,,A F,2,140682,141105,0.1
Sprite,Foreground,Centre,"sb\px.png",410,411 R,0,141018,,0.254 C,0,141018,,209,209,201 V,0,141018,,2,620 P,0,141018,,A F,2,141018,141218,0.1
Sprite,Foreground,Centre,"sb\px.png",390,406 R,0,141018,,0.294 C,0,141018,,209,209,201 V,0,141018,,2,620 P,0,141018,,A F,2,141018,141218,0.1
Sprite,Foreground,Centre,"sb\px.png",407,423 R,0,141130,,0.151 C,0,141130,,209,209,201 V,0,141130,,2,620 P,0,141130,,A F,2,141130,141553,0.1
Sprite,Foreground,Centre,"sb\px.png",384,420 R,0,141130,,0.135 C,0,141130,,209,209,201 V,0,141130,,2,620 P,0,141130,,A F,2,141130,141553,0.1
Sprite,Foreground,Centre,"sb\px.png",272,355 R,0,141577,,0.257 C,0,141577,,209,209,201 V,0,141577,,2,620 P,0,141577,,A F,2,141577,142000,0.1
Sprite,Foreground,Centre,"sb\px.png",261,349 R,0,141577,,0.298 C,0,141577,,209,209,201 V,0,141577,,2,620 P,0,141577,,A F,2,141577,142000,0.1
Sprite,Foreground,Centre,"sb\px.png",109,404 R,0,142025,,0.124 C,0,142025,,209,209,201 V,0,142025,,2,620 P,0,142025,,A F,2,142025,142225,0.1
Sprite,Foreground,Centre,"sb\px.png",113,398 R,0,142025,,0.216 C,0,142025,,209,209,201 V,0,142025,,2,620 P,0,142025,,A F,2,142025,142225,0.1
Sprite,Foreground,Centre,"sb\px.png",91,305 R,0,142255,,0.148 C,0,142255,,209,209,201 V,0,142255,,2,620 P,0,142255,,A F,2,142255,142455,0.1
Sprite,Foreground,Centre,"sb\px.png",107,299 R,0,142255,,0.222 C,0,142255,,209,209,201 V,0,142255,,2,620 P,0,142255,,A F,2,142255,142455,0.1
Sprite,Foreground,Centre,"sb\px.png",153,236 R,0,142486,,0.168 C,0,142486,,209,209,201 V,0,142486,,2,620 P,0,142486,,A F,2,142486,142686,0.1
Sprite,Foreground,Centre,"sb\px.png",137,219 R,0,142486,,0.275 C,0,142486,,209,209,201 V,0,142486,,2,620 P,0,142486,,A F,2,142486,142686,0.1
Sprite,Foreground,Centre,"sb\px.png",119,160 R,0,142708,,0.23 C,0,142708,,209,209,201 V,0,142708,,2,620 P,0,142708,,A F,2,142708,143019,0.1
Sprite,Foreground,Centre,"sb\px.png",105,141 R,0,142708,,0.194 C,0,142708,,209,209,201 V,0,142708,,2,620 P,0,142708,,A F,2,142708,143019,0.1
Sprite,Foreground,Centre,"sb\px.png",539,254 R,0,135756,,-0.747 C,0,135756,,209,209,201 V,0,135756,,2,620 P,0,135756,,A F,2,135756,136407,0.1
Sprite,Foreground,Centre,"sb\px.png",534,236 R,0,135756,,-0.789 C,0,135756,,209,209,201 V,0,135756,,2,620 P,0,135756,,A F,2,135756,136407,0.1
Sprite,Foreground,Centre,"sb\px.png",578,382 R,0,136319,,-0.705 C,0,136319,,209,209,201 V,0,136319,,2,620 P,0,136319,,A F,2,136319,136519,0.1
Sprite,Foreground,Centre,"sb\px.png",559,377 R,0,136319,,-0.807 C,0,136319,,209,209,201 V,0,136319,,2,620 P,0,136319,,A F,2,136319,136519,0.1
Sprite,Foreground,Centre,"sb\px.png",491,430 R,0,136545,,-0.704 C,0,136545,,209,209,201 V,0,136545,,2,620 P,0,136545,,A F,2,136545,137083,0.1
Sprite,Foreground,Centre,"sb\px.png",473,441 R,0,136545,,-0.701 C,0,136545,,209,209,201 V,0,136545,,2,620 P,0,136545,,A F,2,136545,137083,0.1
Sprite,Foreground,Centre,"sb\px.png",306,389 R,0,137109,,-0.737 C,0,137109,,209,209,201 V,0,137109,,2,620 P,0,137109,,A F,2,137109,137309,0.1
Sprite,Foreground,Centre,"sb\px.png",311,409 R,0,137109,,-0.894 C,0,137109,,209,209,201 V,0,137109,,2,620 P,0,137109,,A F,2,137109,137309,0.1
Sprite,Foreground,Centre,"sb\px.png",218,371 R,0,137331,,-0.714 C,0,137331,,209,209,201 V,0,137331,,2,620 P,0,137331,,A F,2,137331,137531,0.1
Sprite,Foreground,Centre,"sb\px.png",218,372 R,0,137331,,-0.884 C,0,137331,,209,209,201 V,0,137331,,2,620 P,0,137331,,A F,2,137331,137531,0.1
Sprite,Foreground,Centre,"sb\px.png",157,290 R,0,137553,,-0.841 C,0,137553,,209,209,201 V,0,137553,,2,620 P,0,137553,,A F,2,137553,137975,0.1
Sprite,Foreground,Centre,"sb\px.png",181,296 R,0,137553,,-0.748 C,0,137553,,209,209,201 V,0,137553,,2,620 P,0,137553,,A F,2,137553,137975,0.1
Sprite,Foreground,Centre,"sb\px.png",223,170 R,0,137997,,-0.832 C,0,137997,,209,209,201 V,0,137997,,2,620 P,0,137997,,A F,2,137997,138308,0.1
Sprite,Foreground,Centre,"sb\px.png",251,174 R,0,137997,,-0.757 C,0,137997,,209,209,201 V,0,137997,,2,620 P,0,137997,,A F,2,137997,138308,0.1
Sprite,Foreground,Centre,"sb\px.png",299,89 R,0,138332,,-0.719 C,0,138332,,209,209,201 V,0,138332,,2,620 P,0,138332,,A F,2,138332,138867,0.1
Sprite,Foreground,Centre,"sb\px.png",319,91 R,0,138332,,-0.809 C,0,138332,,209,209,201 V,0,138332,,2,620 P,0,138332,,A F,2,138332,138867,0.1
Sprite,Foreground,Centre,"sb\px.png",481,61 R,0,138892,,-0.818 C,0,138892,,209,209,201 V,0,138892,,2,620 P,0,138892,,A F,2,138892,139092,0.1
Sprite,Foreground,Centre,"sb\px.png",498,73 R,0,138892,,-0.803 C,0,138892,,209,209,201 V,0,138892,,2,620 P,0,138892,,A F,2,138892,139092,0.1
Sprite,Foreground,Centre,"sb\px.png",529,158 R,0,139116,,-0.735 C,0,139116,,209,209,201 V,0,139116,,2,620 P,0,139116,,A F,2,139116,139316,0.1
Sprite,Foreground,Centre,"sb\px.png",546,157 R,0,139116,,-0.765 C,0,139116,,209,209,201 V,0,139116,,2,620 P,0,139116,,A F,2,139116,139316,0.1
Sprite,Foreground,Centre,"sb\px.png",511,222 R,0,139340,,-0.721 C,0,139340,,209,209,201 V,0,139340,,2,620 P,0,139340,,A F,2,139340,139994,0.1
Sprite,Foreground,Centre,"sb\px.png",519,218 R,0,139340,,-0.733 C,0,139340,,209,209,201 V,0,139340,,2,620 P,0,139340,,A F,2,139340,139994,0.1
Sprite,Foreground,Centre,"sb\px.png",410,213 R,0,140014,,-0.735 C,0,140014,,209,209,201 V,0,140014,,2,620 P,0,140014,,A F,2,140014,140657,0.1
Sprite,Foreground,Centre,"sb\px.png",411,223 R,0,140014,,-0.804 C,0,140014,,209,209,201 V,0,140014,,2,620 P,0,140014,,A F,2,140014,140657,0.1
Sprite,Foreground,Centre,"sb\px.png",411,305 R,0,140682,,-0.739 C,0,140682,,209,209,201 V,0,140682,,2,620 P,0,140682,,A F,2,140682,141105,0.1
Sprite,Foreground,Centre,"sb\px.png",395,305 R,0,140682,,-0.757 C,0,140682,,209,209,201 V,0,140682,,2,620 P,0,140682,,A F,2,140682,141105,0.1
Sprite,Foreground,Centre,"sb\px.png",384,421 R,0,141018,,-0.863 C,0,141018,,209,209,201 V,0,141018,,2,620 P,0,141018,,A F,2,141018,141218,0.1
Sprite,Foreground,Centre,"sb\px.png",395,410 R,0,141018,,-0.835 C,0,141018,,209,209,201 V,0,141018,,2,620 P,0,141018,,A F,2,141018,141218,0.1
Sprite,Foreground,Centre,"sb\px.png",401,408 R,0,141130,,-0.734 C,0,141130,,209,209,201 V,0,141130,,2,620 P,0,141130,,A F,2,141130,141553,0.1
Sprite,Foreground,Centre,"sb\px.png",405,417 R,0,141130,,-0.748 C,0,141130,,209,209,201 V,0,141130,,2,620 P,0,141130,,A F,2,141130,141553,0.1
Sprite,Foreground,Centre,"sb\px.png",274,347 R,0,141577,,-0.796 C,0,141577,,209,209,201 V,0,141577,,2,620 P,0,141577,,A F,2,141577,142000,0.1
Sprite,Foreground,Centre,"sb\px.png",265,348 R,0,141577,,-0.843 C,0,141577,,209,209,201 V,0,141577,,2,620 P,0,141577,,A F,2,141577,142000,0.1
Sprite,Foreground,Centre,"sb\px.png",132,390 R,0,142025,,-0.863 C,0,142025,,209,209,201 V,0,142025,,2,620 P,0,142025,,A F,2,142025,142225,0.1
Sprite,Foreground,Centre,"sb\px.png",110,402 R,0,142025,,-0.762 C,0,142025,,209,209,201 V,0,142025,,2,620 P,0,142025,,A F,2,142025,142225,0.1
Sprite,Foreground,Centre,"sb\px.png",102,323 R,0,142255,,-0.856 C,0,142255,,209,209,201 V,0,142255,,2,620 P,0,142255,,A F,2,142255,142455,0.1
Sprite,Foreground,Centre,"sb\px.png",111,297 R,0,142255,,-0.72 C,0,142255,,209,209,201 V,0,142255,,2,620 P,0,142255,,A F,2,142255,142455,0.1
Sprite,Foreground,Centre,"sb\px.png",157,219 R,0,142486,,-0.871 C,0,142486,,209,209,201 V,0,142486,,2,620 P,0,142486,,A F,2,142486,142686,0.1
Sprite,Foreground,Centre,"sb\px.png",140,235 R,0,142486,,-0.71 C,0,142486,,209,209,201 V,0,142486,,2,620 P,0,142486,,A F,2,142486,142686,0.1
Sprite,Foreground,Centre,"sb\px.png",112,138 R,0,142708,,-0.765 C,0,142708,,209,209,201 V,0,142708,,2,620 P,0,142708,,A F,2,142708,143019,0.1
Sprite,Foreground,Centre,"sb\px.png",115,140 R,0,142708,,-0.777 C,0,142708,,209,209,201 V,0,142708,,2,620 P,0,142708,,A F,2,142708,143019,0.1
//Storyboard Layer 4 (Overlay)
//Storyboard Sound Samples

[TimingPoints]
3,447.761194029851,4,2,1,70,1,8
3,-100,4,2,1,70,0,8
562,491.803278688525,4,2,1,70,1,0
562,-100,4,2,1,70,0,0
685,458.015267175573,4,2,1,70,1,8
685,-100,4,2,1,70,0,8
914,434.782608695652,4,2,1,70,1,8
914,-100,4,2,1,70,0,8
1348,419.58041958042,4,2,1,70,1,8
1348,-100,4,2,1,70,0,8
1557,-91.324200913242,4,2,1,70,0,0
1767,441.176470588235,4,2,1,70,1,8
1767,-100,4,2,1,70,0,8
2208,571.428571428571,4,2,1,70,1,8
2208,-100,4,2,1,70,0,8
2350,437.956204379562,4,2,1,70,1,0
2350,-100,4,2,1,70,0,0
2422,-100,4,2,1,60,0,0
2495,-100,4,2,1,50,0,0
2568,-100,4,2,1,60,0,0
2641,-100,4,2,1,70,0,0
3006,454.545454545455,4,2,1,70,1,8
3006,-100,4,2,1,70,0,8
3460,540.540540540541,4,2,1,70,1,8
3460,-100,4,2,1,70,0,8
3595,425.531914893617,4,2,1,70,1,8
3595,-100,4,2,1,70,0,8
4020,458.015267175573,4,2,1,70,1,8
4020,-100,4,2,1,70,0,8
4134,458.015267175573,4,2,1,70,1,0
4134,-100,4,2,1,70,0,0
4363,437.956204379562,4,2,5,50,1,8
4363,-100,4,2,5,50,0,8
4800,458.015267175573,4,2,5,50,1,8
4800,-100,4,2,5,50,0,8
5258,468.75,4,2,5,50,1,8
5258,-100,4,2,5,50,0,8
5609,447.761194029851,4,2,5,50,1,8
5609,-100,4,2,5,50,0,8
5832,408.163265306122,4,2,5,50,1,8
5832,-100,4,2,5,50,0,8
5934,408.163265306122,4,2,5,50,1,0
5934,-100,4,2,5,50,0,0
6138,454.545454545455,4,2,5,50,1,8
6138,-100,4,2,5,50,0,8
7615,441.176470588235,4,2,5,50,1,8
7615,-100,4,2,5,50,0,8
7725,441.176470588235,4,2,5,50,1,0
7725,-100,4,2,5,50,0,0
7945,447.761194029851,4,2,5,50,1,8
7945,-100,4,2,5,50,0,8
9512,447.761194029851,4,2,5,50,1,0
9512,-100,4,2,5,50,0,0
10631,487.80487804878,4,2,5,50,1,8
10631,-100,4,2,5,50,0,8
10996,402.684563758389,4,2,5,50,1,8
10996,-100,4,2,5,50,0,8
11298,454.545454545455,4,2,1,70,1,0
11298,-100,4,2,1,70,0,0
11752,447.761194029851,4,2,1,70,1,8
11752,-100,4,2,1,70,0,8
12647,437.956204379562,4,2,1,70,1,8
12647,-100,4,2,1,70,0,8
13084,458.015267175573,4,2,1,70,1,0
13084,-95.2380952380952,4,2,1,70,0,0
13542,434.782608695652,4,2,1,70,1,8
13542,-100,4,2,1,70,0,8
13976,447.761194029851,4,2,1,70,1,8
13976,-100,4,2,1,70,0,8
14423,437.956204379562,4,2,1,70,1,8
14423,-100,4,2,1,70,0,8
14860,461.538461538462,4,2,1,70,1,0
14860,-95.2380952380952,4,2,1,70,0,0
15321,447.761194029851,4,2,1,70,1,8
15321,-100,4,2,1,70,0,8
15768,-98.5221674876847,4,2,1,70,0,8
15992,431.654676258993,4,2,1,70,1,8
15992,-100,4,2,1,70,0,8
16207,447.761194029851,4,2,1,70,1,8
16207,-100,4,2,1,70,0,8
16654,447.761194029851,4,2,1,70,1,0
16654,-100,4,2,1,70,0,0
17102,437.956204379562,4,2,1,70,1,8
17102,-100,4,2,1,70,0,8
17539,465.116279069767,4,2,1,70,1,8
17539,-95.2380952380952,4,2,1,70,0,8
18004,447.761194029851,4,2,1,70,1,8
18004,-100,4,2,1,70,0,8
18451,447.761194029851,4,2,1,70,1,0
18451,-100,4,2,1,70,0,0
20242,441.176470588235,4,2,1,70,1,0
20242,-100,4,2,1,70,0,0
21124,458.015267175573,4,2,1,70,1,8
21124,-100,4,2,1,70,0,8
21582,447.761194029851,4,2,1,70,1,8
21582,-100,4,2,1,70,0,8
22029,447.761194029851,4,2,1,70,1,0
22029,-100,4,2,1,70,0,0
22476,454.545454545455,4,2,1,70,1,8
22476,-100,4,2,1,70,0,8
23385,447.761194029851,4,2,1,70,1,8
23385,-100,4,2,1,70,0,8
23608,416.666666666667,4,2,1,70,1,8
23608,-100,4,2,1,70,0,8
23816,458.015267175573,4,2,1,70,1,0
23816,-90.9090909090909,4,2,1,70,0,0
24274,444.444444444444,4,2,1,70,1,8
24274,-100,4,2,1,70,0,8
25162,476.190476190476,4,2,1,70,1,8
25162,-100,4,2,1,70,0,8
25400,413.793103448276,4,2,1,70,1,8
25400,-100,4,2,1,70,0,8
25606,447.761194029851,4,2,1,70,1,0
25606,-100,4,2,1,70,0,0
26501,461.538461538462,4,2,1,70,1,8
26501,-100,4,2,1,70,0,8
26962,447.761194029851,4,2,1,70,1,8
26962,-100,4,2,1,70,0,8
27409,447.761194029851,4,2,1,70,1,0
27409,-100,4,2,1,70,0,0
32334,441.176470588235,4,2,1,70,1,8
32334,-100,4,2,1,70,0,8
32775,447.761194029851,4,2,1,70,1,0
32775,-100,4,2,1,70,0,0
33222,454.545454545455,4,2,1,70,1,8
33222,-100,4,2,1,70,0,8
34131,446.096654275093,4,2,1,70,1,8
34131,-100,4,2,1,70,0,8
34577,446.096654275093,4,2,1,70,1,0
34577,-100,4,2,1,70,0,0
35023,447.761194029851,4,2,1,70,1,8
35023,-100,4,2,1,70,0,8
36366,444.444444444444,4,2,1,70,1,0
36366,-100,4,2,1,70,0,0
37254,451.127819548872,4,2,1,70,1,8
37254,-100,4,2,1,70,0,8
38156,446.096654275093,4,2,1,70,1,0
38156,-100,4,2,1,70,0,0
39048,447.761194029851,4,2,1,70,1,8
39048,-100,4,2,1,70,0,8
39719,416.666666666667,4,2,1,70,1,8
39719,-100,4,2,1,70,0,8
39927,454.545454545455,4,2,1,70,1,0
39927,-100,4,2,1,70,0,0
40836,447.761194029851,4,2,1,70,1,8
40836,-100,4,2,1,70,0,8
41731,451.127819548872,4,2,1,70,1,0
41731,-100,4,2,1,70,0,0
43535,447.761194029851,4,2,1,70,1,0
43535,-100,4,2,1,70,0,0
45102,425.531914893617,4,2,1,70,1,8
45102,-100,4,2,1,70,0,8
45314,458.015267175573,4,2,1,70,1,0
45314,-100,4,2,1,70,0,0
45772,441.176470588235,4,2,1,70,1,8
45772,-100,4,2,1,70,0,8
46654,447.761194029851,4,2,1,70,1,8
46654,-100,4,2,1,70,0,8
46877,416.666666666667,4,2,1,70,1,8
46877,-100,4,2,1,70,0,8
47085,451.127819548872,4,2,1,70,1,0
47085,-100,4,2,1,70,0,0
47536,-92.1658986175115,4,2,1,70,0,0
47987,458.015267175573,4,2,1,70,1,8
47987,-99.009900990099,4,2,1,70,0,8
48445,447.761194029851,4,2,1,70,1,8
48445,-100,4,2,1,70,0,8
48892,454.545454545455,4,2,1,70,1,0
48892,-100,4,2,1,70,0,0
49232,-98.0392156862745,4,2,1,70,0,0
49346,447.761194029851,4,2,1,70,1,8
49346,-100,4,2,1,70,0,8
50241,442.80442804428,4,2,1,70,1,8
50241,-100,4,2,1,70,0,8
50683,454.545454545455,4,2,1,70,1,0
50683,-100,4,2,1,70,0,0
51023,-98.0392156862745,4,2,1,70,0,0
51137,447.761194029851,4,2,1,70,1,8
51137,-100,4,2,1,70,0,8
52480,444.444444444444,4,2,1,70,1,0
52480,-100,4,2,1,70,0,0
53813,451.127819548872,4,2,1,70,1,8
53813,-100,4,2,1,70,0,8
54264,447.761194029851,4,2,1,70,1,0
54264,-100,4,2,1,70,0,0
55943,-105.263157894737,4,2,1,70,0,0
56055,480,4,2,1,70,1,0
56055,-100,4,2,1,70,0,0
56295,447.761194029851,4,2,1,70,1,8
56295,-99.7008973080758,4,2,1,70,0,8
56742,441.176470588235,4,2,1,70,1,8
56742,-100,4,2,1,70,0,8
57183,447.761194029851,4,2,1,70,1,8
57183,-100,4,2,1,70,0,8
57854,458.015267175573,4,2,1,70,1,0
57854,-100,4,2,1,70,0,0
58312,437.956204379562,4,2,1,70,1,8
58312,-100,4,2,1,70,0,8
58749,447.761194029851,4,2,1,70,1,8
58749,-100,4,2,1,70,0,8
59644,454.545454545455,4,2,1,70,1,0
59644,-100,4,2,1,70,0,0
60098,447.761194029851,4,2,1,70,1,8
60098,-100,4,2,1,70,0,8
60993,454.545454545455,4,2,1,70,1,8
60993,-100,4,2,1,70,0,8
61447,447.761194029851,4,2,5,50,1,0
61447,-100,4,2,5,50,0,0
63238,465.116279069767,4,2,5,50,1,0
63238,-100,4,2,5,50,0,0
63703,447.761194029851,4,2,5,50,1,8
63703,-100,4,2,5,50,0,8
64150,431.654676258993,4,2,5,50,1,8
64150,-100,4,2,5,50,0,8
64581,447.761194029851,4,2,5,50,1,8
64581,-100,4,2,5,50,0,8
65028,447.761194029851,4,2,5,50,1,0
65028,-100,4,2,5,50,0,0
68386,441.176470588235,4,2,5,50,1,8
68386,-100,4,2,5,50,0,8
68606,447.761194029851,4,2,5,60,1,0
68606,-100,4,2,5,60,0,0
71964,480,4,2,5,60,1,8
71964,-100,4,2,5,60,0,8
72204,425.531914893617,4,2,5,60,1,0
72204,-100,4,2,5,60,0,0
72629,444.444444444444,4,2,5,60,1,8
72629,-100,4,2,5,60,0,8
73517,447.761194029851,4,2,5,60,1,8
73517,-100,4,2,5,60,0,8
73964,447.427293064877,4,2,5,50,1,0
73964,-100,4,2,5,50,0,0
74415,491.803278688525,4,2,5,55,1,8
74415,-100,4,2,5,55,0,8
74660,447.761194029851,4,2,5,55,1,8
74660,-100,4,2,5,55,0,8
75107,461.538461538462,4,2,5,60,1,8
75107,-100,4,2,5,60,0,8
75337,491.803278688525,4,2,5,70,1,8
75337,-100,4,2,5,70,0,8
75582,397.350993377483,4,2,5,70,1,8
75582,-100,4,2,5,70,0,8
75780,444.444444444444,4,2,1,70,1,0
75780,-100,4,2,1,70,0,0
76668,447.761194029851,4,2,1,70,1,8
76668,-100,4,2,1,70,0,8
77563,447.761194029851,4,2,1,70,1,0
77563,-100,4,2,1,70,0,0
79354,444.444444444444,4,2,1,70,1,0
79354,-100,4,2,1,70,0,0
79798,447.761194029851,4,2,1,70,1,8
79798,-100,4,2,1,70,0,8
80917,434.782608695652,4,2,1,70,1,8
80917,-100,4,2,1,70,0,8
81134,446.096654275093,4,2,1,70,1,0
81134,-100,4,2,1,70,0,0
82472,454.545454545455,4,2,1,70,1,8
82472,-100,4,2,1,70,0,8
82926,447.761194029851,4,2,1,70,1,0
82926,-100,4,2,1,70,0,0
86284,437.956204379562,4,2,1,70,1,8
86284,-100,4,2,1,70,0,8
86502,447.761194029851,4,2,1,70,1,0
86502,-100,4,2,1,70,0,0
87397,451.127819548872,4,2,1,70,1,8
87397,-100,4,2,1,70,0,8
88073,419.58041958042,4,2,1,70,1,8
88073,-100,4,2,1,70,0,8
88282,465.116279069767,4,2,1,70,1,0
88282,-100,4,2,1,70,0,0
88747,437.956204379562,4,2,1,70,1,8
88747,-100,4,2,1,70,0,8
89184,447.761194029851,4,2,1,70,1,8
89184,-100,4,2,1,70,0,8
90079,461.538461538462,4,2,1,70,1,0
90079,-100,4,2,1,70,0,0
90540,446.096654275093,4,2,1,70,1,8
90540,-100,4,2,1,70,0,8
91432,454.545454545455,4,2,1,70,1,8
91432,-100,4,2,1,70,0,8
91886,454.545454545455,4,2,1,70,1,0
91886,-100,4,2,1,70,0,0
92341,446.096654275093,4,2,1,70,1,8
92341,-100,4,2,1,70,0,8
93233,431.654676258993,4,2,1,70,1,8
93233,-100,4,2,1,70,0,8
93664,447.761194029851,4,2,1,70,1,0
93664,-100,4,2,1,70,0,0
94111,454.545454545455,4,2,1,70,1,8
94111,-100,4,2,1,70,0,8
95020,447.761194029851,4,2,1,70,1,8
95020,-100,4,2,1,70,0,8
95243,425.531914893617,4,2,1,70,1,8
95243,-100,4,2,1,70,0,8
95455,465.116279069767,4,2,1,70,1,0
95455,-100,4,2,1,70,0,0
95920,444.444444444444,4,2,1,70,1,8
95920,-100,4,2,1,70,0,8
97253,447.761194029851,4,2,1,70,1,0
97253,-100,4,2,1,70,0,0
99044,458.015267175573,4,2,1,70,1,0
99044,-100,4,2,1,70,0,0
99502,447.761194029851,4,2,1,70,1,8
99502,-100,4,2,1,70,0,8
100621,434.782608695652,4,2,1,70,1,8
100621,-100,4,2,1,70,0,8
100838,447.761194029851,4,2,1,70,1,0
100838,-100,4,2,1,70,0,0
102181,437.956204379562,4,2,1,70,1,8
102181,-100,4,2,1,70,0,8
102618,458.015267175573,4,2,1,70,1,0
102618,-100,4,2,1,70,0,0
103076,447.761194029851,4,2,1,70,1,8
103076,-100,4,2,1,70,0,8
104419,447.761194029851,4,2,1,70,1,0
104419,-100,4,2,1,70,0,0
105986,437.956204379562,4,2,1,70,1,8
105986,-100,4,2,1,70,0,8
106204,447.761194029851,4,2,1,70,1,0
106204,-100,4,2,1,70,0,0
107099,458.015267175573,4,2,1,70,1,8
107099,-100,4,2,1,70,0,8
107557,437.956204379562,4,2,1,70,1,8
107557,-100,4,2,1,70,0,8
107994,465.116279069767,4,2,1,70,1,0
107994,-100,4,2,1,70,0,0
108459,444.444444444444,4,2,1,70,1,8
108459,-100,4,2,1,70,0,8
109792,447.761194029851,4,2,1,70,1,0
109792,-100,4,2,1,70,0,0
111135,491.803278688525,4,2,1,70,1,8
111135,-100,4,2,1,70,0,8
111380,352.941176470588,4,2,1,70,1,8
111380,-100,4,2,1,70,0,8
111556,491.803278688525,4,2,1,60,1,0
111556,-100,4,2,1,60,0,0
111924,387.096774193548,4,2,1,60,1,8
111924,-100,4,2,1,60,0,8
112020,461.538461538462,4,2,1,60,1,8
112020,-100,4,2,1,60,0,8
112250,-100,4,2,1,40,0,8
112327,-100,4,2,1,50,0,8
112404,-100,4,2,1,60,0,8
112481,447.761194029851,4,2,1,70,1,8
112481,-100,4,2,1,70,0,8
112816,431.654676258993,4,2,1,70,1,8
112816,-100,4,2,1,70,0,8
113031,461.538461538462,4,2,1,70,1,8
113031,-100,4,2,1,70,0,8
113492,428.571428571429,4,2,1,70,1,8
113492,-100,4,2,1,70,0,8
113706,480,4,2,1,70,1,8
113706,-100,4,2,1,70,0,8
113946,444.444444444444,4,2,1,70,1,8
113946,-100,4,2,1,70,0,8
114279,461.538461538462,4,2,1,70,1,0
114279,-100,4,2,1,70,0,0
114740,447.761194029851,4,2,5,70,1,8
114740,-100,4,2,5,70,0,8
115187,444.444444444444,4,2,5,70,1,8
115187,-100,4,2,5,70,0,8
116075,444.444444444444,4,2,5,70,1,0
116075,-100,4,2,5,70,0,0
118297,447.761194029851,4,2,5,70,1,8
118297,-100,4,2,5,70,0,8
119640,444.444444444444,4,2,5,70,1,0
119640,-100,4,2,5,70,0,0
120528,447.761194029851,4,2,5,70,1,8
120528,-100,4,2,5,70,0,8
121423,447.761194029851,4,2,5,70,1,0
121423,-100,4,2,5,70,0,0
122766,454.545454545455,4,2,5,70,1,8
122766,-100,4,2,5,70,0,8
123220,451.127819548872,4,2,5,70,1,0
123220,-100,4,2,5,70,0,0
124573,444.444444444444,4,2,5,70,1,8
124573,-100,4,2,5,70,0,8
125017,444.444444444444,4,2,5,70,1,0
125017,-100,4,2,5,70,0,0
125905,454.545454545455,4,2,5,70,1,8
125905,-100,4,2,5,70,0,8
126814,444.444444444444,4,2,5,70,1,0
126814,-100,4,2,5,70,0,0
127702,447.761194029851,4,2,5,70,1,8
127702,-100,4,2,5,70,0,8
127925,491.803278688525,4,2,5,70,1,8
127925,-100,4,2,5,70,0,8
128170,359.281437125748,4,2,1,70,1,8
128170,-100,4,2,1,70,0,8
128349,468.75,4,2,1,70,1,8
128349,-100,4,2,1,70,0,8
128583,451.127819548872,4,2,1,70,1,1
128583,-100,4,2,1,70,0,1
129034,458.015267175573,4,2,1,70,1,9
129034,-100,4,2,1,70,0,9
129721,431.654676258993,4,2,1,70,1,9
129721,-100,4,2,1,70,0,9
130152,465.116279069767,4,2,1,70,1,9
130152,-95.2380952380952,4,2,1,70,0,9
130384,447.761194029851,4,2,1,70,1,1
130384,-100,4,2,1,70,0,1
132175,454.545454545455,4,2,1,70,1,1
132175,-100,4,2,1,70,0,1
133084,447.761194029851,4,2,1,70,1,9
133084,-100,4,2,1,70,0,9
133979,441.176470588235,4,2,1,70,1,1
133979,-100,4,2,1,70,0,1
134861,447.761194029851,4,2,1,70,1,9
134861,-100,4,2,1,70,0,9
135756,451.127819548872,4,2,1,70,1,1
135756,-100,4,2,1,70,0,1
137109,444.444444444444,4,2,1,70,1,9
137109,-100,4,2,1,70,0,9
137553,444.444444444444,4,2,1,70,1,1
137553,-100,4,2,1,70,0,1
137997,447.761194029851,4,2,1,70,1,9
137997,-100,4,2,1,70,0,9
139340,454.545454545455,4,2,1,70,1,1
139340,-100,4,2,1,70,0,1
139794,441.176470588235,4,2,1,70,1,9
139794,-100,4,2,1,70,0,9
140014,-100.502512562814,4,2,1,70,0,1
140235,447.761194029851,4,2,1,70,1,9
140235,-100,4,2,1,70,0,9
141130,447.761194029851,4,2,1,70,1,1
141130,-100,4,2,1,70,0,1
142025,461.538461538462,4,2,1,70,1,9
142025,-100,4,2,1,70,0,9
142486,444.444444444444,4,2,1,70,1,9
142486,-100,4,2,1,70,0,9
142819,468.75,4,2,5,70,1,9
142819,-100,4,2,5,70,0,9
142936,468.75,4,2,5,70,1,0
142936,-100,4,2,5,70,0,0
143170,447.761194029851,4,2,5,50,1,8
143170,-100,4,2,5,50,0,8
143617,454.545454545455,4,2,5,50,1,8
143617,-100,4,2,5,50,0,8
144750,447.761194029851,4,2,5,50,1,0
144750,-100,4,2,5,50,0,0
144974,447.761194029851,4,2,5,50,1,8
144974,-100,4,2,5,50,0,8
146541,441.176470588235,4,2,5,70,1,0
146541,-100,4,2,5,70,0,0
146982,454.545454545455,4,2,5,70,1,8
146982,-100,4,2,5,70,0,8
147891,447.761194029851,4,2,5,70,1,8
147891,-100,4,2,5,70,0,8
148338,458.015267175573,4,2,5,70,1,0
148338,-100,4,2,5,70,0,0
148796,441.176470588235,4,2,5,70,1,8
148796,-100,4,2,5,70,0,8
149237,447.761194029851,4,2,5,70,1,8
149237,-100,4,2,5,70,0,8
149684,425.531914893617,4,2,5,70,1,8
149684,-100,4,2,5,70,0,8
150109,468.75,4,2,1,70,1,0
150109,-100,4,2,1,70,0,0
150460,480,4,2,1,70,1,8
150460,-100,4,2,1,70,0,8
150700,410.958904109589,4,2,1,70,1,8
150700,-100,4,2,1,70,0,8
150905,535.714285714286,4,2,1,70,1,8
150905,-74.0740740740741,4,2,1,70,0,8
151038,437.956204379562,4,2,1,70,1,8
151038,-100,4,2,1,70,0,8
151475,461.538461538462,4,2,1,70,1,8
151475,-100,4,2,1,70,0,8
151705,397.350993377483,4,2,1,70,1,8
151705,-100,4,2,1,70,0,8
151903,361.44578313253,4,2,1,60,1,0
151903,-101.112234580384,4,2,1,60,0,0
152083,292.682926829268,4,2,1,50,1,8
152083,-100,4,2,1,50,0,8
152229,259.74025974026,4,2,1,55,1,8
152229,-100,4,2,1,55,0,8
152358,402.684563758389,4,2,1,70,1,8
152358,-100,4,2,1,70,0,8
152559,447.761194029851,4,2,1,70,1,8
152559,-90.9090909090909,4,2,1,70,0,8
152670,-90.9090909090909,4,2,1,70,0,8
152894,-90.9090909090909,4,2,1,70,0,8
153230,-90.9090909090909,4,2,1,70,0,8
153454,-90.9090909090909,4,2,1,70,0,8
153566,-90.9090909090909,4,2,1,70,0,8
153678,-90.9090909090909,4,2,1,70,0,8

[Colours]
Combo1 : 113,128,126
Combo2 : 122,175,180
Combo3 : 220,208,105

[HitObjects]
478,289,562,6,0,L|429:295,1,32.5,2|2,0:0|0:0,0:0:0:0:
377,361,914,2,0,P|337:354|294:348,1,65.000000298023,2|2,0:0|0:0,0:0:0:0:
247,283,1348,1,2,0:0:0:0:
159,330,1557,2,0,B|153:212|153:212|124:187|124:187|119:70,1,269.018747485749,0|8,0:0|0:0,0:0:0:0:
205,45,2568,6,0,L|266:49,1,43.3333333333333,8|8,0:3|0:3,0:0:0:0:
278,50,2787,1,8,0:0:0:0:
364,111,3006,1,6,1:2:0:0:
256,192,3119,12,4,4020,1:3:0:0:
431,357,11298,6,0,L|441:198,1,130,0|0,1:0|1:0,0:0:0:0:
391,66,12199,6,0,P|356:58|323:65,1,65,2|0,1:2|0:0,0:0:0:0:
263,130,12647,2,0,P|228:137|195:131,1,65,2|2,1:2|0:0,0:0:0:0:
135,67,13084,5,2,1:2:0:0:
46,103,13313,1,2,0:0:0:0:
29,197,13542,2,0,L|43:267,1,65,2|2,1:2|0:0,0:0:0:0:
95,330,13976,1,2,1:2:0:0:
176,290,14199,1,2,0:0:0:0:
258,332,14423,1,2,1:2:0:0:
410,328,14860,6,0,P|429:270|391:197,1,136.499995834351,0|2,1:0|1:2,0:0:0:0:
321,157,15544,1,2,0:0:0:0:
336,65,15768,1,2,1:2:0:0:
162,24,16207,6,0,L|153:91,1,65,2|2,1:2|0:0,0:0:0:0:
135,177,16654,5,2,1:2:0:0:
47,199,16877,1,2,0:0:0:0:
54,292,17102,2,0,L|106:331,1,65,2|2,1:2|0:0,0:0:0:0:
186,371,17539,1,2,1:2:0:0:
274,335,17771,1,2,0:0:0:0:
366,356,18004,2,0,P|421:366|470:328,1,97.5,14|0,1:2|0:0,0:0:0:0:
484,312,18451,6,0,L|493:237,1,65,6|2,1:2|0:0,0:0:0:0:
405,218,18898,2,0,L|414:143,1,65,10|2,1:2|0:0,0:0:0:0:
428,63,19346,1,2,1:2:0:0:
248,29,19794,5,10,1:2:0:0:
179,89,20018,1,2,0:0:0:0:
95,49,20242,2,0,L|22:62,1,65,2|2,1:2|0:0,0:0:0:0:
52,148,20683,1,10,1:2:0:0:
68,287,21124,5,2,1:2:0:0:
134,349,21353,1,2,0:0:0:0:
205,289,21582,2,0,P|237:279|274:286,1,65,10|2,1:2|0:0,0:0:0:0:
341,337,22029,6,0,P|399:304|401:235,1,130,0|10,1:0|1:2,0:0:0:0:
326,198,22703,1,0,0:0:0:0:
368,117,22930,2,0,L|340:43,1,65,0|0,1:0|0:0,0:0:0:0:
252,46,23385,2,0,L|188:33,1,65,8|2,1:2|0:0,0:0:0:0:
130,104,23816,2,0,L|114:189,1,71.5000021820069,2|2,1:2|0:0,0:0:0:0:
99,266,24274,5,10,1:2:0:0:
166,326,24496,1,2,0:0:0:0:
235,267,24718,2,0,P|267:264|299:273,1,65,2|6,1:2|0:3,0:0:0:0:
372,321,25162,2,0,P|404:324|436:314,1,65,8|8,1:2|0:3,0:0:0:0:
476,236,25606,1,4,1:2:0:0:
435,58,26053,6,0,L|370:60,1,65,10|2,1:2|0:0,0:0:0:0:
281,68,26501,2,0,P|254:106|273:192,1,130,2|8,1:2|1:2,0:0:0:0:
147,47,27409,6,0,P|106:35|70:46,1,65,2|2,1:2|0:0,0:0:0:0:
26,109,27856,2,0,P|14:149|25:186,1,65,10|2,1:2|0:0,0:0:0:0:
52,202,28192,2,0,L|43:275,1,65,2|2,0:0|0:0,0:0:0:0:
163,333,28752,6,0,L|227:328,1,65,8|0,1:2|0:0,0:0:0:0:
301,384,29199,1,0,1:0:0:0:
480,355,29647,6,0,P|492:312|478:268,1,65,10|2,1:2|0:0,0:0:0:0:
428,223,30095,2,0,L|282:209,1,130,2|8,1:2|1:2,0:0:0:0:
120,132,30991,6,0,P|111:96|131:43,1,65,2|2,1:2|0:0,0:0:0:0:
201,34,31438,2,0,L|294:43,1,65,10|2,1:2|0:0,0:0:0:0:
311,47,31774,1,2,0:0:0:0:
511,161,32334,1,8,1:2:0:0:
440,218,32554,1,0,0:0:0:0:
452,306,32775,6,0,L|442:391,1,65,0|0,1:0|0:0,0:0:0:0:
358,346,33222,1,10,1:2:0:0:
269,326,33449,1,2,0:0:0:0:
191,372,33676,2,0,L|34:351,1,130,2|8,1:2|1:2,0:0:0:0:
23,176,34577,6,0,P|57:165|87:174,1,65,2|2,1:2|0:0,0:0:0:0:
165,214,35023,2,0,L|242:196,1,65,10|2,1:2|0:0,0:0:0:0:
272,186,35358,1,2,0:0:0:0:
328,114,35582,1,2,0:0:0:0:
368,244,35918,2,0,L|432:233,1,65,8|0,1:2|0:0,0:0:0:0:
479,154,36366,6,0,P|481:82|432:28,1,130,2|8,1:2|1:2,0:0:0:0:
271,68,37254,2,0,P|269:140|318:194,1,130,2|8,1:2|1:2,0:0:0:0:
225,351,38156,6,0,L|146:344,1,65,2|0,1:2|0:0,0:0:0:0:
78,305,38602,2,0,P|63:264|78:223,1,65,10|0,1:2|0:0,0:0:0:0:
103,160,39048,1,2,1:2:0:0:
189,134,39271,1,4,0:3:0:0:
265,177,39495,2,0,L|342:182,1,65,10|8,1:2|0:3,0:0:0:0:
375,187,39823,1,8,0:3:0:0:
375,187,39927,6,0,P|380:223|373:251,1,65,6|2,1:2|0:0,0:0:0:0:
418,330,40381,1,10,1:2:0:0:
490,274,40608,1,2,0:0:0:0:
486,181,40836,2,0,L|471:113,1,65,0|2,1:0|0:0,0:0:0:0:
411,49,41283,1,10,1:2:0:0:
258,146,41731,6,0,L|251:231,1,65,0|2,1:0|0:0,0:0:0:0:
243,301,42182,1,10,1:2:0:0:
70,242,42633,2,0,P|29:252|-4:241,1,65,0|2,1:0|0:0,0:0:0:0:
2,155,43084,1,8,1:2:0:0:
42,73,43309,1,0,0:0:0:0:
128,103,43535,6,0,L|198:93,1,65,0|2,1:0|0:0,0:0:0:0:
269,45,43982,2,0,L|333:54,1,65,10|2,1:2|0:0,0:0:0:0:
424,61,44430,1,0,1:0:0:0:
453,147,44654,1,2,0:0:0:0:
480,233,44878,1,10,1:2:0:0:
355,346,45314,6,0,P|319:356|280:335,1,65,0|2,1:0|0:0,0:0:0:0:
221,286,45772,1,10,1:2:0:0:
58,368,46213,1,0,1:0:0:0:
27,282,46433,2,0,L|37:198,1,65,6|10,0:3|1:2,0:0:0:0:
76,128,46877,1,2,0:0:0:0:
67,44,47085,6,0,P|95:27|135:33,1,65,6|2,1:2|0:0,0:0:0:0:
189,106,47536,2,0,P|264:134|306:28,1,212.550002270279,10|0,1:2|0:0,0:0:0:0:
408,24,48445,2,0,L|485:32,1,65,8|2,1:2|0:0,0:0:0:0:
435,112,48892,6,0,L|428:146,1,32.5,2|2,1:2|0:0,0:0:0:0:
367,212,49232,2,0,L|379:277,1,65.4874989507771,2|2,0:0|0:0,0:0:0:0:
314,339,49681,2,0,P|265:352|211:324,1,97.5,2|2,0:0|0:0,0:0:0:0:
178,254,50241,2,0,L|184:222,2,32.5000001490115,10|0|2,1:2|0:0|0:0,0:0:0:0:
91,270,50683,6,0,P|51:273|17:254,1,65,2|0,1:2|0:0,0:0:0:0:
17,219,51023,2,0,L|35:152,1,65.4874989507771,2|2,0:0|0:0,0:0:0:0:
54,116,51360,2,0,P|107:90|187:119,1,130,2|2,0:0|0:0,0:0:0:0:
232,176,52032,2,0,P|269:179|322:164,1,65,8|0,1:2|0:0,0:0:0:0:
369,119,52480,6,0,P|425:166|407:243,1,130,0|10,1:0|1:2,0:0:0:0:
365,287,53146,1,2,0:0:0:0:
308,358,53368,2,0,L|229:347,1,65,2|2,1:2|0:0,0:0:0:0:
213,264,53813,2,0,L|148:272,1,65,10|2,1:2|0:0,0:0:0:0:
67,229,54264,6,0,P|64:195|77:162,1,65,2|0,1:2|0:0,0:0:0:0:
134,98,54711,2,0,P|137:64|124:31,1,65,10|2,1:2|0:0,0:0:0:0:
216,18,55159,2,0,L|322:39,1,97.5,2|2,1:2|0:0,0:0:0:0:
402,26,55719,1,2,0:0:0:0:
452,97,55943,6,0,P|455:127|445:159,1,64.3499998036194,2|2,0:0|0:0,0:0:0:0:
358,200,56406,2,0,L|378:358,1,130.390000119376,2|0,0:0|0:0,0:0:0:0:
381,373,56962,1,2,1:2:0:0:
294,348,57183,1,2,0:0:0:0:
207,374,57406,1,10,1:2:0:0:
207,374,57518,2,0,L|113:365,1,65
107,339,57854,6,0,L|105:257,1,65,0|0,1:0|0:0,0:0:0:0:
48,198,58312,2,0,L|65:118,1,65,10|2,1:2|0:0,0:0:0:0:
35,47,58749,1,2,1:2:0:0:
119,13,58972,1,2,0:0:0:0:
192,66,59196,2,0,L|270:55,1,65,10|2,1:2|0:0,0:0:0:0:
346,62,59644,6,0,P|348:102|328:142,1,65,2|2,1:2|0:0,0:0:0:0:
273,189,60098,2,0,P|263:219|266:252,1,65,10|2,1:2|0:0,0:0:0:0:
207,321,60545,2,0,L|167:314,1,32.5,2|2,1:2|0:0,0:0:0:0:
99,274,60881,1,2,0:0:0:0:
99,274,60993,2,0,L|120:188,1,65,8|0,1:2|0:0,0:0:0:0:
256,192,75337,5,14,0:0:0:0:
142,333,75780,5,6,1:2:0:0:
79,266,76002,2,0,L|95:196,1,65,2|10,0:0|1:2,0:0:0:0:
146,128,76446,1,2,0:0:0:0:
198,54,76668,2,0,P|231:48|261:56,1,65,2|2,1:2|0:0,0:0:0:0:
305,135,77115,2,0,P|310:168|302:198,1,65,10|2,1:2|0:0,0:0:0:0:
257,277,77563,5,2,1:2:0:0:
337,319,77786,1,2,0:0:0:0:
407,261,78010,2,0,P|442:273|487:260,1,65,10|2,1:2|0:0,0:0:0:0:
495,232,78346,2,0,L|480:114,1,97.5,2|2,0:0|0:0,0:0:0:0:
465,45,78906,1,10,1:2:0:0:
393,101,79130,1,2,0:0:0:0:
331,32,79354,1,0,1:0:0:0:
151,39,79798,5,10,1:2:0:0:
65,10,80021,1,2,0:0:0:0:
26,92,80245,2,0,P|23:135|40:172,1,65,2|2,1:2|0:0,0:0:0:0:
35,242,80693,1,10,1:2:0:0:
98,311,80917,2,0,L|134:307,1,32.5,2|4,0:0|0:3,0:0:0:0:
174,302,81134,5,2,1:2:0:0:
245,245,81357,2,0,P|257:213|248:175,2,65,0|8|0,0:0|1:2|0:0,0:0:0:0:
304,313,82026,2,0,P|338:323|374:316,1,65,2|2,1:2|0:0,0:0:0:0:
437,265,82472,1,10,1:2:0:0:
437,265,82585,2,0,L|422:157,1,97.5,2|2,0:0|1:2,0:0:0:0:
334,188,83149,6,0,L|330:123,1,65.000000298023,2|10,0:0|1:2,0:0:0:0:
244,94,83597,1,2,0:0:0:0:
181,160,83821,2,0,P|141:165|91:147,1,65,2|0,1:2|0:0,0:0:0:0:
73,240,84269,2,0,P|65:294|90:355,1,97.5,8|2,1:2|0:0,0:0:0:0:
115,359,84717,6,0,P|149:366|198:353,1,65,2|2,1:2|0:0,0:0:0:0:
257,317,85164,2,0,L|339:327,1,65,10|2,1:2|0:0,0:0:0:0:
402,367,85612,1,2,1:2:0:0:
457,294,85836,1,2,0:0:0:0:
409,216,86060,2,0,L|418:138,1,65,10|2,1:2|0:0,0:0:0:0:
407,62,86502,1,0,1:0:0:0:
320,35,86725,6,0,P|287:24|242:42,1,65,2|10,0:0|1:2,0:0:0:0:
210,108,87173,1,2,0:0:0:0:
167,187,87397,2,0,L|184:253,1,65,2|2,1:2|0:0,0:0:0:0:
203,290,87735,2,0,P|256:302|311:282,1,97.5,2|0,0:0|0:0,0:0:0:0:
337,272,88177,2,0,L|375:278,1,32.5,0|0,0:0|1:0,0:0:0:0:
450,236,88514,6,0,P|461:201|451:163,1,65,2|10,0:0|1:2,0:0:0:0:
397,103,88965,2,0,P|392:71|403:40,1,65,2|2,0:0|1:2,0:0:0:0:
312,42,89407,1,4,0:3:0:0:
227,76,89631,2,0,L|162:77,1,65.000000298023,8|8,1:2|0:3,0:0:0:0:
116,79,89967,1,8,0:3:0:0:
116,79,90079,6,0,P|95:152|131:221,1,130,6|10,1:2|1:2,0:0:0:0:
193,241,90763,1,2,0:0:0:0:
232,322,90986,2,0,L|309:305,1,65,2|2,1:2|0:0,0:0:0:0:
381,283,91432,1,10,1:2:0:0:
440,214,91659,1,0,0:0:0:0:
398,132,91886,6,0,L|405:61,1,65,0|0,1:0|0:0,0:0:0:0:
312,54,92341,2,0,P|252:30|203:87,1,130,10|0,1:2|1:0,0:0:0:0:
170,151,93010,1,0,0:0:0:0:
102,85,93233,2,0,P|65:79|20:95,1,65,8|0,1:2|0:0,0:0:0:0:
22,171,93664,6,0,L|36:263,1,65,2|2,1:2|0:0,0:0:0:0:
44,323,94111,1,10,1:2:0:0:
124,364,94338,1,2,0:0:0:0:
185,297,94565,2,0,P|219:289|261:305,1,65,2|0,1:2|0:0,0:0:0:0:
321,351,95020,2,0,P|355:359|397:343,1,65,10|2,1:2|0:0,0:0:0:0:
425,334,95349,1,0,0:3:0:0:
425,334,95455,6,0,L|436:195,1,130,2|10,1:2|1:2,0:0:0:0:
488,130,96142,1,0,0:0:0:0:
443,50,96364,2,0,P|391:37|337:67,1,97.5,0|0,1:0|0:0,0:0:0:0:
317,83,96808,1,8,1:2:0:0:
235,42,97031,2,0,L|184:36,1,32.5
158,29,97253,6,0,P|133:96|160:173,1,130,2|10,1:2|1:2,0:0:0:0:
91,224,97924,1,0,0:0:0:0:
133,304,98148,2,0,L|228:313,1,65,2|2,1:2|0:0,0:0:0:0:
278,267,98596,2,0,L|271:172,1,65,10|2,1:2|0:0,0:0:0:0:
275,112,99044,6,0,P|330:74|396:108,1,130,2|10,1:2|1:2,0:0:0:0:
469,125,99725,1,0,0:0:0:0:
493,212,99949,2,0,L|476:292,1,65,0|0,1:0|0:0,0:0:0:0:
402,325,100397,2,0,L|328:358,1,65,8|0,1:2|0:0,0:0:0:0:
267,303,100838,6,0,P|241:236|272:165,1,130,2|10,1:2|1:2,0:0:0:0:
394,62,101733,2,0,P|418:127|391:191,1,130,2|10,1:2|1:2,0:0:0:0:
256,82,102618,5,2,1:2:0:0:
166,67,102847,1,2,0:0:0:0:
75,88,103076,2,0,L|10:82,1,65,10|2,1:2|0:0,0:0:0:0:
1,172,103523,2,0,L|66:178,1,65,2|4,1:2|0:3,0:0:0:0:
63,269,103971,2,0,L|-2:263,1,65,8|8,1:2|0:3,0:0:0:0:
14,353,104419,5,6,1:2:0:0:
104,357,104642,2,0,P|135:366|178:354,1,65,2|10,0:0|1:2,0:0:0:0:
246,313,105090,1,2,0:0:0:0:
246,313,105202,2,0,P|279:304|311:311,1,65,2|2,0:0|0:0,0:0:0:0:
351,327,105538,2,0,L|414:310,1,65,2|10,0:0|1:2,0:0:0:0:
464,231,105986,1,0,0:0:0:0:
419,154,106204,5,0,1:0:0:0:
357,87,106427,2,0,P|320:82|287:92,1,65,2|10,0:0|1:2,0:0:0:0:
241,163,106875,1,2,0:0:0:0:
170,108,107099,2,0,L|164:28,1,65,0|2,1:0|0:0,0:0:0:0:
76,78,107557,2,0,L|80:142,1,65,8|0,1:2|0:0,0:0:0:0:
50,222,107994,5,0,1:0:0:0:
112,288,108226,2,0,P|147:292|180:274,1,65,2|10,0:0|1:2,0:0:0:0:
219,201,108681,1,2,0:0:0:0:
289,258,108903,2,0,P|318:270|350:265,1,65,0|2,1:0|0:0,0:0:0:0:
414,201,109347,1,10,1:2:0:0:
423,110,109570,1,0,0:0:0:0:
362,43,109792,6,0,L|296:47,1,65,0|2,1:0|0:0,0:0:0:0:
212,81,110239,2,0,L|134:71,1,65,10|2,1:2|0:0,0:0:0:0:
105,55,110575,2,0,P|90:93|100:140,1,65,2|2,0:0|0:0,0:0:0:0:
107,159,110911,1,2,0:0:0:0:
148,230,111135,2,0,L|125:317,1,65,8|2,1:2|0:0,0:0:0:0:
256,192,111556,12,6,113706,1:2:0:0:
479,354,128170,6,0,L|468:280,1,65.000000298023,2|14,0:0|1:2,0:0:0:0:
431,203,128583,6,0,P|380:192|310:224,1,130,2|2,1:2|1:2,0:0:0:0:
188,282,129377,2,0,L|198:186,1,97.5,2|8,0:0|1:2,0:0:0:0:
194,74,129936,1,2,1:2:0:0:
93,70,130152,1,10,1:2:0:0:
93,161,130384,6,0,L|86:230,1,65,2|10,1:2|1:2,0:0:0:0:
144,295,130831,1,2,1:2:0:0:
290,381,131167,6,0,L|410:363,1,97.5,0|8,0:0|1:2,0:0:0:0:
452,303,131727,1,0,1:0:0:0:
443,207,131951,1,10,1:2:0:0:
371,152,132175,6,0,L|378:88,1,65,2|10,1:2|1:2,0:0:0:0:
291,58,132629,2,0,L|284:122,1,65,2|10,1:2|1:2,0:0:0:0:
203,168,133084,1,2,1:2:0:0:
116,140,133307,1,10,1:2:0:0:
71,219,133531,2,0,L|90:307,1,65,2|8,1:2|1:2,0:0:0:0:
177,290,133979,6,0,P|245:314|308:269,1,130,2|0,1:2|1:0,0:0:0:0:
331,207,134640,1,8,1:2:0:0:
366,124,134861,2,0,L|358:54,1,65,2|8,1:2|1:2,0:0:0:0:
442,23,135308,1,2,1:2:0:0:
488,101,135532,1,10,1:2:0:0:
469,189,135756,6,0,P|440:248|471:305,1,130,6|2,1:2|1:2,0:0:0:0:
502,328,136319,1,0,0:0:0:0:
424,375,136545,2,0,L|324:358,1,97.5,2|8,0:0|1:2,0:0:0:0:
237,339,137109,1,2,1:2:0:0:
149,315,137331,1,10,1:2:0:0:
103,236,137553,6,0,P|96:203|111:160,1,65,2|10,1:2|1:2,0:0:0:0:
174,118,137997,2,0,L|169:86,1,32.5,2|2,1:2|0:0,0:0:0:0:
247,40,138332,2,0,P|290:18|344:25,1,97.5,2|8,0:0|1:2,0:0:0:0:
428,14,138892,1,0,1:0:0:0:
475,91,139116,1,10,1:2:0:0:
444,175,139340,6,0,L|462:251,2,65,14|2|2,1:2|1:2|1:2,0:0:0:0:
356,153,140014,2,0,L|292:138,2,65,14|2|2,1:2|1:2|1:2,0:0:0:0:
343,243,140682,2,0,L|335:315,1,65,14|0,1:2|1:0,0:0:0:0:
332,353,141018,1,0,0:0:0:0:
332,353,141130,6,0,P|293:361|253:342,1,65,0|14,1:0|1:2,0:0:0:0:
197,298,141577,2,0,P|158:290|118:309,1,65,0|0,1:0|1:0,0:0:0:0:
59,343,142025,1,14,1:2:0:0:
35,255,142255,1,0,1:0:0:0:
88,176,142486,1,0,1:0:0:0:
49,93,142708,2,0,L|60:45,1,32.5,0|6,0:0|1:3,0:0:0:0:
416,188,146541,6,0,P|382:175|337:181,1,65,4|2,1:2|0:0,0:0:0:0:
277,219,146982,2,0,P|244:219|214:206,1,65,8|2,1:2|0:0,0:0:0:0:
177,123,147436,1,0,1:0:0:0:
93,86,147663,1,2,0:0:0:0:
37,160,147891,6,0,L|52:234,1,65,8|0,1:2|0:0,0:0:0:0:
74,309,148338,2,0,L|147:293,1,65,0|2,1:0|0:0,0:0:0:0:
226,327,148796,2,0,L|289:340,1,65,8|2,1:2|0:0,0:0:0:0:
374,310,149237,1,0,1:0:0:0:
421,232,149460,1,2,0:0:0:0:
416,136,149684,2,0,P|356:101|278:108,1,130,8|4,1:2|1:3,0:0:0:0:
173,52,150460,6,0,L|164:117,1,65,2|2,0:0|0:0,0:0:0:0:
202,202,150905,2,0,L|207:247,1,43.8750001673698,2|2,0:0|0:0,0:0:0:0:
218,335,151256,1,2,0:0:0:0:
295,296,151475,2,0,P|327:283|376:292,1,65,2|2,0:0|0:0,0:0:0:0:
450,319,151903,2,0,B|442:254|442:254|453:231|453:231|441:159,1,161.524998866249,8|8,0:0|0:0,0:0:0:0:
423,71,152559,5,6,1:2:0:0:
256,192,152670,12,0,153678,0:0:0:0:
