osu file format v14

[General]
AudioFilename: audio.mp3
AudioLeadIn: 0
PreviewTime: 114163
Countdown: 0
SampleSet: Soft
StackLeniency: 0.5
Mode: 0
LetterboxInBreaks: 0
EpilepsyWarning: 1
WidescreenStoryboard: 0

[Editor]
DistanceSpacing: 0.4
BeatDivisor: 8
GridSize: 8
TimelineZoom: 2.5

[Metadata]
Title:Wild Side
TitleUnicode:Wild Side
Artist:ALI
ArtistUnicode:ALI
Creator:Revolver
Version:Instinct
Source:BEASTARS
Tags:ビースターズ anime opening op full version furry alien liberty international 2019 jazz rap hip hop studio orange netflix paru itagaki anime opening op full version japanese english french alien liberty international gouhin fieryrage venerablenyanta storyboard
BeatmapID:3419874
BeatmapSetID:1672763

[Difficulty]
HPDrainRate:5
CircleSize:4.2
OverallDifficulty:9
ApproachRate:9.4
SliderMultiplier:2.4
SliderTickRate:1

[Events]
//Background and Video events
0,0,"a2.png",0,0
//Break Periods
2,4363,10744
2,61646,68052
2,143370,145987
//Storyboard Layer 0 (Background)
//Storyboard Layer 1 (Fail)
//Storyboard Layer 2 (Pass)
//Storyboard Layer 3 (Foreground)
Sprite,Foreground,Centre,"sb\px.png",488,97 R,0,146541,,-0.247 C,0,146541,,209,209,201 V,0,146541,,2,620 P,0,146541,,A F,2,146541,146961,0.1
Sprite,Foreground,Centre,"sb\px.png",483,79 R,0,146541,,-0.289 C,0,146541,,209,209,201 V,0,146541,,2,620 P,0,146541,,A F,2,146541,146961,0.1
Sprite,Foreground,Centre,"sb\px.png",305,145 R,0,146982,,-0.205 C,0,146982,,209,209,201 V,0,146982,,2,620 P,0,146982,,A F,2,146982,147409,0.1
Sprite,Foreground,Centre,"sb\px.png",286,140 R,0,146982,,-0.307 C,0,146982,,209,209,201 V,0,146982,,2,620 P,0,146982,,A F,2,146982,147409,0.1
Sprite,Foreground,Centre,"sb\px.png",409,412 R,0,147436,,-0.204 C,0,147436,,209,209,201 V,0,147436,,2,620 P,0,147436,,A F,2,147436,147863,0.1
Sprite,Foreground,Centre,"sb\px.png",391,423 R,0,147436,,-0.201 C,0,147436,,209,209,201 V,0,147436,,2,620 P,0,147436,,A F,2,147436,147863,0.1
Sprite,Foreground,Centre,"sb\px.png",442,292 R,0,147777,,-0.237 C,0,147777,,209,209,201 V,0,147777,,2,620 P,0,147777,,A F,2,147777,147977,0.1
Sprite,Foreground,Centre,"sb\px.png",447,312 R,0,147777,,-0.394 C,0,147777,,209,209,201 V,0,147777,,2,620 P,0,147777,,A F,2,147777,147977,0.1
Sprite,Foreground,Centre,"sb\px.png",371,335 R,0,147891,,-0.214 C,0,147891,,209,209,201 V,0,147891,,2,620 P,0,147891,,A F,2,147891,148202,0.1
Sprite,Foreground,Centre,"sb\px.png",371,336 R,0,147891,,-0.384 C,0,147891,,209,209,201 V,0,147891,,2,620 P,0,147891,,A F,2,147891,148202,0.1
Sprite,Foreground,Centre,"sb\px.png",217,259 R,0,148114,,-0.341 C,0,148114,,209,209,201 V,0,148114,,2,620 P,0,148114,,A F,2,148114,148425,0.1
Sprite,Foreground,Centre,"sb\px.png",241,265 R,0,148114,,-0.248 C,0,148114,,209,209,201 V,0,148114,,2,620 P,0,148114,,A F,2,148114,148425,0.1
Sprite,Foreground,Centre,"sb\px.png",196,419 R,0,148338,,-0.332 C,0,148338,,209,209,201 V,0,148338,,2,620 P,0,148338,,A F,2,148338,148767,0.1
Sprite,Foreground,Centre,"sb\px.png",224,423 R,0,148338,,-0.257 C,0,148338,,209,209,201 V,0,148338,,2,620 P,0,148338,,A F,2,148338,148767,0.1
Sprite,Foreground,Centre,"sb\px.png",346,222 R,0,148796,,-0.219 C,0,148796,,209,209,201 V,0,148796,,2,620 P,0,148796,,A F,2,148796,149216,0.1
Sprite,Foreground,Centre,"sb\px.png",366,224 R,0,148796,,-0.309 C,0,148796,,209,209,201 V,0,148796,,2,620 P,0,148796,,A F,2,148796,149216,0.1
Sprite,Foreground,Centre,"sb\px.png",248,66 R,0,149237,,-0.318 C,0,149237,,209,209,201 V,0,149237,,2,620 P,0,149237,,A F,2,149237,149660,0.1
Sprite,Foreground,Centre,"sb\px.png",265,78 R,0,149237,,-0.303 C,0,149237,,209,209,201 V,0,149237,,2,620 P,0,149237,,A F,2,149237,149660,0.1
Sprite,Foreground,Centre,"sb\px.png",56,117 R,0,149572,,-0.235 C,0,149572,,209,209,201 V,0,149572,,2,620 P,0,149572,,A F,2,149572,149772,0.1
Sprite,Foreground,Centre,"sb\px.png",73,116 R,0,149572,,-0.265 C,0,149572,,209,209,201 V,0,149572,,2,620 P,0,149572,,A F,2,149572,149772,0.1
Sprite,Foreground,Centre,"sb\px.png",98,172 R,0,149684,,-0.221 C,0,149684,,209,209,201 V,0,149684,,2,620 P,0,149684,,A F,2,149684,149990,0.1
Sprite,Foreground,Centre,"sb\px.png",106,168 R,0,149684,,-0.233 C,0,149684,,209,209,201 V,0,149684,,2,620 P,0,149684,,A F,2,149684,149990,0.1
Sprite,Foreground,Centre,"sb\px.png",212,341 R,0,149896,,-0.235 C,0,149896,,209,209,201 V,0,149896,,2,620 P,0,149896,,A F,2,149896,150202,0.1
Sprite,Foreground,Centre,"sb\px.png",213,351 R,0,149896,,-0.304 C,0,149896,,209,209,201 V,0,149896,,2,620 P,0,149896,,A F,2,149896,150202,0.1
Sprite,Foreground,Centre,"sb\px.png",308,245 R,0,150109,,-0.239 C,0,150109,,209,209,201 V,0,150109,,2,620 P,0,150109,,A F,2,150109,150309,0.1
Sprite,Foreground,Centre,"sb\px.png",292,245 R,0,150109,,-0.257 C,0,150109,,209,209,201 V,0,150109,,2,620 P,0,150109,,A F,2,150109,150309,0.1
Sprite,Foreground,Centre,"sb\px.png",292,251 R,0,150460,,-0.363 C,0,150460,,209,209,201 V,0,150460,,2,620 P,0,150460,,A F,2,150460,150660,0.1
Sprite,Foreground,Centre,"sb\px.png",303,240 R,0,150460,,-0.335 C,0,150460,,209,209,201 V,0,150460,,2,620 P,0,150460,,A F,2,150460,150660,0.1
Sprite,Foreground,Centre,"sb\px.png",369,294 R,0,150700,,-0.234 C,0,150700,,209,209,201 V,0,150700,,2,620 P,0,150700,,A F,2,150700,150900,0.1
Sprite,Foreground,Centre,"sb\px.png",373,303 R,0,150700,,-0.248 C,0,150700,,209,209,201 V,0,150700,,2,620 P,0,150700,,A F,2,150700,150900,0.1
Sprite,Foreground,Centre,"sb\px.png",432,230 R,0,150905,,-0.296 C,0,150905,,209,209,201 V,0,150905,,2,620 P,0,150905,,A F,2,150905,151105,0.1
Sprite,Foreground,Centre,"sb\px.png",423,231 R,0,150905,,-0.343 C,0,150905,,209,209,201 V,0,150905,,2,620 P,0,150905,,A F,2,150905,151105,0.1
Sprite,Foreground,Centre,"sb\px.png",428,228 R,0,151038,,-0.363 C,0,151038,,209,209,201 V,0,151038,,2,620 P,0,151038,,A F,2,151038,151675,0.1
Sprite,Foreground,Centre,"sb\px.png",406,240 R,0,151038,,-0.262 C,0,151038,,209,209,201 V,0,151038,,2,620 P,0,151038,,A F,2,151038,151675,0.1
Sprite,Foreground,Centre,"sb\px.png",483,293 R,0,151705,,-0.356 C,0,151705,,209,209,201 V,0,151705,,2,620 P,0,151705,,A F,2,151705,151905,0.1
Sprite,Foreground,Centre,"sb\px.png",492,267 R,0,151705,,-0.22 C,0,151705,,209,209,201 V,0,151705,,2,620 P,0,151705,,A F,2,151705,151905,0.1
Sprite,Foreground,Centre,"sb\px.png",511,389 R,0,151903,,-0.371 C,0,151903,,209,209,201 V,0,151903,,2,620 P,0,151903,,A F,2,151903,152103,0.1
Sprite,Foreground,Centre,"sb\px.png",494,405 R,0,151903,,-0.21 C,0,151903,,209,209,201 V,0,151903,,2,620 P,0,151903,,A F,2,151903,152103,0.1
Sprite,Foreground,Centre,"sb\px.png",467,386 R,0,151993,,-0.265 C,0,151993,,209,209,201 V,0,151993,,2,620 P,0,151993,,A F,2,151993,152193,0.1
Sprite,Foreground,Centre,"sb\px.png",470,388 R,0,151993,,-0.277 C,0,151993,,209,209,201 V,0,151993,,2,620 P,0,151993,,A F,2,151993,152193,0.1
Sprite,Foreground,Centre,"sb\px.png",415,387 R,0,152083,,-0.23 C,0,152083,,209,209,201 V,0,152083,,2,620 P,0,152083,,A F,2,152083,152283,0.1
Sprite,Foreground,Centre,"sb\px.png",416,385 R,0,152083,,-0.26 C,0,152083,,209,209,201 V,0,152083,,2,620 P,0,152083,,A F,2,152083,152283,0.1
Sprite,Foreground,Centre,"sb\px.png",422,403 R,0,152156,,-0.323 C,0,152156,,209,209,201 V,0,152156,,2,620 P,0,152156,,A F,2,152156,152356,0.1
Sprite,Foreground,Centre,"sb\px.png",409,382 R,0,152156,,-0.299 C,0,152156,,209,209,201 V,0,152156,,2,620 P,0,152156,,A F,2,152156,152356,0.1
Sprite,Foreground,Centre,"sb\px.png",391,373 R,0,152229,,-0.344 C,0,152229,,209,209,201 V,0,152229,,2,620 P,0,152229,,A F,2,152229,152429,0.1
Sprite,Foreground,Centre,"sb\px.png",390,397 R,0,152229,,-0.278 C,0,152229,,209,209,201 V,0,152229,,2,620 P,0,152229,,A F,2,152229,152429,0.1
Sprite,Foreground,Centre,"sb\px.png",362,391 R,0,152293,,-0.32 C,0,152293,,209,209,201 V,0,152293,,2,620 P,0,152293,,A F,2,152293,152493,0.1
Sprite,Foreground,Centre,"sb\px.png",387,372 R,0,152293,,-0.261 C,0,152293,,209,209,201 V,0,152293,,2,620 P,0,152293,,A F,2,152293,152493,0.1
Sprite,Foreground,Centre,"sb\px.png",365,391 R,0,152358,,-0.263 C,0,152358,,209,209,201 V,0,152358,,2,620 P,0,152358,,A F,2,152358,152558,0.1
Sprite,Foreground,Centre,"sb\px.png",364,372 R,0,152358,,-0.364 C,0,152358,,209,209,201 V,0,152358,,2,620 P,0,152358,,A F,2,152358,152558,0.1
Sprite,Foreground,Centre,"sb\px.png",363,289 R,0,152559,,-0.201 C,0,152559,,209,209,201 V,0,152559,,2,620 P,0,152559,,A F,2,152559,154102,0.1
Sprite,Foreground,Centre,"sb\px.png",362,283 R,0,152559,,-0.348 C,0,152559,,209,209,201 V,0,152559,,2,620 P,0,152559,,A F,2,152559,154102,0.1
Sprite,Foreground,Centre,"sb\px.png",226,106 R,0,128583,,0.253 C,0,128583,,209,209,201 V,0,128583,,2,620 P,0,128583,,A F,2,128583,129008,0.1
Sprite,Foreground,Centre,"sb\px.png",221,88 R,0,128583,,0.211 C,0,128583,,209,209,201 V,0,128583,,2,620 P,0,128583,,A F,2,128583,129008,0.1
Sprite,Foreground,Centre,"sb\px.png",309,251 R,0,128921,,0.295 C,0,128921,,209,209,201 V,0,128921,,2,620 P,0,128921,,A F,2,128921,129121,0.1
Sprite,Foreground,Centre,"sb\px.png",290,246 R,0,128921,,0.193 C,0,128921,,209,209,201 V,0,128921,,2,620 P,0,128921,,A F,2,128921,129121,0.1
Sprite,Foreground,Centre,"sb\px.png",233,409 R,0,129034,,0.296 C,0,129034,,209,209,201 V,0,129034,,2,620 P,0,129034,,A F,2,129034,129463,0.1
Sprite,Foreground,Centre,"sb\px.png",215,420 R,0,129034,,0.299 C,0,129034,,209,209,201 V,0,129034,,2,620 P,0,129034,,A F,2,129034,129463,0.1
Sprite,Foreground,Centre,"sb\px.png",500,402 R,0,129377,,0.263 C,0,129377,,209,209,201 V,0,129377,,2,620 P,0,129377,,A F,2,129377,129577,0.1
Sprite,Foreground,Centre,"sb\px.png",505,422 R,0,129377,,0.106 C,0,129377,,209,209,201 V,0,129377,,2,620 P,0,129377,,A F,2,129377,129577,0.1
Sprite,Foreground,Centre,"sb\px.png",540,227 R,0,129492,,0.286 C,0,129492,,209,209,201 V,0,129492,,2,620 P,0,129492,,A F,2,129492,129921,0.1
Sprite,Foreground,Centre,"sb\px.png",540,228 R,0,129492,,0.116 C,0,129492,,209,209,201 V,0,129492,,2,620 P,0,129492,,A F,2,129492,129921,0.1
Sprite,Foreground,Centre,"sb\px.png",287,251 R,0,129828,,0.159 C,0,129828,,209,209,201 V,0,129828,,2,620 P,0,129828,,A F,2,129828,130028,0.1
Sprite,Foreground,Centre,"sb\px.png",311,257 R,0,129828,,0.252 C,0,129828,,209,209,201 V,0,129828,,2,620 P,0,129828,,A F,2,129828,130028,0.1
Sprite,Foreground,Centre,"sb\px.png",193,326 R,0,129936,,0.168 C,0,129936,,209,209,201 V,0,129936,,2,620 P,0,129936,,A F,2,129936,130243,0.1
Sprite,Foreground,Centre,"sb\px.png",221,330 R,0,129936,,0.243 C,0,129936,,209,209,201 V,0,129936,,2,620 P,0,129936,,A F,2,129936,130243,0.1
Sprite,Foreground,Centre,"sb\px.png",78,212 R,0,130152,,0.281 C,0,130152,,209,209,201 V,0,130152,,2,620 P,0,130152,,A F,2,130152,130468,0.1
Sprite,Foreground,Centre,"sb\px.png",98,214 R,0,130152,,0.191 C,0,130152,,209,209,201 V,0,130152,,2,620 P,0,130152,,A F,2,130152,130468,0.1
Sprite,Foreground,Centre,"sb\px.png",190,63 R,0,130384,,0.182 C,0,130384,,209,209,201 V,0,130384,,2,620 P,0,130384,,A F,2,130384,130807,0.1
Sprite,Foreground,Centre,"sb\px.png",207,75 R,0,130384,,0.197 C,0,130384,,209,209,201 V,0,130384,,2,620 P,0,130384,,A F,2,130384,130807,0.1
Sprite,Foreground,Centre,"sb\px.png",442,100 R,0,130719,,0.265 C,0,130719,,209,209,201 V,0,130719,,2,620 P,0,130719,,A F,2,130719,130919,0.1
Sprite,Foreground,Centre,"sb\px.png",459,99 R,0,130719,,0.235 C,0,130719,,209,209,201 V,0,130719,,2,620 P,0,130719,,A F,2,130719,130919,0.1
Sprite,Foreground,Centre,"sb\px.png",569,187 R,0,130831,,0.279 C,0,130831,,209,209,201 V,0,130831,,2,620 P,0,130831,,A F,2,130831,131254,0.1
Sprite,Foreground,Centre,"sb\px.png",577,183 R,0,130831,,0.267 C,0,130831,,209,209,201 V,0,130831,,2,620 P,0,130831,,A F,2,130831,131254,0.1
Sprite,Foreground,Centre,"sb\px.png",410,276 R,0,131167,,0.265 C,0,131167,,209,209,201 V,0,131167,,2,620 P,0,131167,,A F,2,131167,131367,0.1
Sprite,Foreground,Centre,"sb\px.png",411,286 R,0,131167,,0.196 C,0,131167,,209,209,201 V,0,131167,,2,620 P,0,131167,,A F,2,131167,131367,0.1
Sprite,Foreground,Centre,"sb\px.png",300,333 R,0,131279,,0.261 C,0,131279,,209,209,201 V,0,131279,,2,620 P,0,131279,,A F,2,131279,131590,0.1
Sprite,Foreground,Centre,"sb\px.png",284,333 R,0,131279,,0.243 C,0,131279,,209,209,201 V,0,131279,,2,620 P,0,131279,,A F,2,131279,131590,0.1
Sprite,Foreground,Centre,"sb\px.png",229,215 R,0,131503,,0.137 C,0,131503,,209,209,201 V,0,131503,,2,620 P,0,131503,,A F,2,131503,131814,0.1
Sprite,Foreground,Centre,"sb\px.png",240,204 R,0,131503,,0.165 C,0,131503,,209,209,201 V,0,131503,,2,620 P,0,131503,,A F,2,131503,131814,0.1
Sprite,Foreground,Centre,"sb\px.png",370,147 R,0,131727,,0.266 C,0,131727,,209,209,201 V,0,131727,,2,620 P,0,131727,,A F,2,131727,132038,0.1
Sprite,Foreground,Centre,"sb\px.png",374,156 R,0,131727,,0.252 C,0,131727,,209,209,201 V,0,131727,,2,620 P,0,131727,,A F,2,131727,132038,0.1
Sprite,Foreground,Centre,"sb\px.png",433,265 R,0,131951,,0.204 C,0,131951,,209,209,201 V,0,131951,,2,620 P,0,131951,,A F,2,131951,132262,0.1
Sprite,Foreground,Centre,"sb\px.png",424,266 R,0,131951,,0.157 C,0,131951,,209,209,201 V,0,131951,,2,620 P,0,131951,,A F,2,131951,132262,0.1
Sprite,Foreground,Centre,"sb\px.png",311,244 R,0,132175,,0.137 C,0,132175,,209,209,201 V,0,132175,,2,620 P,0,132175,,A F,2,132175,132602,0.1
Sprite,Foreground,Centre,"sb\px.png",289,256 R,0,132175,,0.238 C,0,132175,,209,209,201 V,0,132175,,2,620 P,0,132175,,A F,2,132175,132602,0.1
Sprite,Foreground,Centre,"sb\px.png",67,419 R,0,132515,,0.144 C,0,132515,,209,209,201 V,0,132515,,2,620 P,0,132515,,A F,2,132515,132715,0.1
Sprite,Foreground,Centre,"sb\px.png",76,393 R,0,132515,,0.28 C,0,132515,,209,209,201 V,0,132515,,2,620 P,0,132515,,A F,2,132515,132715,0.1
Sprite,Foreground,Centre,"sb\px.png",69,394 R,0,132629,,0.129 C,0,132629,,209,209,201 V,0,132629,,2,620 P,0,132629,,A F,2,132629,132942,0.1
Sprite,Foreground,Centre,"sb\px.png",52,410 R,0,132629,,0.29 C,0,132629,,209,209,201 V,0,132629,,2,620 P,0,132629,,A F,2,132629,132942,0.1
Sprite,Foreground,Centre,"sb\px.png",248,316 R,0,132856,,0.235 C,0,132856,,209,209,201 V,0,132856,,2,620 P,0,132856,,A F,2,132856,133169,0.1
Sprite,Foreground,Centre,"sb\px.png",251,318 R,0,132856,,0.223 C,0,132856,,209,209,201 V,0,132856,,2,620 P,0,132856,,A F,2,132856,133169,0.1
Sprite,Foreground,Centre,"sb\px.png",386,427 R,0,133084,,0.27 C,0,133084,,209,209,201 V,0,133084,,2,620 P,0,133084,,A F,2,133084,133507,0.1
Sprite,Foreground,Centre,"sb\px.png",387,425 R,0,133084,,0.24 C,0,133084,,209,209,201 V,0,133084,,2,620 P,0,133084,,A F,2,133084,133507,0.1
Sprite,Foreground,Centre,"sb\px.png",437,187 R,0,133419,,0.177 C,0,133419,,209,209,201 V,0,133419,,2,620 P,0,133419,,A F,2,133419,133619,0.1
Sprite,Foreground,Centre,"sb\px.png",424,166 R,0,133419,,0.201 C,0,133419,,209,209,201 V,0,133419,,2,620 P,0,133419,,A F,2,133419,133619,0.1
Sprite,Foreground,Centre,"sb\px.png",249,313 R,0,133531,,0.156 C,0,133531,,209,209,201 V,0,133531,,2,620 P,0,133531,,A F,2,133531,133954,0.1
Sprite,Foreground,Centre,"sb\px.png",248,337 R,0,133531,,0.222 C,0,133531,,209,209,201 V,0,133531,,2,620 P,0,133531,,A F,2,133531,133954,0.1
Sprite,Foreground,Centre,"sb\px.png",214,75 R,0,133867,,0.18 C,0,133867,,209,209,201 V,0,133867,,2,620 P,0,133867,,A F,2,133867,134067,0.1
Sprite,Foreground,Centre,"sb\px.png",239,56 R,0,133867,,0.239 C,0,133867,,209,209,201 V,0,133867,,2,620 P,0,133867,,A F,2,133867,134067,0.1
Sprite,Foreground,Centre,"sb\px.png",495,102 R,0,133979,,0.237 C,0,133979,,209,209,201 V,0,133979,,2,620 P,0,133979,,A F,2,133979,134289,0.1
Sprite,Foreground,Centre,"sb\px.png",494,83 R,0,133979,,0.136 C,0,133979,,209,209,201 V,0,133979,,2,620 P,0,133979,,A F,2,133979,134289,0.1
Sprite,Foreground,Centre,"sb\px.png",427,165 R,0,134199,,0.299 C,0,134199,,209,209,201 V,0,134199,,2,620 P,0,134199,,A F,2,134199,134509,0.1
Sprite,Foreground,Centre,"sb\px.png",426,159 R,0,134199,,0.152 C,0,134199,,209,209,201 V,0,134199,,2,620 P,0,134199,,A F,2,134199,134509,0.1
Sprite,Foreground,Centre,"sb\px.png",338,79 R,0,134420,,0.229 C,0,134420,,209,209,201 V,0,134420,,2,620 P,0,134420,,A F,2,134420,134730,0.1
Sprite,Foreground,Centre,"sb\px.png",328,91 R,0,134420,,0.115 C,0,134420,,209,209,201 V,0,134420,,2,620 P,0,134420,,A F,2,134420,134730,0.1
Sprite,Foreground,Centre,"sb\px.png",258,129 R,0,134641,,0.262 C,0,134641,,209,209,201 V,0,134641,,2,620 P,0,134641,,A F,2,134641,134951,0.1
Sprite,Foreground,Centre,"sb\px.png",262,142 R,0,134641,,0.21 C,0,134641,,209,209,201 V,0,134641,,2,620 P,0,134641,,A F,2,134641,134951,0.1
Sprite,Foreground,Centre,"sb\px.png",102,95 R,0,134861,,0.16 C,0,134861,,209,209,201 V,0,134861,,2,620 P,0,134861,,A F,2,134861,135396,0.1
Sprite,Foreground,Centre,"sb\px.png",83,79 R,0,134861,,0.196 C,0,134861,,209,209,201 V,0,134861,,2,620 P,0,134861,,A F,2,134861,135396,0.1
Sprite,Foreground,Centre,"sb\px.png",182,409 R,0,135308,,0.146 C,0,135308,,209,209,201 V,0,135308,,2,620 P,0,135308,,A F,2,135308,135619,0.1
Sprite,Foreground,Centre,"sb\px.png",180,420 R,0,135308,,0.19 C,0,135308,,209,209,201 V,0,135308,,2,620 P,0,135308,,A F,2,135308,135619,0.1
Sprite,Foreground,Centre,"sb\px.png",454,303 R,0,135532,,0.263 C,0,135532,,209,209,201 V,0,135532,,2,620 P,0,135532,,A F,2,135532,135843,0.1
Sprite,Foreground,Centre,"sb\px.png",460,319 R,0,135532,,0.105 C,0,135532,,209,209,201 V,0,135532,,2,620 P,0,135532,,A F,2,135532,135843,0.1
Sprite,Foreground,Centre,"sb\px.png",335,90 R,0,135756,,0.298 C,0,135756,,209,209,201 V,0,135756,,2,620 P,0,135756,,A F,2,135756,136181,0.1
Sprite,Foreground,Centre,"sb\px.png",320,81 R,0,135756,,0.155 C,0,135756,,209,209,201 V,0,135756,,2,620 P,0,135756,,A F,2,135756,136181,0.1
Sprite,Foreground,Centre,"sb\px.png",293,229 R,0,136094,,0.254 C,0,136094,,209,209,201 V,0,136094,,2,620 P,0,136094,,A F,2,136094,136294,0.1
Sprite,Foreground,Centre,"sb\px.png",273,224 R,0,136094,,0.294 C,0,136094,,209,209,201 V,0,136094,,2,620 P,0,136094,,A F,2,136094,136294,0.1
Sprite,Foreground,Centre,"sb\px.png",406,145 R,0,136207,,0.151 C,0,136207,,209,209,201 V,0,136207,,2,620 P,0,136207,,A F,2,136207,136632,0.1
Sprite,Foreground,Centre,"sb\px.png",383,142 R,0,136207,,0.135 C,0,136207,,209,209,201 V,0,136207,,2,620 P,0,136207,,A F,2,136207,136632,0.1
Sprite,Foreground,Centre,"sb\px.png",363,377 R,0,136545,,0.257 C,0,136545,,209,209,201 V,0,136545,,2,620 P,0,136545,,A F,2,136545,136745,0.1
Sprite,Foreground,Centre,"sb\px.png",352,371 R,0,136545,,0.298 C,0,136545,,209,209,201 V,0,136545,,2,620 P,0,136545,,A F,2,136545,136745,0.1
Sprite,Foreground,Centre,"sb\px.png",131,390 R,0,136658,,0.124 C,0,136658,,209,209,201 V,0,136658,,2,620 P,0,136658,,A F,2,136658,137083,0.1
Sprite,Foreground,Centre,"sb\px.png",135,384 R,0,136658,,0.216 C,0,136658,,209,209,201 V,0,136658,,2,620 P,0,136658,,A F,2,136658,137083,0.1
Sprite,Foreground,Centre,"sb\px.png",180,134 R,0,136996,,0.148 C,0,136996,,209,209,201 V,0,136996,,2,620 P,0,136996,,A F,2,136996,137196,0.1
Sprite,Foreground,Centre,"sb\px.png",196,128 R,0,136996,,0.222 C,0,136996,,209,209,201 V,0,136996,,2,620 P,0,136996,,A F,2,136996,137196,0.1
Sprite,Foreground,Centre,"sb\px.png",280,231 R,0,137109,,0.168 C,0,137109,,209,209,201 V,0,137109,,2,620 P,0,137109,,A F,2,137109,137420,0.1
Sprite,Foreground,Centre,"sb\px.png",264,214 R,0,137109,,0.275 C,0,137109,,209,209,201 V,0,137109,,2,620 P,0,137109,,A F,2,137109,137420,0.1
Sprite,Foreground,Centre,"sb\px.png",353,84 R,0,137331,,0.23 C,0,137331,,209,209,201 V,0,137331,,2,620 P,0,137331,,A F,2,137331,137642,0.1
Sprite,Foreground,Centre,"sb\px.png",339,65 R,0,137331,,0.194 C,0,137331,,209,209,201 V,0,137331,,2,620 P,0,137331,,A F,2,137331,137642,0.1
Sprite,Foreground,Centre,"sb\px.png",561,155 R,0,137553,,0.198 C,0,137553,,209,209,201 V,0,137553,,2,620 P,0,137553,,A F,2,137553,137864,0.1
Sprite,Foreground,Centre,"sb\px.png",575,138 R,0,137553,,0.173 C,0,137553,,209,209,201 V,0,137553,,2,620 P,0,137553,,A F,2,137553,137864,0.1
Sprite,Foreground,Centre,"sb\px.png",496,312 R,0,137775,,0.222 C,0,137775,,209,209,201 V,0,137775,,2,620 P,0,137775,,A F,2,137775,138086,0.1
Sprite,Foreground,Centre,"sb\px.png",489,312 R,0,137775,,0.292 C,0,137775,,209,209,201 V,0,137775,,2,620 P,0,137775,,A F,2,137775,138086,0.1
Sprite,Foreground,Centre,"sb\px.png",124,135 R,0,137997,,0.118 C,0,137997,,209,209,201 V,0,137997,,2,620 P,0,137997,,A F,2,137997,138197,0.1
Sprite,Foreground,Centre,"sb\px.png",125,113 R,0,137997,,0.122 C,0,137997,,209,209,201 V,0,137997,,2,620 P,0,137997,,A F,2,137997,138197,0.1
Sprite,Foreground,Centre,"sb\px.png",247,75 R,0,138108,,0.267 C,0,138108,,209,209,201 V,0,138108,,2,620 P,0,138108,,A F,2,138108,138531,0.1
Sprite,Foreground,Centre,"sb\px.png",245,89 R,0,138108,,0.148 C,0,138108,,209,209,201 V,0,138108,,2,620 P,0,138108,,A F,2,138108,138531,0.1
Sprite,Foreground,Centre,"sb\px.png",142,222 R,0,138444,,0.189 C,0,138444,,209,209,201 V,0,138444,,2,620 P,0,138444,,A F,2,138444,138867,0.1
Sprite,Foreground,Centre,"sb\px.png",144,221 R,0,138444,,0.192 C,0,138444,,209,209,201 V,0,138444,,2,620 P,0,138444,,A F,2,138444,138867,0.1
Sprite,Foreground,Centre,"sb\px.png",263,333 R,0,138780,,0.185 C,0,138780,,209,209,201 V,0,138780,,2,620 P,0,138780,,A F,2,138780,138980,0.1
Sprite,Foreground,Centre,"sb\px.png",272,339 R,0,138780,,0.221 C,0,138780,,209,209,201 V,0,138780,,2,620 P,0,138780,,A F,2,138780,138980,0.1
Sprite,Foreground,Centre,"sb\px.png",370,443 R,0,138892,,0.298 C,0,138892,,209,209,201 V,0,138892,,2,620 P,0,138892,,A F,2,138892,139427,0.1
Sprite,Foreground,Centre,"sb\px.png",394,441 R,0,138892,,0.127 C,0,138892,,209,209,201 V,0,138892,,2,620 P,0,138892,,A F,2,138892,139427,0.1
Sprite,Foreground,Centre,"sb\px.png",540,340 R,0,139340,,0.234 C,0,139340,,209,209,201 V,0,139340,,2,620 P,0,139340,,A F,2,139340,139767,0.1
Sprite,Foreground,Centre,"sb\px.png",551,349 R,0,139340,,0.165 C,0,139340,,209,209,201 V,0,139340,,2,620 P,0,139340,,A F,2,139340,139767,0.1
Sprite,Foreground,Centre,"sb\px.png",470,89 R,0,139680,,0.265 C,0,139680,,209,209,201 V,0,139680,,2,620 P,0,139680,,A F,2,139680,139880,0.1
Sprite,Foreground,Centre,"sb\px.png",463,89 R,0,139680,,0.132 C,0,139680,,209,209,201 V,0,139680,,2,620 P,0,139680,,A F,2,139680,139880,0.1
Sprite,Foreground,Centre,"sb\px.png",322,225 R,0,139794,,0.162 C,0,139794,,209,209,201 V,0,139794,,2,620 P,0,139794,,A F,2,139794,140104,0.1
Sprite,Foreground,Centre,"sb\px.png",310,233 R,0,139794,,0.192 C,0,139794,,209,209,201 V,0,139794,,2,620 P,0,139794,,A F,2,139794,140104,0.1
Sprite,Foreground,Centre,"sb\px.png",258,60 R,0,140014,,0.138 C,0,140014,,209,209,201 V,0,140014,,2,620 P,0,140014,,A F,2,140014,140324,0.1
Sprite,Foreground,Centre,"sb\px.png",235,69 R,0,140014,,0.141 C,0,140014,,209,209,201 V,0,140014,,2,620 P,0,140014,,A F,2,140014,140324,0.1
Sprite,Foreground,Centre,"sb\px.png",84,280 R,0,140235,,0.254 C,0,140235,,209,209,201 V,0,140235,,2,620 P,0,140235,,A F,2,140235,140435,0.1
Sprite,Foreground,Centre,"sb\px.png",82,268 R,0,140235,,0.187 C,0,140235,,209,209,201 V,0,140235,,2,620 P,0,140235,,A F,2,140235,140435,0.1
Sprite,Foreground,Centre,"sb\px.png",96,190 R,0,140346,,0.212 C,0,140346,,209,209,201 V,0,140346,,2,620 P,0,140346,,A F,2,140346,140546,0.1
Sprite,Foreground,Centre,"sb\px.png",114,184 R,0,140346,,0.103 C,0,140346,,209,209,201 V,0,140346,,2,620 P,0,140346,,A F,2,140346,140546,0.1
Sprite,Foreground,Centre,"sb\px.png",186,246 R,0,140458,,0.298 C,0,140458,,209,209,201 V,0,140458,,2,620 P,0,140458,,A F,2,140458,140769,0.1
Sprite,Foreground,Centre,"sb\px.png",172,236 R,0,140458,,0.156 C,0,140458,,209,209,201 V,0,140458,,2,620 P,0,140458,,A F,2,140458,140769,0.1
Sprite,Foreground,Centre,"sb\px.png",89,415 R,0,140682,,0.151 C,0,140682,,209,209,201 V,0,140682,,2,620 P,0,140682,,A F,2,140682,141217,0.1
Sprite,Foreground,Centre,"sb\px.png",78,392 R,0,140682,,0.189 C,0,140682,,209,209,201 V,0,140682,,2,620 P,0,140682,,A F,2,140682,141217,0.1
Sprite,Foreground,Centre,"sb\px.png",455,306 R,0,141130,,0.264 C,0,141130,,209,209,201 V,0,141130,,2,620 P,0,141130,,A F,2,141130,141441,0.1
Sprite,Foreground,Centre,"sb\px.png",462,309 R,0,141130,,0.14 C,0,141130,,209,209,201 V,0,141130,,2,620 P,0,141130,,A F,2,141130,141441,0.1
Sprite,Foreground,Centre,"sb\px.png",454,169 R,0,141353,,0.279 C,0,141353,,209,209,201 V,0,141353,,2,620 P,0,141353,,A F,2,141353,141553,0.1
Sprite,Foreground,Centre,"sb\px.png",440,169 R,0,141353,,0.171 C,0,141353,,209,209,201 V,0,141353,,2,620 P,0,141353,,A F,2,141353,141553,0.1
Sprite,Foreground,Centre,"sb\px.png",491,92 R,0,141465,,0.183 C,0,141465,,209,209,201 V,0,141465,,2,620 P,0,141465,,A F,2,141465,141665,0.1
Sprite,Foreground,Centre,"sb\px.png",486,95 R,0,141465,,0.232 C,0,141465,,209,209,201 V,0,141465,,2,620 P,0,141465,,A F,2,141465,141665,0.1
Sprite,Foreground,Centre,"sb\px.png",562,145 R,0,141577,,0.282 C,0,141577,,209,209,201 V,0,141577,,2,620 P,0,141577,,A F,2,141577,141777,0.1
Sprite,Foreground,Centre,"sb\px.png",552,138 R,0,141577,,0.168 C,0,141577,,209,209,201 V,0,141577,,2,620 P,0,141577,,A F,2,141577,141777,0.1
Sprite,Foreground,Centre,"sb\px.png",279,233 R,0,141689,,0.143 C,0,141689,,209,209,201 V,0,141689,,2,620 P,0,141689,,A F,2,141689,141889,0.1
Sprite,Foreground,Centre,"sb\px.png",292,225 R,0,141689,,0.272 C,0,141689,,209,209,201 V,0,141689,,2,620 P,0,141689,,A F,2,141689,141889,0.1
Sprite,Foreground,Centre,"sb\px.png",223,144 R,0,141801,,0.199 C,0,141801,,209,209,201 V,0,141801,,2,620 P,0,141801,,A F,2,141801,142001,0.1
Sprite,Foreground,Centre,"sb\px.png",204,141 R,0,141801,,0.152 C,0,141801,,209,209,201 V,0,141801,,2,620 P,0,141801,,A F,2,141801,142001,0.1
Sprite,Foreground,Centre,"sb\px.png",286,71 R,0,141913,,0.281 C,0,141913,,209,209,201 V,0,141913,,2,620 P,0,141913,,A F,2,141913,142113,0.1
Sprite,Foreground,Centre,"sb\px.png",278,76 R,0,141913,,0.257 C,0,141913,,209,209,201 V,0,141913,,2,620 P,0,141913,,A F,2,141913,142113,0.1
Sprite,Foreground,Centre,"sb\px.png",330,163 R,0,142025,,0.222 C,0,142025,,209,209,201 V,0,142025,,2,620 P,0,142025,,A F,2,142025,142340,0.1
Sprite,Foreground,Centre,"sb\px.png",346,177 R,0,142025,,0.263 C,0,142025,,209,209,201 V,0,142025,,2,620 P,0,142025,,A F,2,142025,142340,0.1
Sprite,Foreground,Centre,"sb\px.png",261,432 R,0,142255,,0.175 C,0,142255,,209,209,201 V,0,142255,,2,620 P,0,142255,,A F,2,142255,142455,0.1
Sprite,Foreground,Centre,"sb\px.png",253,444 R,0,142255,,0.116 C,0,142255,,209,209,201 V,0,142255,,2,620 P,0,142255,,A F,2,142255,142455,0.1
Sprite,Foreground,Centre,"sb\px.png",168,326 R,0,142371,,0.131 C,0,142371,,209,209,201 V,0,142371,,2,620 P,0,142371,,A F,2,142371,142571,0.1
Sprite,Foreground,Centre,"sb\px.png",167,298 R,0,142371,,0.13 C,0,142371,,209,209,201 V,0,142371,,2,620 P,0,142371,,A F,2,142371,142571,0.1
Sprite,Foreground,Centre,"sb\px.png",184,390 R,0,142486,,0.166 C,0,142486,,209,209,201 V,0,142486,,2,620 P,0,142486,,A F,2,142486,142686,0.1
Sprite,Foreground,Centre,"sb\px.png",156,404 R,0,142486,,0.214 C,0,142486,,209,209,201 V,0,142486,,2,620 P,0,142486,,A F,2,142486,142686,0.1
Sprite,Foreground,Centre,"sb\px.png",258,283 R,0,142597,,0.123 C,0,142597,,209,209,201 V,0,142597,,2,620 P,0,142597,,A F,2,142597,142797,0.1
Sprite,Foreground,Centre,"sb\px.png",237,300 R,0,142597,,0.266 C,0,142597,,209,209,201 V,0,142597,,2,620 P,0,142597,,A F,2,142597,142797,0.1
Sprite,Foreground,Centre,"sb\px.png",330,366 R,0,142708,,0.135 C,0,142708,,209,209,201 V,0,142708,,2,620 P,0,142708,,A F,2,142708,142908,0.1
Sprite,Foreground,Centre,"sb\px.png",311,364 R,0,142708,,0.215 C,0,142708,,209,209,201 V,0,142708,,2,620 P,0,142708,,A F,2,142708,142908,0.1
Sprite,Foreground,Centre,"sb\px.png",95,364 R,0,142819,,0.145 C,0,142819,,209,209,201 V,0,142819,,2,620 P,0,142819,,A F,2,142819,143370,0.1
Sprite,Foreground,Centre,"sb\px.png",86,341 R,0,142819,,0.156 C,0,142819,,209,209,201 V,0,142819,,2,620 P,0,142819,,A F,2,142819,143370,0.1
Sprite,Foreground,Centre,"sb\px.png",341,86 R,0,135756,,-0.747 C,0,135756,,209,209,201 V,0,135756,,2,620 P,0,135756,,A F,2,135756,136181,0.1
Sprite,Foreground,Centre,"sb\px.png",336,68 R,0,135756,,-0.789 C,0,135756,,209,209,201 V,0,135756,,2,620 P,0,135756,,A F,2,135756,136181,0.1
Sprite,Foreground,Centre,"sb\px.png",291,225 R,0,136094,,-0.705 C,0,136094,,209,209,201 V,0,136094,,2,620 P,0,136094,,A F,2,136094,136294,0.1
Sprite,Foreground,Centre,"sb\px.png",272,220 R,0,136094,,-0.807 C,0,136094,,209,209,201 V,0,136094,,2,620 P,0,136094,,A F,2,136094,136294,0.1
Sprite,Foreground,Centre,"sb\px.png",398,130 R,0,136207,,-0.704 C,0,136207,,209,209,201 V,0,136207,,2,620 P,0,136207,,A F,2,136207,136632,0.1
Sprite,Foreground,Centre,"sb\px.png",380,141 R,0,136207,,-0.701 C,0,136207,,209,209,201 V,0,136207,,2,620 P,0,136207,,A F,2,136207,136632,0.1
Sprite,Foreground,Centre,"sb\px.png",357,370 R,0,136545,,-0.737 C,0,136545,,209,209,201 V,0,136545,,2,620 P,0,136545,,A F,2,136545,136745,0.1
Sprite,Foreground,Centre,"sb\px.png",362,390 R,0,136545,,-0.894 C,0,136545,,209,209,201 V,0,136545,,2,620 P,0,136545,,A F,2,136545,136745,0.1
Sprite,Foreground,Centre,"sb\px.png",150,385 R,0,136658,,-0.714 C,0,136658,,209,209,201 V,0,136658,,2,620 P,0,136658,,A F,2,136658,137083,0.1
Sprite,Foreground,Centre,"sb\px.png",150,386 R,0,136658,,-0.884 C,0,136658,,209,209,201 V,0,136658,,2,620 P,0,136658,,A F,2,136658,137083,0.1
Sprite,Foreground,Centre,"sb\px.png",178,138 R,0,136996,,-0.841 C,0,136996,,209,209,201 V,0,136996,,2,620 P,0,136996,,A F,2,136996,137196,0.1
Sprite,Foreground,Centre,"sb\px.png",202,144 R,0,136996,,-0.748 C,0,136996,,209,209,201 V,0,136996,,2,620 P,0,136996,,A F,2,136996,137196,0.1
Sprite,Foreground,Centre,"sb\px.png",264,223 R,0,137109,,-0.832 C,0,137109,,209,209,201 V,0,137109,,2,620 P,0,137109,,A F,2,137109,137420,0.1
Sprite,Foreground,Centre,"sb\px.png",292,227 R,0,137109,,-0.757 C,0,137109,,209,209,201 V,0,137109,,2,620 P,0,137109,,A F,2,137109,137420,0.1
Sprite,Foreground,Centre,"sb\px.png",335,66 R,0,137331,,-0.719 C,0,137331,,209,209,201 V,0,137331,,2,620 P,0,137331,,A F,2,137331,137642,0.1
Sprite,Foreground,Centre,"sb\px.png",355,68 R,0,137331,,-0.809 C,0,137331,,209,209,201 V,0,137331,,2,620 P,0,137331,,A F,2,137331,137642,0.1
Sprite,Foreground,Centre,"sb\px.png",560,135 R,0,137553,,-0.818 C,0,137553,,209,209,201 V,0,137553,,2,620 P,0,137553,,A F,2,137553,137864,0.1
Sprite,Foreground,Centre,"sb\px.png",577,147 R,0,137553,,-0.803 C,0,137553,,209,209,201 V,0,137553,,2,620 P,0,137553,,A F,2,137553,137864,0.1
Sprite,Foreground,Centre,"sb\px.png",494,309 R,0,137775,,-0.735 C,0,137775,,209,209,201 V,0,137775,,2,620 P,0,137775,,A F,2,137775,138086,0.1
Sprite,Foreground,Centre,"sb\px.png",511,308 R,0,137775,,-0.765 C,0,137775,,209,209,201 V,0,137775,,2,620 P,0,137775,,A F,2,137775,138086,0.1
Sprite,Foreground,Centre,"sb\px.png",138,118 R,0,137997,,-0.721 C,0,137997,,209,209,201 V,0,137997,,2,620 P,0,137997,,A F,2,137997,138197,0.1
Sprite,Foreground,Centre,"sb\px.png",146,114 R,0,137997,,-0.733 C,0,137997,,209,209,201 V,0,137997,,2,620 P,0,137997,,A F,2,137997,138197,0.1
Sprite,Foreground,Centre,"sb\px.png",231,91 R,0,138108,,-0.735 C,0,138108,,209,209,201 V,0,138108,,2,620 P,0,138108,,A F,2,138108,138531,0.1
Sprite,Foreground,Centre,"sb\px.png",232,101 R,0,138108,,-0.804 C,0,138108,,209,209,201 V,0,138108,,2,620 P,0,138108,,A F,2,138108,138531,0.1
Sprite,Foreground,Centre,"sb\px.png",136,218 R,0,138444,,-0.739 C,0,138444,,209,209,201 V,0,138444,,2,620 P,0,138444,,A F,2,138444,138867,0.1
Sprite,Foreground,Centre,"sb\px.png",120,218 R,0,138444,,-0.757 C,0,138444,,209,209,201 V,0,138444,,2,620 P,0,138444,,A F,2,138444,138867,0.1
Sprite,Foreground,Centre,"sb\px.png",256,337 R,0,138780,,-0.863 C,0,138780,,209,209,201 V,0,138780,,2,620 P,0,138780,,A F,2,138780,138980,0.1
Sprite,Foreground,Centre,"sb\px.png",267,326 R,0,138780,,-0.835 C,0,138780,,209,209,201 V,0,138780,,2,620 P,0,138780,,A F,2,138780,138980,0.1
Sprite,Foreground,Centre,"sb\px.png",388,439 R,0,138892,,-0.734 C,0,138892,,209,209,201 V,0,138892,,2,620 P,0,138892,,A F,2,138892,139427,0.1
Sprite,Foreground,Centre,"sb\px.png",392,448 R,0,138892,,-0.748 C,0,138892,,209,209,201 V,0,138892,,2,620 P,0,138892,,A F,2,138892,139427,0.1
Sprite,Foreground,Centre,"sb\px.png",568,332 R,0,139340,,-0.796 C,0,139340,,209,209,201 V,0,139340,,2,620 P,0,139340,,A F,2,139340,139767,0.1
Sprite,Foreground,Centre,"sb\px.png",559,333 R,0,139340,,-0.843 C,0,139340,,209,209,201 V,0,139340,,2,620 P,0,139340,,A F,2,139340,139767,0.1
Sprite,Foreground,Centre,"sb\px.png",471,80 R,0,139680,,-0.863 C,0,139680,,209,209,201 V,0,139680,,2,620 P,0,139680,,A F,2,139680,139880,0.1
Sprite,Foreground,Centre,"sb\px.png",449,92 R,0,139680,,-0.762 C,0,139680,,209,209,201 V,0,139680,,2,620 P,0,139680,,A F,2,139680,139880,0.1
Sprite,Foreground,Centre,"sb\px.png",321,236 R,0,139794,,-0.856 C,0,139794,,209,209,201 V,0,139794,,2,620 P,0,139794,,A F,2,139794,140104,0.1
Sprite,Foreground,Centre,"sb\px.png",330,210 R,0,139794,,-0.72 C,0,139794,,209,209,201 V,0,139794,,2,620 P,0,139794,,A F,2,139794,140104,0.1
Sprite,Foreground,Centre,"sb\px.png",251,52 R,0,140014,,-0.871 C,0,140014,,209,209,201 V,0,140014,,2,620 P,0,140014,,A F,2,140014,140324,0.1
Sprite,Foreground,Centre,"sb\px.png",234,68 R,0,140014,,-0.71 C,0,140014,,209,209,201 V,0,140014,,2,620 P,0,140014,,A F,2,140014,140324,0.1
Sprite,Foreground,Centre,"sb\px.png",82,269 R,0,140235,,-0.765 C,0,140235,,209,209,201 V,0,140235,,2,620 P,0,140235,,A F,2,140235,140435,0.1
Sprite,Foreground,Centre,"sb\px.png",85,271 R,0,140235,,-0.777 C,0,140235,,209,209,201 V,0,140235,,2,620 P,0,140235,,A F,2,140235,140435,0.1
Sprite,Foreground,Centre,"sb\px.png",93,175 R,0,140346,,-0.73 C,0,140346,,209,209,201 V,0,140346,,2,620 P,0,140346,,A F,2,140346,140546,0.1
Sprite,Foreground,Centre,"sb\px.png",94,173 R,0,140346,,-0.76 C,0,140346,,209,209,201 V,0,140346,,2,620 P,0,140346,,A F,2,140346,140546,0.1
Sprite,Foreground,Centre,"sb\px.png",197,262 R,0,140458,,-0.823 C,0,140458,,209,209,201 V,0,140458,,2,620 P,0,140458,,A F,2,140458,140769,0.1
Sprite,Foreground,Centre,"sb\px.png",184,241 R,0,140458,,-0.799 C,0,140458,,209,209,201 V,0,140458,,2,620 P,0,140458,,A F,2,140458,140769,0.1
Sprite,Foreground,Centre,"sb\px.png",86,393 R,0,140682,,-0.844 C,0,140682,,209,209,201 V,0,140682,,2,620 P,0,140682,,A F,2,140682,141217,0.1
Sprite,Foreground,Centre,"sb\px.png",85,417 R,0,140682,,-0.778 C,0,140682,,209,209,201 V,0,140682,,2,620 P,0,140682,,A F,2,140682,141217,0.1
Sprite,Foreground,Centre,"sb\px.png",450,303 R,0,141130,,-0.82 C,0,141130,,209,209,201 V,0,141130,,2,620 P,0,141130,,A F,2,141130,141441,0.1
Sprite,Foreground,Centre,"sb\px.png",475,284 R,0,141130,,-0.761 C,0,141130,,209,209,201 V,0,141130,,2,620 P,0,141130,,A F,2,141130,141441,0.1
Sprite,Foreground,Centre,"sb\px.png",444,168 R,0,141353,,-0.763 C,0,141353,,209,209,201 V,0,141353,,2,620 P,0,141353,,A F,2,141353,141553,0.1
Sprite,Foreground,Centre,"sb\px.png",443,149 R,0,141353,,-0.864 C,0,141353,,209,209,201 V,0,141353,,2,620 P,0,141353,,A F,2,141353,141553,0.1
Sprite,Foreground,Centre,"sb\px.png",493,90 R,0,141465,,-0.701 C,0,141465,,209,209,201 V,0,141465,,2,620 P,0,141465,,A F,2,141465,141665,0.1
Sprite,Foreground,Centre,"sb\px.png",492,84 R,0,141465,,-0.848 C,0,141465,,209,209,201 V,0,141465,,2,620 P,0,141465,,A F,2,141465,141665,0.1
Sprite,Foreground,Centre,"sb\px.png",569,135 R,0,141577,,-0.771 C,0,141577,,209,209,201 V,0,141577,,2,620 P,0,141577,,A F,2,141577,141777,0.1
Sprite,Foreground,Centre,"sb\px.png",559,147 R,0,141577,,-0.885 C,0,141577,,209,209,201 V,0,141577,,2,620 P,0,141577,,A F,2,141577,141777,0.1
Sprite,Foreground,Centre,"sb\px.png",280,214 R,0,141689,,-0.738 C,0,141689,,209,209,201 V,0,141689,,2,620 P,0,141689,,A F,2,141689,141889,0.1
Sprite,Foreground,Centre,"sb\px.png",284,227 R,0,141689,,-0.79 C,0,141689,,209,209,201 V,0,141689,,2,620 P,0,141689,,A F,2,141689,141889,0.1
Sprite,Foreground,Centre,"sb\px.png",215,165 R,0,141801,,-0.84 C,0,141801,,209,209,201 V,0,141801,,2,620 P,0,141801,,A F,2,141801,142001,0.1
Sprite,Foreground,Centre,"sb\px.png",196,149 R,0,141801,,-0.804 C,0,141801,,209,209,201 V,0,141801,,2,620 P,0,141801,,A F,2,141801,142001,0.1
Sprite,Foreground,Centre,"sb\px.png",274,56 R,0,141913,,-0.854 C,0,141913,,209,209,201 V,0,141913,,2,620 P,0,141913,,A F,2,141913,142113,0.1
Sprite,Foreground,Centre,"sb\px.png",272,67 R,0,141913,,-0.81 C,0,141913,,209,209,201 V,0,141913,,2,620 P,0,141913,,A F,2,141913,142113,0.1
Sprite,Foreground,Centre,"sb\px.png",327,171 R,0,142025,,-0.737 C,0,142025,,209,209,201 V,0,142025,,2,620 P,0,142025,,A F,2,142025,142340,0.1
Sprite,Foreground,Centre,"sb\px.png",333,187 R,0,142025,,-0.895 C,0,142025,,209,209,201 V,0,142025,,2,620 P,0,142025,,A F,2,142025,142340,0.1
Sprite,Foreground,Centre,"sb\px.png",251,453 R,0,142255,,-0.702 C,0,142255,,209,209,201 V,0,142255,,2,620 P,0,142255,,A F,2,142255,142455,0.1
Sprite,Foreground,Centre,"sb\px.png",236,444 R,0,142255,,-0.845 C,0,142255,,209,209,201 V,0,142255,,2,620 P,0,142255,,A F,2,142255,142455,0.1
Sprite,Foreground,Centre,"sb\px.png",182,314 R,0,142371,,-0.746 C,0,142371,,209,209,201 V,0,142371,,2,620 P,0,142371,,A F,2,142371,142571,0.1
Sprite,Foreground,Centre,"sb\px.png",162,309 R,0,142371,,-0.706 C,0,142371,,209,209,201 V,0,142371,,2,620 P,0,142371,,A F,2,142371,142571,0.1
Sprite,Foreground,Centre,"sb\px.png",181,418 R,0,142486,,-0.849 C,0,142486,,209,209,201 V,0,142486,,2,620 P,0,142486,,A F,2,142486,142686,0.1
Sprite,Foreground,Centre,"sb\px.png",158,415 R,0,142486,,-0.865 C,0,142486,,209,209,201 V,0,142486,,2,620 P,0,142486,,A F,2,142486,142686,0.1
Sprite,Foreground,Centre,"sb\px.png",259,293 R,0,142597,,-0.743 C,0,142597,,209,209,201 V,0,142597,,2,620 P,0,142597,,A F,2,142597,142797,0.1
Sprite,Foreground,Centre,"sb\px.png",248,287 R,0,142597,,-0.702 C,0,142597,,209,209,201 V,0,142597,,2,620 P,0,142597,,A F,2,142597,142797,0.1
Sprite,Foreground,Centre,"sb\px.png",309,379 R,0,142708,,-0.876 C,0,142708,,209,209,201 V,0,142708,,2,620 P,0,142708,,A F,2,142708,142908,0.1
Sprite,Foreground,Centre,"sb\px.png",313,373 R,0,142708,,-0.784 C,0,142708,,209,209,201 V,0,142708,,2,620 P,0,142708,,A F,2,142708,142908,0.1
Sprite,Foreground,Centre,"sb\px.png",81,349 R,0,142819,,-0.852 C,0,142819,,209,209,201 V,0,142819,,2,620 P,0,142819,,A F,2,142819,143370,0.1
Sprite,Foreground,Centre,"sb\px.png",97,343 R,0,142819,,-0.778 C,0,142819,,209,209,201 V,0,142819,,2,620 P,0,142819,,A F,2,142819,143370,0.1
//Storyboard Layer 4 (Overlay)
//Storyboard Sound Samples

[TimingPoints]
3,447.761194029851,4,2,1,70,1,8
562,491.803278688525,4,2,1,70,1,0
685,458.015267175573,4,2,1,70,1,8
914,434.782608695652,4,2,1,70,1,8
1348,419.58041958042,4,2,1,70,1,8
1767,441.176470588235,4,2,1,70,1,8
2208,571.428571428571,4,2,1,70,1,8
2350,437.956204379562,4,2,1,70,1,0
2422,-100,4,2,1,60,0,0
2495,-100,4,2,1,50,0,0
2568,-100,4,2,1,60,0,0
2641,-100,4,2,1,70,0,0
2787,-62.5,4,2,1,70,0,0
3006,454.545454545455,4,2,1,70,1,8
3006,-62.5782227784731,4,2,1,70,0,0
3460,540.540540540541,4,2,1,70,1,8
3595,425.531914893617,4,2,1,70,1,8
3595,-71.4285714285714,4,2,1,70,0,8
4020,458.015267175573,4,2,1,70,1,8
4134,458.015267175573,4,2,1,70,1,0
4363,437.956204379562,4,2,5,50,1,8
4800,458.015267175573,4,2,5,50,1,8
5258,468.75,4,2,5,50,1,8
5609,447.761194029851,4,2,5,50,1,8
5832,408.163265306122,4,2,5,50,1,8
5934,408.163265306122,4,2,5,50,1,0
6138,454.545454545455,4,2,5,50,1,8
7615,441.176470588235,4,2,5,50,1,8
7725,441.176470588235,4,2,5,50,1,0
7945,447.761194029851,4,2,5,50,1,8
9512,447.761194029851,4,2,5,50,1,0
10631,487.80487804878,4,2,5,50,1,8
10996,402.684563758389,4,2,5,50,1,8
11298,454.545454545455,4,2,1,70,1,0
11752,447.761194029851,4,2,1,70,1,8
12647,437.956204379562,4,2,1,70,1,8
13084,458.015267175573,4,2,1,70,1,0
13542,434.782608695652,4,2,1,70,1,8
13976,447.761194029851,4,2,1,70,1,8
14423,437.956204379562,4,2,1,70,1,8
14860,461.538461538462,4,2,1,70,1,0
15321,447.761194029851,4,2,1,70,1,8
15992,431.654676258993,4,2,1,70,1,8
16207,447.761194029851,4,2,1,70,1,8
16654,447.761194029851,4,2,1,70,1,0
17102,437.956204379562,4,2,1,70,1,8
17539,465.116279069767,4,2,1,70,1,8
18004,447.761194029851,4,2,1,70,1,8
18451,447.761194029851,4,2,1,70,1,0
18451,-71.4285714285714,4,2,1,70,0,0
20242,441.176470588235,4,2,1,70,1,0
20242,-71.4285714285714,4,2,1,70,0,0
21124,458.015267175573,4,2,1,70,1,8
21124,-71.4285714285714,4,2,1,70,0,0
21582,447.761194029851,4,2,1,70,1,8
21582,-71.4285714285714,4,2,1,70,0,0
22029,447.761194029851,4,2,1,70,1,0
22029,-71.4285714285714,4,2,1,70,0,0
22476,454.545454545455,4,2,1,70,1,8
22476,-71.4285714285714,4,2,1,70,0,0
23385,447.761194029851,4,2,1,70,1,8
23385,-71.4285714285714,4,2,1,70,0,0
23608,416.666666666667,4,2,1,70,1,8
23608,-71.4285714285714,4,2,1,70,0,0
23816,458.015267175573,4,2,1,70,1,0
23816,-71.4285714285714,4,2,1,70,0,0
24274,444.444444444444,4,2,1,70,1,8
24274,-71.4285714285714,4,2,1,70,0,0
25162,476.190476190476,4,2,1,70,1,8
25162,-71.4285714285714,4,2,1,70,0,0
25400,413.793103448276,4,2,1,70,1,8
25400,-71.4285714285714,4,2,1,70,0,0
25606,447.761194029851,4,2,1,70,1,0
26501,461.538461538462,4,2,1,70,1,8
26962,447.761194029851,4,2,1,70,1,8
27409,447.761194029851,4,2,1,70,1,0
32334,441.176470588235,4,2,1,70,1,8
32775,447.761194029851,4,2,1,70,1,0
32775,-76.9230769230769,4,2,1,70,0,0
33222,454.545454545455,4,2,1,70,1,8
33222,-76.9230769230769,4,2,1,70,0,0
34131,446.096654275093,4,2,1,70,1,8
34131,-76.9230769230769,4,2,1,70,0,0
34577,446.096654275093,4,2,1,70,1,0
34577,-76.9230769230769,4,2,1,70,0,0
35023,447.761194029851,4,2,1,70,1,8
35023,-76.9230769230769,4,2,1,70,0,0
36366,444.444444444444,4,2,1,70,1,0
36366,-83.3333333333333,4,2,1,70,0,0
37254,451.127819548872,4,2,1,70,1,8
37254,-71.4285714285714,4,2,1,70,0,0
38156,446.096654275093,4,2,1,70,1,0
38156,-58.8235294117647,4,2,1,70,0,0
38602,-66.6666666666667,4,2,1,70,0,0
39048,447.761194029851,4,2,1,70,1,8
39048,-76.9230769230769,4,2,1,70,0,0
39495,-90.9090909090909,4,2,1,70,0,0
39719,416.666666666667,4,2,1,70,1,8
39719,-76.9230769230769,4,2,1,70,0,0
39927,454.545454545455,4,2,1,70,1,0
39927,-83.3333333333333,4,2,1,70,0,0
40836,447.761194029851,4,2,1,70,1,8
40836,-83.3333333333333,4,2,1,70,0,0
41731,451.127819548872,4,2,1,70,1,0
41731,-83.3333333333333,4,2,1,70,0,0
43535,447.761194029851,4,2,1,70,1,0
43535,-83.3333333333333,4,2,1,70,0,0
45102,425.531914893617,4,2,1,70,1,8
45102,-83.3333333333333,4,2,1,70,0,0
45314,458.015267175573,4,2,1,70,1,0
45314,-83.3333333333333,4,2,1,70,0,0
45772,441.176470588235,4,2,1,70,1,8
45772,-83.3333333333333,4,2,1,70,0,0
46654,447.761194029851,4,2,1,70,1,8
46654,-83.3333333333333,4,2,1,70,0,0
46877,416.666666666667,4,2,1,70,1,8
46877,-83.3333333333333,4,2,1,70,0,0
47085,451.127819548872,4,2,1,70,1,0
47085,-71.4285714285714,4,2,1,70,0,0
47536,-72.463768115942,4,2,1,70,0,0
47987,458.015267175573,4,2,1,70,1,8
47987,-71.4285714285714,4,2,1,70,0,0
48445,447.761194029851,4,2,1,70,1,8
48445,-71.4285714285714,4,2,1,70,0,0
48892,454.545454545455,4,2,1,70,1,0
48892,-71.4285714285714,4,2,1,70,0,0
49346,447.761194029851,4,2,1,70,1,8
49346,-71.4285714285714,4,2,1,70,0,0
50241,442.80442804428,4,2,1,70,1,8
50241,-71.4285714285714,4,2,1,70,0,0
50683,454.545454545455,4,2,1,70,1,0
50683,-71.4285714285714,4,2,1,70,0,0
51137,447.761194029851,4,2,1,70,1,8
51137,-71.4285714285714,4,2,1,70,0,0
52480,444.444444444444,4,2,1,70,1,0
52480,-71.4285714285714,4,2,1,70,0,0
53813,451.127819548872,4,2,1,70,1,8
53813,-71.4285714285714,4,2,1,70,0,0
54264,447.761194029851,4,2,1,70,1,0
54264,-71.4285714285714,4,2,1,70,0,0
55943,-74.0740740740741,4,2,1,70,0,0
56055,480,4,2,1,70,1,0
56055,-71.4285714285714,4,2,1,70,0,0
56295,447.761194029851,4,2,1,70,1,8
56742,441.176470588235,4,2,1,70,1,8
56742,-71.4285714285714,4,2,1,70,0,0
57183,447.761194029851,4,2,1,70,1,8
57183,-71.4285714285714,4,2,1,70,0,0
57854,458.015267175573,4,2,1,70,1,0
57854,-71.4285714285714,4,2,1,70,0,0
58312,437.956204379562,4,2,1,70,1,8
58312,-71.4285714285714,4,2,1,70,0,0
58749,447.761194029851,4,2,1,70,1,8
58749,-71.4285714285714,4,2,1,70,0,0
59644,454.545454545455,4,2,1,70,1,0
59644,-71.4285714285714,4,2,1,70,0,0
60098,447.761194029851,4,2,1,70,1,8
60098,-55.5555555555556,4,2,1,70,0,0
60993,454.545454545455,4,2,1,70,1,8
60993,-55.5555555555556,4,2,1,70,0,0
61447,447.761194029851,4,2,5,50,1,0
63238,465.116279069767,4,2,5,50,1,0
63703,447.761194029851,4,2,5,50,1,8
64150,431.654676258993,4,2,5,50,1,8
64581,447.761194029851,4,2,5,50,1,8
65028,447.761194029851,4,2,5,50,1,0
68386,441.176470588235,4,2,5,50,1,8
68606,447.761194029851,4,2,5,60,1,0
71964,480,4,2,5,60,1,8
72204,425.531914893617,4,2,5,60,1,0
72629,444.444444444444,4,2,5,60,1,8
73517,447.761194029851,4,2,5,60,1,8
73964,447.427293064877,4,2,5,50,1,0
74415,491.803278688525,4,2,5,55,1,8
74660,447.761194029851,4,2,5,55,1,8
75107,461.538461538462,4,2,5,60,1,8
75337,491.803278688525,4,2,5,70,1,8
75582,397.350993377483,4,2,5,70,1,8
75780,444.444444444444,4,2,1,70,1,0
75780,-62.5,4,2,1,70,0,0
76668,447.761194029851,4,2,1,70,1,8
76668,-62.5,4,2,1,70,0,0
77563,447.761194029851,4,2,1,70,1,0
77563,-62.5,4,2,1,70,0,0
79354,444.444444444444,4,2,1,70,1,0
79354,-62.5,4,2,1,70,0,0
79798,447.761194029851,4,2,1,70,1,8
79798,-62.5,4,2,1,70,0,0
80917,434.782608695652,4,2,1,70,1,8
80917,-62.5,4,2,1,70,0,0
81134,446.096654275093,4,2,1,70,1,0
81134,-62.5,4,2,1,70,0,0
82472,454.545454545455,4,2,1,70,1,8
82472,-62.5,4,2,1,70,0,0
82926,447.761194029851,4,2,1,70,1,0
82926,-62.5,4,2,1,70,0,0
86284,437.956204379562,4,2,1,70,1,8
86284,-62.5,4,2,1,70,0,0
86502,447.761194029851,4,2,1,70,1,0
86502,-62.5,4,2,1,70,0,0
87397,451.127819548872,4,2,1,70,1,8
87397,-62.5,4,2,1,70,0,0
88073,419.58041958042,4,2,1,70,1,8
88073,-62.5,4,2,1,70,0,0
88282,465.116279069767,4,2,1,70,1,0
88282,-62.5,4,2,1,70,0,0
88747,437.956204379562,4,2,1,70,1,8
88747,-62.5,4,2,1,70,0,0
89184,447.761194029851,4,2,1,70,1,8
89184,-62.5,4,2,1,70,0,0
90079,461.538461538462,4,2,1,70,1,0
90079,-83.3333333333333,4,2,1,70,0,0
90540,446.096654275093,4,2,1,70,1,8
90540,-83.3333333333333,4,2,1,70,0,0
91432,454.545454545455,4,2,1,70,1,8
91432,-83.3333333333333,4,2,1,70,0,0
91886,454.545454545455,4,2,1,70,1,0
91886,-83.3333333333333,4,2,1,70,0,0
92341,446.096654275093,4,2,1,70,1,8
92341,-83.3333333333333,4,2,1,70,0,0
93233,431.654676258993,4,2,1,70,1,8
93233,-83.3333333333333,4,2,1,70,0,0
93664,447.761194029851,4,2,1,70,1,0
93664,-83.3333333333333,4,2,1,70,0,0
94111,454.545454545455,4,2,1,70,1,8
94111,-83.3333333333333,4,2,1,70,0,0
95020,447.761194029851,4,2,1,70,1,8
95020,-83.3333333333333,4,2,1,70,0,0
95243,425.531914893617,4,2,1,70,1,8
95243,-83.3333333333333,4,2,1,70,0,0
95455,465.116279069767,4,2,1,70,1,0
95455,-83.3333333333333,4,2,1,70,0,0
95920,444.444444444444,4,2,1,70,1,8
95920,-83.3333333333333,4,2,1,70,0,0
97253,447.761194029851,4,2,1,70,1,0
97253,-83.3333333333333,4,2,1,70,0,0
99044,458.015267175573,4,2,1,70,1,0
99044,-83.3333333333333,4,2,1,70,0,0
99502,447.761194029851,4,2,1,70,1,8
99502,-83.3333333333333,4,2,1,70,0,0
100621,434.782608695652,4,2,1,70,1,8
100621,-83.3333333333333,4,2,1,70,0,0
100838,447.761194029851,4,2,1,70,1,0
100838,-83.3333333333333,4,2,1,70,0,0
102181,437.956204379562,4,2,1,70,1,8
102181,-83.3333333333333,4,2,1,70,0,0
102618,458.015267175573,4,2,1,70,1,0
102618,-83.3333333333333,4,2,1,70,0,0
103076,447.761194029851,4,2,1,70,1,8
103076,-83.3333333333333,4,2,1,70,0,0
104419,447.761194029851,4,2,1,70,1,0
104419,-83.3333333333333,4,2,1,70,0,0
105986,437.956204379562,4,2,1,70,1,8
105986,-83.3333333333333,4,2,1,70,0,0
106204,447.761194029851,4,2,1,70,1,0
106204,-83.3333333333333,4,2,1,70,0,0
107099,458.015267175573,4,2,1,70,1,8
107099,-83.3333333333333,4,2,1,70,0,0
107557,437.956204379562,4,2,1,70,1,8
107557,-83.3333333333333,4,2,1,70,0,0
107994,465.116279069767,4,2,1,70,1,0
107994,-83.3333333333333,4,2,1,70,0,0
108459,444.444444444444,4,2,1,70,1,8
108459,-83.3333333333333,4,2,1,70,0,0
109792,447.761194029851,4,2,1,70,1,0
109792,-83.3333333333333,4,2,1,70,0,0
111135,491.803278688525,4,2,1,70,1,8
111135,-83.3333333333333,4,2,1,70,0,0
111380,352.941176470588,4,2,1,70,1,8
111380,-83.3333333333333,4,2,1,70,0,0
111556,491.803278688525,4,2,1,60,1,0
111924,387.096774193548,4,2,1,60,1,8
112020,461.538461538462,4,2,1,60,1,8
112250,-100,4,2,1,40,0,8
112327,-100,4,2,1,50,0,8
112404,-100,4,2,1,60,0,8
112481,447.761194029851,4,2,1,70,1,8
112816,431.654676258993,4,2,1,70,1,8
112816,-71.4285714285714,4,2,1,70,0,0
113031,461.538461538462,4,2,1,70,1,8
113031,-71.4285714285714,4,2,1,70,0,0
113492,428.571428571429,4,2,1,70,1,8
113706,480,4,2,1,70,1,8
113706,-109.89010989011,4,2,1,70,0,0
113946,444.444444444444,4,2,1,70,1,8
114279,461.538461538462,4,2,1,70,1,0
114740,447.761194029851,4,2,5,70,1,8
114740,-100,4,2,5,70,0,0
115187,444.444444444444,4,2,5,70,1,8
116075,444.444444444444,4,2,5,70,1,0
118297,447.761194029851,4,2,5,70,1,8
119640,444.444444444444,4,2,5,70,1,0
120528,447.761194029851,4,2,5,70,1,8
121423,447.761194029851,4,2,5,70,1,0
121423,-83.3333333333333,4,2,5,70,0,0
121534,-83.3333333333333,4,2,5,70,0,0
121646,-83.3333333333333,4,2,5,70,0,0
121758,-83.3333333333333,4,2,5,70,0,0
121870,-83.3333333333333,4,2,5,70,0,0
121982,-83.3333333333333,4,2,5,70,0,0
122094,-83.3333333333333,4,2,5,70,0,0
122206,-83.3333333333333,4,2,5,70,0,0
122318,-83.3333333333333,4,2,5,70,0,0
122430,-83.3333333333333,4,2,5,70,0,0
122542,-83.3333333333333,4,2,5,70,0,0
122654,-83.3333333333333,4,2,5,70,0,0
122766,454.545454545455,4,2,5,70,1,8
122766,-83.3333333333333,4,2,5,70,0,0
122879,-83.3333333333333,4,2,5,70,0,0
122993,-83.3333333333333,4,2,5,70,0,0
123106,-83.3333333333333,4,2,5,70,0,0
123220,451.127819548872,4,2,5,70,1,0
123220,-83.3333333333333,4,2,5,70,0,0
124573,444.444444444444,4,2,5,70,1,8
124573,-83.3333333333333,4,2,5,70,0,0
125017,444.444444444444,4,2,5,70,1,0
125017,-83.3333333333333,4,2,5,70,0,0
125905,454.545454545455,4,2,5,70,1,8
125905,-83.3333333333333,4,2,5,70,0,0
126814,444.444444444444,4,2,5,70,1,0
126814,-125,4,2,5,70,0,0
127702,447.761194029851,4,2,5,70,1,8
127702,-83.3333333333333,4,2,5,70,0,0
127925,491.803278688525,4,2,5,70,1,8
127925,-83.3333333333333,4,2,5,70,0,0
128170,359.281437125748,4,2,1,70,1,8
128170,-83.3333333333333,4,2,1,70,0,0
128349,468.75,4,2,1,70,1,8
128349,-83.3333333333333,4,2,1,70,0,0
128583,451.127819548872,4,2,1,70,1,1
128583,-62.5,4,2,1,70,0,1
129034,458.015267175573,4,2,1,70,1,9
129034,-62.5,4,2,1,70,0,1
129721,431.654676258993,4,2,1,70,1,9
129721,-62.5,4,2,1,70,0,1
130152,465.116279069767,4,2,1,70,1,9
130152,-62.5,4,2,1,70,0,1
130384,447.761194029851,4,2,1,70,1,1
130384,-62.5,4,2,1,70,0,1
132175,454.545454545455,4,2,1,70,1,1
132175,-62.5,4,2,1,70,0,1
133084,447.761194029851,4,2,1,70,1,9
133084,-62.5,4,2,1,70,0,1
133979,441.176470588235,4,2,1,70,1,1
133979,-62.5,4,2,1,70,0,1
134861,447.761194029851,4,2,1,70,1,9
134861,-62.5,4,2,1,70,0,1
135756,451.127819548872,4,2,1,70,1,1
135756,-62.5,4,2,1,70,0,1
137109,444.444444444444,4,2,1,70,1,9
137109,-62.5,4,2,1,70,0,1
137553,444.444444444444,4,2,1,70,1,1
137553,-62.5,4,2,1,70,0,1
137997,447.761194029851,4,2,1,70,1,9
137997,-62.5,4,2,1,70,0,1
139340,454.545454545455,4,2,1,70,1,1
139340,-55.5555555555556,4,2,1,70,0,1
139794,441.176470588235,4,2,1,70,1,9
139794,-55.5555555555556,4,2,1,70,0,1
140235,447.761194029851,4,2,1,70,1,9
140235,-55.5555555555556,4,2,1,70,0,1
141130,447.761194029851,4,2,1,70,1,1
141130,-55.5555555555556,4,2,1,70,0,1
142025,461.538461538462,4,2,1,70,1,9
142025,-55.5555555555556,4,2,1,70,0,1
142486,444.444444444444,4,2,1,70,1,9
142486,-55.5555555555556,4,2,1,70,0,1
142819,468.75,4,2,5,70,1,9
142819,-100,4,2,5,70,0,1
142936,468.75,4,2,5,70,1,0
143170,447.761194029851,4,2,5,50,1,8
143617,454.545454545455,4,2,5,50,1,8
144750,447.761194029851,4,2,5,50,1,0
144974,447.761194029851,4,2,5,50,1,8
146541,441.176470588235,4,2,5,70,1,0
146982,454.545454545455,4,2,5,70,1,8
147891,447.761194029851,4,2,5,70,1,8
148338,458.015267175573,4,2,5,70,1,0
148796,441.176470588235,4,2,5,70,1,8
149237,447.761194029851,4,2,5,70,1,8
149684,425.531914893617,4,2,5,70,1,8
150109,468.75,4,2,1,70,1,0
150460,480,4,2,1,70,1,8
150700,410.958904109589,4,2,1,70,1,8
150905,535.714285714286,4,2,1,70,1,8
151038,437.956204379562,4,2,1,70,1,8
151475,461.538461538462,4,2,1,70,1,8
151705,397.350993377483,4,2,1,70,1,8
151903,361.44578313253,4,2,1,60,1,0
152083,292.682926829268,4,2,1,50,1,8
152229,259.74025974026,4,2,1,55,1,8
152358,402.684563758389,4,2,1,70,1,8
152559,447.761194029851,4,2,1,70,1,8
152559,-62.5,4,2,1,70,0,0

[Colours]
Combo1 : 113,128,126
Combo2 : 122,175,180
Combo3 : 220,208,105

[HitObjects]
116,319,562,5,2,0:0:0:0:
116,319,684,1,2,0:0:0:0:
69,247,914,2,0,P|93:191|185:190,2,120,2|2|2,0:0|0:0|0:0,0:0:0:0:
468,344,1557,5,0,0:0:0:0:
393,372,1662,1,0,0:0:0:0:
330,316,1767,1,2,0:0:0:0:
349,238,1877,5,2,0:0:0:0:
426,212,1987,1,0,0:0:0:0:
484,266,2097,1,0,0:0:0:0:
407,293,2208,5,2,0:0:0:0:
365,153,2350,5,8,0:0:0:0:
357,134,2422,1,8,0:3:0:0:
357,114,2495,1,8,0:3:0:0:
365,96,2568,1,8,0:3:0:0:
364,75,2642,1,8,0:3:0:0:
357,57,2714,1,8,0:3:0:0:
385,33,2787,6,0,P|340:5|244:56,1,144,8|0,0:0|0:0,0:0:0:0:
258,31,3006,6,0,B|306:57|304:125|250:155|205:130|169:98|169:98|96:40|-50:95|-8:281|133:290|185:215|185:215|170:175|122:144|70:156|66:210|19:199|-18:167,1,855.749999347114,6|4,1:2|1:3,0:0:0:0:
370,358,11298,6,0,P|343:294|287:282,1,120,0|0,1:0|0:0,0:0:0:0:
64,291,11752,2,0,P|91:227|147:215,1,120,0|0,1:0|0:0,0:0:0:0:
158,63,12199,2,0,P|217:67|304:73,1,120,2|0,1:2|0:0,0:0:0:0:
333,21,12535,1,0,0:0:0:0:
408,46,12647,6,0,P|437:75|448:111,1,60,2|0,1:2|0:0,0:0:0:0:
349,194,12865,2,0,P|331:175|320:142,1,60,2|0,0:0|0:0,0:0:0:0:
506,197,13084,5,2,1:2:0:0:
507,278,13198,1,0,0:0:0:0:
445,329,13313,1,2,0:0:0:0:
368,306,13427,1,0,0:0:0:0:
300,346,13542,6,0,P|271:337|241:334,1,60,2|0,1:2|0:0,0:0:0:0:
55,186,13759,2,0,P|83:177|113:174,1,60,2|2,0:0|0:0,0:0:0:0:
222,258,13976,6,0,P|156:272|90:318,1,120,2|2,1:2|0:0,0:0:0:0:
124,94,14423,1,2,1:2:0:0:
195,58,14532,1,2,0:0:0:0:
244,121,14641,2,0,P|252:150|257:185,1,60,2|0,0:0|0:0,0:0:0:0:
402,269,14860,6,0,P|408:209|418:150,1,120,0|2,1:0|0:0,0:0:0:0:
273,60,15321,2,0,P|266:119|256:178,1,120,2|2,1:2|0:0,0:0:0:0:
111,298,15768,2,0,P|52:248|78:171,1,120,2|0,1:2|0:0,0:0:0:0:
15,83,16207,5,2,1:2:0:0:
88,51,16318,1,0,0:0:0:0:
156,93,16430,1,2,0:0:0:0:
174,171,16542,1,2,0:0:0:0:
249,146,16654,6,0,P|278:152|308:151,1,60,2|0,1:2|0:0,0:0:0:0:
429,262,16877,2,0,P|399:255|369:256,1,60,2|0,0:0|0:0,0:0:0:0:
234,263,17102,6,0,L|242:337,1,60,2|0,1:2|0:0,0:0:0:0:
326,377,17320,2,0,L|320:318,1,60,2|2,0:0|0:0,0:0:0:0:
482,201,17539,5,2,1:2:0:0:
459,124,17655,1,0,0:0:0:0:
380,109,17771,1,2,0:0:0:0:
403,188,17887,1,0,0:0:0:0:
419,20,18004,6,0,P|334:26|298:104,1,180,14|0,1:2|0:0,0:0:0:0:
269,262,18451,6,0,P|153:246|146:122,1,251.999992309571,6|0,1:2|0:0,0:0:0:0:
209,87,18898,2,0,P|208:45|181:14,1,83.9999974365235,10|0,1:2|0:0,0:0:0:0:
76,82,19122,2,0,P|49:113|47:154,1,83.9999974365235,2|0,0:0|0:0,0:0:0:0:
161,230,19346,6,0,P|269:224|369:237,1,167.999994873047,2|0,1:2|0:0,0:0:0:0:
405,252,19682,1,0,0:0:0:0:
483,104,19794,6,0,P|405:88|347:144,1,167.999994873047,10|2,1:2|0:0,0:0:0:0:
268,142,20130,1,0,0:0:0:0:
199,102,20242,6,0,P|158:101|116:104,1,83.9999974365235,2|2,1:2|0:0,0:0:0:0:
210,306,20462,2,0,P|251:304|293:307,1,83.9999974365235,2|0,0:0|0:0,0:0:0:0:
161,230,20683,2,0,P|269:224|369:237,1,167.999994873047,10|0,1:2|0:0,0:0:0:0:
136,367,21124,6,0,P|45:354|39:265,1,167.999994873047,2|2,1:2|0:0,0:0:0:0:
80,230,21467,1,0,0:0:0:0:
31,167,21582,6,0,L|21:72,1,83.9999974365235,10|0,1:2|0:0,0:0:0:0:
167,32,21805,2,0,L|157:127,1,83.9999974365235,2|4,0:0|0:3,0:0:0:0:
326,315,22029,6,0,P|302:234|286:152,1,167.999994873047,0|2,1:0|0:0,0:0:0:0:
349,106,22364,1,0,0:0:0:0:
372,30,22476,6,0,P|471:38|494:129,1,167.999994873047,10|0,1:2|0:0,0:0:0:0:
418,242,22816,1,2,0:0:0:0:
404,162,22930,2,0,P|305:170|282:261,1,167.999994873047,0|0,1:0|0:0,0:0:0:0:
111,355,23385,5,8,1:2:0:0:
50,304,23496,1,2,0:0:0:0:
74,228,23608,1,2,0:0:0:0:
152,227,23712,1,0,0:0:0:0:
182,154,23816,6,0,P|186:107|198:53,1,83.9999974365235,2|0,1:2|0:0,0:0:0:0:
229,295,24045,2,0,P|236:253|239:211,1,83.9999974365235,2|2,0:0|0:0,0:0:0:0:
199,149,24274,6,0,P|202:101|214:47,1,83.9999974365235,10|0,1:2|0:0,0:0:0:0:
245,289,24496,2,0,P|252:247|255:205,1,83.9999974365235,2|0,0:0|0:0,0:0:0:0:
278,18,24718,5,2,1:2:0:0:
390,316,24940,1,6,0:3:0:0:
493,25,25162,6,0,P|502:126|394:128,1,167.999994873047,8|8,1:2|0:3,0:0:0:0:
389,107,25503,1,8,0:3:0:0:
255,158,25606,1,4,1:2:0:0:
390,316,25829,5,0,0:0:0:0:
334,163,26053,2,0,P|336:193|332:223,1,60,10|0,1:2|0:0,0:0:0:0:
255,158,26277,2,0,P|252:188|253:218,1,60,2|0,0:0|0:0,0:0:0:0:
157,246,26501,6,0,P|152:186|142:127,1,120,2|0,1:2|0:0,0:0:0:0:
72,256,26962,2,0,P|61:197|57:137,1,120,8|0,1:2|0:0,0:0:0:0:
204,79,27297,1,0,0:0:0:0:
204,79,27409,6,0,P|202:49|206:19,1,60,2|0,1:2|0:0,0:0:0:0:
283,84,27633,2,0,P|286:54|285:24,1,60,2|0,0:0|0:0,0:0:0:0:
366,66,27856,5,10,1:2:0:0:
433,108,27968,1,0,0:0:0:0:
361,147,28080,1,2,0:0:0:0:
428,191,28192,2,0,P|423:230|425:268,1,60,2|0,0:0|1:0,0:0:0:0:
486,302,28416,2,0,P|491:341|489:379,1,60,2|0,0:0|0:0,0:0:0:0:
370,365,28752,6,0,P|345:301|257:291,1,120,8|0,1:2|0:0,0:0:0:0:
301,281,29088,1,0,0:0:0:0:
301,281,29200,1,0,1:0:0:0:
113,328,29423,5,0,0:0:0:0:
196,185,29647,2,0,P|197:155|193:125,1,60,10|0,1:2|0:0,0:0:0:0:
118,187,29871,2,0,P|114:157|115:127,1,60,2|0,0:0|0:0,0:0:0:0:
263,297,30095,6,0,P|266:238|277:179,1,120,2|0,1:2|0:0,0:0:0:0:
345,290,30543,2,0,P|355:231|359:171,1,120,8|0,1:2|0:0,0:0:0:0:
405,107,30879,1,0,0:0:0:0:
405,107,30991,6,0,P|406:77|402:47,1,60,2|0,1:2|0:0,0:0:0:0:
323,102,31215,2,0,P|319:72|320:42,1,60,2|0,0:0|0:0,0:0:0:0:
190,0,31438,5,10,1:2:0:0:
123,42,31550,1,0,0:0:0:0:
195,81,31662,1,2,0:0:0:0:
128,125,31774,1,2,0:0:0:0:
200,170,31886,6,0,P|206:232|208:308,1,120,0|0,1:0|0:0,0:0:0:0:
208,289,32222,1,0,0:0:0:0:
208,289,32334,1,8,1:2:0:0:
18,354,32554,5,0,0:0:0:0:
18,354,32664,1,0,0:0:0:0:
18,354,32775,2,0,P|23:266|97:238,1,155.999992858887,0|0,1:0|0:0,0:0:0:0:
306,303,33222,6,0,P|304:264|298:225,1,77.9999964294435,10|0,1:2|0:0,0:0:0:0:
225,312,33449,2,0,P|219:273|217:234,1,77.9999964294435,2|0,0:0|0:0,0:0:0:0:
387,336,33676,6,0,P|381:221|363:161,1,155.999992858887,2|0,1:2|0:0,0:0:0:0:
486,328,34131,2,0,P|469:251|469:174,1,155.999992858887,8|0,1:2|0:0,0:0:0:0:
417,117,34465,1,0,0:0:0:0:
417,117,34577,6,0,P|422:78|423:39,1,77.9999964294435,2|0,1:2|0:0,0:0:0:0:
334,108,34800,2,0,P|334:69|340:30,1,77.9999964294435,2|0,0:0|0:0,0:0:0:0:
225,43,35023,5,10,1:2:0:0:
171,100,35135,1,0,0:0:0:0:
250,119,35247,1,2,0:0:0:0:
197,179,35358,6,0,P|211:219|226:286,1,77.9999964294435,2|0,0:0|1:0,0:0:0:0:
285,306,35582,2,0,P|271:346|256:413,1,77.9999964294435,2|0,0:0|0:0,0:0:0:0:
55,264,35918,2,0,P|35:239|53:173,1,77.9999964294435,8|0,1:2|0:0,0:0:0:0:
92,139,36142,1,0,0:0:0:0:
92,139,36254,1,0,0:0:0:0:
197,179,36366,6,0,P|182:100|160:27,2,143.999995605469,2|0|8,1:2|0:0|1:2,0:0:0:0:
143,239,37032,1,0,0:0:0:0:
270,171,37254,6,0,P|248:57|216:-46,2,167.999994873047,2|0|8,1:2|0:0|1:2,0:0:0:0:
193,305,37930,1,0,0:0:0:0:
193,305,38043,1,0,0:0:0:0:
325,363,38156,6,0,P|437:335|438:241,1,204.000003890991,2|0,1:2|0:0,0:0:0:0:
240,249,38602,6,0,P|174:272|116:181,1,180.000006866455,10|0,1:2|0:0,0:0:0:0:
296,151,39048,6,0,P|349:162|383:54,1,155.999992858887,2|4,1:2|0:3,0:0:0:0:
231,91,39495,6,0,P|170:84|183:2,1,132.00000402832,10|8,1:2|0:3,0:0:0:0:
238,14,39823,1,8,0:3:0:0:
71,56,39927,6,0,P|68:128|70:200,1,143.999995605469,6|2,1:2|0:0,0:0:0:0:
230,234,40381,2,0,P|232:162|230:90,1,143.999995605469,10|2,1:2|0:0,0:0:0:0:
230,90,40722,1,2,0:0:0:0:
230,90,40836,1,0,1:0:0:0:
407,21,41059,1,2,0:0:0:0:
486,191,41283,6,0,P|411:243|328:209,1,143.999995605469,10|0,1:2|0:0,0:0:0:0:
321,166,41619,1,0,0:0:0:0:
384,115,41731,1,0,1:0:0:0:
449,279,41956,1,2,0:0:0:0:
345,343,42182,6,0,P|276:342|182:348,1,143.999995605469,10|2,1:2|0:0,0:0:0:0:
86,235,42633,2,0,P|155:236|249:230,1,143.999995605469,0|2,1:0|0:0,0:0:0:0:
414,114,43084,2,0,P|345:115|251:109,1,143.999995605469,8|0,1:2|0:0,0:0:0:0:
196,86,43422,1,0,0:0:0:0:
98,18,43535,6,0,P|98:104|102:178,1,143.999995605469,0|2,1:0|0:0,0:0:0:0:
198,229,43982,2,0,P|198:143|194:69,1,143.999995605469,10|2,1:2|0:0,0:0:0:0:
195,85,44318,1,2,0:0:0:0:
195,85,44430,1,0,1:0:0:0:
312,163,44654,1,2,0:0:0:0:
485,90,44878,6,0,P|409:25|341:44,1,143.999995605469,10|2,1:2|0:0,0:0:0:0:
294,14,45208,1,4,0:3:0:0:
282,93,45314,1,0,1:0:0:0:
98,46,45543,1,2,0:0:0:0:
48,254,45772,6,0,P|119:248|191:250,1,143.999995605469,10|2,1:2|0:0,0:0:0:0:
446,351,46213,2,0,P|414:355|355:355,1,71.9999978027344,0|2,1:0|0:0,0:0:0:0:
302,383,46433,5,6,0:3:0:0:
253,367,46544,1,0,0:0:0:0:
217,318,46654,1,10,1:2:0:0:
237,259,46765,1,2,0:0:0:0:
308,223,46877,1,2,0:0:0:0:
331,144,46981,1,2,0:0:0:0:
263,82,47085,6,0,P|174:100|131:200,1,167.999994873047,6|2,1:2|0:0,0:0:0:0:
163,235,47423,1,0,0:0:0:0:
271,73,47536,6,0,P|178:83|331:115,1,667.200020361329,10|8,1:2|1:2,0:0:0:0:
465,44,48668,5,2,0:0:0:0:
465,44,48780,2,0,P|424:39|393:65,1,83.9999974365235,2|2,0:0|1:2,0:0:0:0:
313,49,49005,2,0,P|308:89|334:120,1,83.9999974365235,2|0,0:0|0:0,0:0:0:0:
321,196,49232,2,0,P|361:200|392:174,1,83.9999974365235,2|8,0:0|1:2,0:0:0:0:
473,192,49457,2,0,P|477:151|451:120,1,83.9999974365235,2|0,0:0|0:0,0:0:0:0:
313,49,49681,6,0,P|262:104|165:96,1,167.999994873047,2|2,0:0|0:0,0:0:0:0:
134,27,50017,1,2,0:0:0:0:
72,76,50129,1,0,0:0:0:0:
98,153,50241,5,10,1:2:0:0:
49,170,50352,1,0,0:0:0:0:
102,190,50462,1,2,0:0:0:0:
53,207,50573,1,2,0:0:0:0:
96,237,50683,6,0,P|158:260|241:343,1,167.999994873047,2|0,1:2|0:0,0:0:0:0:
317,97,51023,6,0,P|266:139|152:169,1,166,2|2,0:0|0:0,0:0:0:0:
332,345,51360,6,0,P|320:279|351:166,1,167.999994873047,2|0,0:0|1:0,0:0:0:0:
506,122,51808,2,0,P|517:187|486:300,1,167.999994873047,2|8,0:0|1:2,0:0:0:0:
231,328,52256,5,0,0:0:0:0:
231,328,52368,1,0,0:0:0:0:
231,328,52480,2,0,P|172:345|112:247,1,167.999994873047,0|0,1:0|0:0,0:0:0:0:
0,201,52924,6,0,P|43:198|96:195,1,83.9999974365235,10|0,1:2|0:0,0:0:0:0:
8,122,53146,2,0,P|51:119|104:116,1,83.9999974365235,2|0,0:0|0:0,0:0:0:0:
170,217,53368,6,0,P|213:213|266:211,1,83.9999974365235,2|0,1:2|0:0,0:0:0:0:
173,67,53590,2,0,P|216:64|269:61,1,83.9999974365235,2|0,0:0|0:0,0:0:0:0:
331,254,53813,6,0,P|372:250|427:248,1,83.9999974365235,10|0,1:2|0:0,0:0:0:0:
346,5,54038,2,0,P|388:2|442:-1,1,83.9999974365235,2|0,0:0|0:0,0:0:0:0:
486,161,54264,6,0,P|462:215|433:339,1,167.999994873047,2|0,1:2|0:0,0:0:0:0:
367,361,54599,1,2,0:0:0:0:
221,319,54711,6,0,P|197:265|168:141,1,167.999994873047,10|2,1:2|0:0,0:0:0:0:
103,118,55046,1,0,0:0:0:0:
147,8,55159,5,2,1:2:0:0:
224,27,55271,2,0,L|236:136,1,83.9999974365235,2|0,0:0|0:0,0:0:0:0:
303,151,55495,2,0,L|291:260,1,83.9999974365235,2|8,0:0|1:2,0:0:0:0:
228,286,55719,2,0,L|240:395,1,83.9999974365235,2|0,0:0|0:0,0:0:0:0:
142,349,55943,2,0,P|36:340|24:277,1,167.999994873047,2|2,0:0|0:0,0:0:0:0:
39,215,56295,1,0,0:0:0:0:
237,369,56518,1,8,1:2:0:0:
118,137,56742,1,0,0:0:0:0:
224,266,56962,5,2,1:2:0:0:
293,292,57072,1,0,0:0:0:0:
340,237,57183,1,2,0:0:0:0:
406,268,57294,1,0,0:0:0:0:
460,217,57406,5,10,1:2:0:0:
481,315,57518,2,0,L|496:224,1,83.9999974365235
453,99,57742,1,0,0:0:0:0:
453,99,57854,1,0,1:0:0:0:
291,182,58083,1,0,0:0:0:0:
201,22,58312,5,10,1:2:0:0:
155,40,58421,1,0,0:0:0:0:
124,78,58530,1,2,0:0:0:0:
111,134,58640,1,2,0:0:0:0:
122,207,58749,1,2,1:2:0:0:
175,267,58860,1,0,0:0:0:0:
253,299,58972,1,2,0:0:0:0:
343,268,59084,1,2,0:0:0:0:
367,189,59196,5,10,1:2:0:0:
319,152,59308,1,0,0:0:0:0:
279,165,59420,1,2,0:0:0:0:
271,189,59532,1,2,0:0:0:0:
277,198,59644,6,0,L|261:93,1,83.9999974365235,2|0,1:2|0:0,0:0:0:0:
338,73,59871,2,0,L|354:178,1,83.9999974365235,2|0,0:0|0:0,0:0:0:0:
214,285,60098,6,0,P|205:231|193:178,1,107.999996704102,10|0,1:2|0:0,0:0:0:0:
402,0,60321,2,0,P|410:53|422:106,1,107.999996704102,2|0,0:0|0:0,0:0:0:0:
277,357,60545,5,2,1:2:0:0:
277,357,60657,2,0,P|304:295|357:263,1,107.999996704102,2|0,0:0|0:0,0:0:0:0:
493,129,60881,6,0,P|500:186|510:259,1,107.999996704102,2|8,0:0|1:2,0:0:0:0:
251,108,61106,6,0,P|257:161|268:238,1,107.999996704102,2|0,0:0|0:0,0:0:0:0:
9,87,61333,6,0,P|16:141|26:217,1,107.999996704102,2|0,0:0|0:0,0:0:0:0:
80,112,68606,6,0,P|112:49|262:89,1,240,2|2,0:0|1:2,0:0:0:0:
470,105,69501,2,0,P|438:168|288:128,1,240,2|0,0:0|1:0,0:0:0:0:
66,233,70173,5,0,0:0:0:0:
66,233,70285,1,0,0:0:0:0:
66,233,70397,2,0,P|98:170|248:210,1,240,0|2,0:0|1:2,0:0:0:0:
456,226,71292,2,0,P|424:289|274:249,1,240,2|0,0:0|1:0,0:0:0:0:
201,350,71964,5,0,0:0:0:0:
201,350,72084,1,0,0:0:0:0:
201,350,72204,2,0,P|192:245|165:99,1,240,2|2,0:0|1:2,0:0:0:0:
311,34,73073,2,0,P|320:139|347:285,1,240,2|0,0:0|1:0,0:0:0:0:
256,192,73740,5,0,0:0:0:0:
256,192,73852,1,0,0:0:0:0:
256,192,73964,1,0,0:0:0:0:
240,319,75337,6,0,P|246:260|260:201,1,120,14|0,0:0|0:0,0:0:0:0:
314,153,75681,1,0,0:0:0:0:
368,371,75780,6,0,P|365:323|357:274,1,96,6|0,1:2|0:0,0:0:0:0:
161,326,76002,2,0,P|163:278|172:229,1,96,2|0,0:0|0:0,0:0:0:0:
59,105,76224,5,10,1:2:0:0:
113,46,76335,1,2,0:0:0:0:
186,80,76446,1,2,0:0:0:0:
195,158,76557,1,2,0:0:0:0:
274,105,76668,5,2,1:2:0:0:
365,174,76779,1,2,0:0:0:0:
285,185,76891,1,2,0:0:0:0:
353,93,77002,1,0,0:0:0:0:
453,129,77115,6,0,P|481:166|474:212,1,96,10|2,1:2|0:0,0:0:0:0:
428,342,77339,2,0,P|399:304|406:258,1,96,2|0,0:0|0:0,0:0:0:0:
327,117,77563,6,0,P|355:154|348:200,1,96,2|2,1:2|0:0,0:0:0:0:
309,346,77787,2,0,P|280:308|287:262,1,96,2|0,0:0|0:0,0:0:0:0:
175,195,78010,5,10,1:2:0:0:
135,264,78122,1,2,0:0:0:0:
56,276,78234,1,2,0:0:0:0:
7,212,78346,1,2,0:0:0:0:
53,113,78458,6,1,B|102:160|157:105|152:99|145:93|183:54|220:77,1,192,0|2,1:0|0:0,0:0:0:0:
299,35,78794,1,0,0:0:0:0:
427,24,78906,6,0,P|412:93|399:232,1,192,10|2,1:2|0:0,0:0:0:0:
416,294,79242,1,2,0:0:0:0:
242,377,79354,6,0,P|194:350|202:286,1,96,0|2,1:0|0:0,0:0:0:0:
279,217,79576,1,2,0:0:0:0:
279,217,79687,1,0,0:0:0:0:
202,114,79798,5,10,1:2:0:0:
274,81,79909,1,2,0:0:0:0:
320,147,80021,1,2,0:0:0:0:
389,105,80133,1,0,0:0:0:0:
417,203,80245,6,0,P|457:197|517:201,1,96,2|2,1:2|0:0,0:0:0:0:
279,217,80469,2,0,P|239:223|179:219,1,96,2|0,0:0|0:0,0:0:0:0:
54,156,80693,5,10,1:2:0:0:
107,215,80805,1,2,0:0:0:0:
84,291,80917,1,2,0:0:0:0:
28,232,81025,1,4,0:3:0:0:
139,135,81134,2,0,P|127:82|116:34,1,96,2|2,1:2|0:0,0:0:0:0:
260,94,81357,6,0,P|292:45|289:-18,1,96,0|2,0:0|0:0,0:0:0:0:
414,147,81580,2,0,P|382:98|385:35,1,96,8|2,1:2|0:0,0:0:0:0:
476,262,81803,2,0,P|508:213|505:150,1,96,0|2,0:0|0:0,0:0:0:0:
398,359,82026,2,0,P|366:310|369:247,1,96,2|0,1:2|0:0,0:0:0:0:
243,302,82249,2,0,P|275:253|272:190,1,96,2|0,0:0|0:0,0:0:0:0:
99,384,82472,5,10,1:2:0:0:
99,384,82585,2,0,P|87:268|64:164,1,192,2|0,0:0|0:0,0:0:0:0:
10,147,82926,6,0,P|39:33|195:31,1,288,2|0,1:2|0:0,0:0:0:0:
235,94,83373,6,0,P|190:109|144:96,1,96,10|0,1:2|0:0,0:0:0:0:
361,39,83597,2,0,P|405:23|451:36,1,96,2|2,0:0|0:0,0:0:0:0:
512,213,83821,6,0,P|380:229|302:247,1,192,2|0,1:2|0:0,0:0:0:0:
287,167,84157,1,2,0:0:0:0:
184,363,84269,2,0,P|136:352|129:286,1,96,8|0,1:2|0:0,0:0:0:0:
128,150,84493,5,2,0:0:0:0:
208,163,84605,1,2,0:0:0:0:
158,224,84717,2,0,P|143:265|114:320,1,96,2|0,1:2|0:0,0:0:0:0:
179,88,84940,2,0,P|194:47|223:-8,1,96,2|0,0:0|0:0,0:0:0:0:
110,150,85164,2,0,P|69:135|14:106,1,96,10|0,1:2|0:0,0:0:0:0:
226,165,85388,2,0,P|267:179|322:208,1,96,2|0,0:0|0:0,0:0:0:0:
493,150,85612,5,2,1:2:0:0:
397,263,85724,1,0,0:0:0:0:
507,259,85836,1,2,0:0:0:0:
380,155,85948,1,2,0:0:0:0:
444,203,86060,6,0,P|425:262|417:331,1,96,10|0,1:2|0:0,0:0:0:0:
251,372,86284,2,0,P|241:324|226:279,1,96,2|0,0:0|0:0,0:0:0:0:
41,208,86502,6,0,P|57:122|170:103,1,192,0|2,1:0|0:0,0:0:0:0:
185,164,86837,1,0,0:0:0:0:
285,145,86949,6,0,P|286:97|284:49,1,96,10|0,1:2|0:0,0:0:0:0:
118,228,87173,2,0,P|116:275|118:323,1,96,2|2,0:0|0:0,0:0:0:0:
357,195,87397,6,0,P|363:83|354:-7,1,192,2|2,1:2|0:0,0:0:0:0:
355,3,87735,1,2,0:0:0:0:
355,3,87848,1,8,1:2:0:0:
500,223,88073,5,0,0:0:0:0:
512,145,88178,1,0,0:0:0:0:
488,70,88282,1,0,1:0:0:0:
397,254,88514,6,0,P|392:301|395:349,1,96,2|0,0:0|0:0,0:0:0:0:
337,53,88747,2,0,P|340:101|336:149,1,96,10|0,1:2|0:0,0:0:0:0:
254,276,88965,2,0,P|250:323|253:371,1,96,2|0,0:0|0:0,0:0:0:0:
170,18,89184,2,0,P|173:66|169:114,1,96,2|0,1:2|0:0,0:0:0:0:
93,289,89407,2,0,P|89:334|92:391,1,96,4|2,0:3|0:0,0:0:0:0:
18,131,89631,6,0,P|127:133|165:234,1,192,8|8,1:2|0:3,0:0:0:0:
173,277,89967,1,8,0:3:0:0:
314,332,90079,6,0,B|401:337|355:274|485:292,1,143.999995605469,6|0,1:2|0:0,0:0:0:0:
173,277,90540,2,0,B|86:282|132:219|2:237,1,143.999995605469,10|2,1:2|0:0,0:0:0:0:
334,174,90986,2,0,B|421:179|375:116|505:134,1,143.999995605469,2|2,1:2|0:0,0:0:0:0:
181,83,91432,2,0,B|94:88|140:25|10:43,1,143.999995605469,10|0,1:2|0:0,0:0:0:0:
7,109,91772,1,0,0:0:0:0:
7,109,91886,6,0,P|9:144|18:179,1,71.9999978027344,0|0,1:0|0:0,0:0:0:0:
85,264,92113,2,0,P|92:229|96:194,1,71.9999978027344
167,160,92341,6,0,P|236:142|308:135,1,143.999995605469,10|0,1:2|0:0,0:0:0:0:
474,287,92787,2,0,P|404:269|332:262,1,143.999995605469,0|0,1:0|0:0,0:0:0:0:
332,262,93121,1,0,0:0:0:0:
332,262,93233,1,8,1:2:0:0:
223,241,93448,5,0,0:0:0:0:
211,319,93556,1,0,0:0:0:0:
137,341,93664,2,0,P|97:346|46:359,1,71.9999978027344,2|0,1:2|0:0,0:0:0:0:
0,287,93887,2,0,P|40:282|91:269,1,71.9999978027344,2|2,0:0|0:0,0:0:0:0:
82,194,94111,2,0,P|42:199|-9:212,1,71.9999978027344,10|0,1:2|0:0,0:0:0:0:
7,116,94338,2,0,P|47:111|98:98,1,71.9999978027344,2|0,0:0|0:0,0:0:0:0:
165,132,94565,6,0,P|172:203|191:273,1,143.999995605469,2|0,1:2|0:0,0:0:0:0:
410,345,95020,2,0,P|416:273|435:204,1,143.999995605469,10|2,1:2|0:0,0:0:0:0:
441,128,95349,1,0,0:3:0:0:
441,128,95455,6,0,B|355:137|392:85|296:89,1,143.999995605469,2|0,1:2|0:0,0:0:0:0:
44,190,95920,2,0,B|130:198|93:146|189:150,1,143.999995605469,10|0,1:2|0:0,0:0:0:0:
426,266,96364,2,0,B|339:274|376:222|280:226,1,143.999995605469,0|0,1:0|0:0,0:0:0:0:
81,358,96808,2,0,B|167:366|130:314|226:318,1,143.999995605469,8|0,1:2|0:0,0:0:0:0:
283,357,97142,1,0,0:0:0:0:
397,370,97253,6,0,P|422:285|423:197,1,143.999995605469,2|0,1:2|0:0,0:0:0:0:
145,287,97700,2,0,P|120:202|119:114,1,143.999995605469,10|0,1:2|0:0,0:0:0:0:
479,179,98148,2,0,P|504:94|505:6,1,143.999995605469,2|2,1:2|0:0,0:0:0:0:
43,150,98596,2,0,P|18:65|17:-23,1,143.999995605469,10|2,1:2|0:0,0:0:0:0:
95,0,98932,1,0,0:0:0:0:
95,0,99044,6,0,P|146:10|181:16,1,71.9999978027344,2|0,1:2|0:0,0:0:0:0:
269,72,99273,2,0,P|234:79|199:86,1,71.9999978027344
143,143,99502,6,0,P|169:216|244:216,1,143.999995605469,10|0,1:2|0:0,0:0:0:0:
308,363,99949,2,0,P|334:290|409:290,1,143.999995605469,0|0,1:0|0:0,0:0:0:0:
392,281,100285,1,0,0:0:0:0:
392,281,100397,1,8,1:2:0:0:
501,188,100621,5,0,0:0:0:0:
430,201,100729,1,0,0:0:0:0:
437,127,100838,5,2,1:2:0:0:
349,97,100949,1,0,0:0:0:0:
271,147,101061,1,0,0:0:0:0:
262,239,101173,1,0,0:0:0:0:
262,239,101285,6,0,P|269:282|266:342,1,71.9999978027344,10|0,1:2|0:0,0:0:0:0:
223,11,101509,5,0,0:0:0:0:
139,52,101620,1,0,0:0:0:0:
120,142,101732,1,2,1:2:0:0:
179,214,101844,1,0,0:0:0:0:
179,214,101957,6,0,P|185:256|182:316,1,71.9999978027344
106,282,102181,1,10,1:2:0:0:
21,119,102399,5,0,0:0:0:0:
21,119,102509,1,0,0:0:0:0:
20,119,102618,2,0,P|72:103|126:97,1,107.999996704102,2|0,1:2|0:0,0:0:0:0:
182,51,102847,2,0,P|233:66|287:72,1,107.999996704102,2|0,0:0|0:0,0:0:0:0:
321,6,103076,6,0,P|341:74|393:122,1,143.999995605469,10|2,1:2|0:0,0:0:0:0:
196,215,103523,2,0,P|244:162|260:93,1,143.999995605469,2|4,1:2|0:3,0:0:0:0:
440,219,103971,2,0,P|370:202|302:223,1,143.999995605469,8|8,1:2|0:3,0:0:0:0:
275,296,104307,1,8,0:3:0:0:
168,369,104419,6,0,P|168:297|164:225,1,143.999995605469,6|2,1:2|0:0,0:0:0:0:
11,181,104866,2,0,P|10:252|14:324,1,143.999995605469,10|2,1:2|0:0,0:0:0:0:
14,324,105202,1,2,0:0:0:0:
14,324,105314,1,0,1:0:0:0:
189,313,105538,1,2,0:0:0:0:
173,86,105762,6,0,P|99:98|64:189,1,143.999995605469,10|0,1:2|0:0,0:0:0:0:
109,219,106095,1,0,0:0:0:0:
185,201,106204,1,0,1:0:0:0:
260,28,106427,1,2,0:0:0:0:
370,216,106651,6,0,P|441:204|512:195,1,143.999995605469,10|2,1:2|0:0,0:0:0:0:
323,306,107099,2,0,P|251:317|180:326,1,143.999995605469,0|2,1:0|0:0,0:0:0:0:
16,179,107557,2,0,P|87:167|158:158,1,143.999995605469,8|0,1:2|0:0,0:0:0:0:
235,176,107885,1,0,0:0:0:0:
272,253,107994,6,0,P|274:181|277:109,1,143.999995605469,0|2,1:0|0:0,0:0:0:0:
473,40,108459,2,0,P|470:111|467:183,1,143.999995605469,10|2,1:2|0:0,0:0:0:0:
467,183,108792,1,2,0:0:0:0:
467,183,108903,1,0,1:0:0:0:
379,290,109125,1,2,0:0:0:0:
206,137,109347,6,0,P|136:149|118:250,1,143.999995605469,10|0,1:2|0:0,0:0:0:0:
168,262,109681,1,0,0:0:0:0:
119,325,109792,1,0,1:0:0:0:
296,384,110015,1,2,0:0:0:0:
433,266,110239,6,0,P|429:182|430:111,1,143.999995605469,10|2,1:2|0:0,0:0:0:0:
248,6,110687,2,0,P|252:90|251:161,1,143.999995605469,0|2,1:0|0:0,0:0:0:0:
98,283,111135,6,0,P|95:247|95:211,1,71.9999978027344,8|0,1:2|0:0,0:0:0:0:
160,105,111380,2,0,P|163:141|162:202,1,71.9999978027344,2|0,0:0|0:0,0:0:0:0:
251,149,111556,5,0,1:0:0:0:
338,163,111678,2,0,P|334:98|331:27,1,120,8|8,0:0|0:0,0:0:0:0:
417,23,112020,1,8,1:2:0:0:
396,264,112250,5,8,0:3:0:0:
396,264,112327,1,8,0:3:0:0:
396,264,112404,1,8,0:3:0:0:
396,264,112481,5,10,1:2:0:0:
456,223,112592,2,0,L|466:128,1,60,10|8,0:0|0:3,0:0:0:0:
373,89,112816,6,0,L|388:207,1,83.9999974365235,6|0,1:3|0:0,0:0:0:0:
144,278,113031,2,0,L|129:160,1,83.9999974365235,6|0,1:3|0:0,0:0:0:0:
63,162,113261,5,10,0:0:0:0:
100,98,113377,1,8,0:0:0:0:
172,79,113492,1,10,0:3:0:0:
238,112,113599,1,2,0:0:0:0:
249,190,113706,6,0,P|298:295|368:258,1,210,6|0,1:2|0:0,0:0:0:0:
370,180,114279,5,4,1:2:0:0:
485,342,114509,6,0,P|481:282|482:223,1,120
503,61,114963,1,0,0:0:0:0:
502,144,115187,1,2,0:0:0:0:
427,114,115409,1,0,0:0:0:0:
370,221,115631,5,0,0:0:0:0:
299,234,115853,1,0,0:0:0:0:
287,164,116075,2,0,P|225:163|143:169,2,120,2|0|0,0:0|0:0|0:0,0:0:0:0:
108,16,116741,5,0,0:0:0:0:
136,88,116963,1,2,0:0:0:0:
69,117,117186,1,0,0:0:0:0:
21,283,117408,5,0,0:0:0:0:
87,250,117630,1,0,0:0:0:0:
153,287,117852,2,0,P|211:287|284:280,2,120,2|0|0,0:0|0:0|0:0,0:0:0:0:
392,363,118520,5,0,0:0:0:0:
392,363,118632,1,0,0:0:0:0:
392,363,118744,1,2,0:0:0:0:
442,303,118968,1,0,0:0:0:0:
391,247,119192,2,0,P|390:177|394:106,1,120,2|0,0:0|0:0,0:0:0:0:
302,25,119640,2,0,P|303:95|299:166,1,120,2|0,0:0|0:0,0:0:0:0:
236,190,120084,5,0,0:0:0:0:
236,190,120306,1,0,0:0:0:0:
176,244,120528,2,0,B|97:237|138:273|49:271,1,120,2|0,0:0|0:0,0:0:0:0:
289,335,120975,2,0,B|368:328|327:364|416:362,1,120
469,322,121311,1,0,0:0:0:0:
469,322,121423,6,0,P|469:278|466:220,1,71.9999978027344,2|0,0:0|0:0,0:0:0:0:
389,206,121646,2,0,P|389:250|392:308,1,71.9999978027344
313,351,121870,2,0,P|313:307|310:249,1,71.9999978027344
233,235,122094,2,0,P|233:279|236:337,1,71.9999978027344
0,250,122318,6,0,P|0:206|3:148,1,71.9999978027344,2|0,0:0|0:0,0:0:0:0:
80,134,122542,2,0,P|80:178|77:236,1,71.9999978027344
156,279,122766,2,0,P|156:235|159:177,1,71.9999978027344
236,163,122993,2,0,P|236:207|233:265,1,71.9999978027344
309,262,123220,6,0,P|379:246|450:240,1,143.999995605469,2|0,0:0|0:0,0:0:0:0:
272,81,123671,2,0,P|201:65|130:59,1,143.999995605469
56,63,124009,1,0,0:0:0:0:
18,130,124122,6,0,P|19:175|68:204,1,71.9999978027344,2|0,0:0|0:0,0:0:0:0:
26,308,124347,2,0,P|71:307|100:258,1,71.9999978027344
113,218,124573,5,2,0:0:0:0:
113,218,124684,2,0,P|185:219|208:306,1,143.999995605469
207,349,125017,6,0,P|233:350|311:345,1,71.9999978027344,2|0,0:0|0:0,0:0:0:0:
401,291,125239,2,0,P|375:290|297:295,1,71.9999978027344
288,212,125461,2,0,P|314:213|392:208,1,71.9999978027344
434,136,125683,2,0,P|408:135|330:140,1,71.9999978027344
295,27,125905,6,0,P|214:39|193:125,1,143.999995605469
4,170,126359,2,0,P|85:182|106:268,1,143.999995605469
71,295,126700,1,0,0:0:0:0:
126,350,126814,6,0,B|322:353|196:248|409:255,1,288,2|0,0:0|0:0,0:0:0:0:
447,208,127702,6,0,P|462:239|449:299,1,71.9999978027344,2|0,0:0|0:0,0:0:0:0:
351,330,127925,1,0,0:0:0:0:
310,235,128047,1,8,0:3:0:0:
262,298,128170,2,0,P|236:291|171:288,1,71.9999978027344,2|0,0:0|0:0,0:0:0:0:
32,196,128349,2,0,P|58:189|123:186,1,71.9999978027344,14|0,1:2|0:0,0:0:0:0:
156,41,128583,6,0,P|225:44|272:175,1,192,2|8,1:2|1:2,0:0:0:0:
233,197,128921,1,0,0:0:0:0:
166,354,129034,6,0,P|260:335|355:325,1,192,2|8,1:2|1:2,0:0:0:0:
431,352,129377,1,2,0:0:0:0:
471,171,129492,6,0,P|376:152|281:142,1,192,0|8,1:2|1:2,0:0:0:0:
233,197,129828,1,0,0:0:0:0:
144,274,129936,6,0,P|150:226|147:178,1,96,2|0,1:2|0:0,0:0:0:0:
26,163,130152,2,0,P|19:115|22:67,1,96,10|0,1:2|0:0,0:0:0:0:
137,16,130384,6,0,B|265:17|200:68|339:62,1,192,2|10,1:2|1:2,0:0:0:0:
388,33,130719,1,0,0:0:0:0:
502,140,130831,6,0,P|471:254|372:242,1,192,2|8,1:2|1:2,0:0:0:0:
356,216,131167,1,0,0:0:0:0:
232,271,131279,6,0,P|231:317|266:348,1,96,2|0,1:2|0:0,0:0:0:0:
177,147,131503,2,0,P|130:146|99:181,1,96,8|0,1:2|0:0,0:0:0:0:
301,92,131727,2,0,P|301:45|266:14,1,96,0|0,1:0|0:0,0:0:0:0:
356,216,131951,2,0,P|402:216|433:181,1,96,10|0,1:2|0:0,0:0:0:0:
238,197,132175,6,0,P|142:192|31:197,1,192,2|10,1:2|1:2,0:0:0:0:
0,351,132515,1,0,0:0:0:0:
0,351,132629,2,0,P|40:352|108:348,1,96,2|0,1:2|0:0,0:0:0:0:
185,271,132856,2,0,P|138:269|75:273,1,96,10|0,1:2|0:0,0:0:0:0:
337,376,133084,6,0,P|350:272|378:178,1,192,2|10,1:2|1:2,0:0:0:0:
360,117,133419,1,0,0:0:0:0:
185,271,133531,6,0,P|172:167|144:73,1,192,2|8,1:2|1:2,0:0:0:0:
162,12,133867,1,0,0:0:0:0:
428,37,133979,6,0,L|448:155,1,96,2|0,1:2|0:0,0:0:0:0:
360,117,134199,2,0,L|343:211,1,96,8|0,1:2|0:0,0:0:0:0:
264,21,134420,2,0,L|284:139,1,96,0|0,1:0|0:0,0:0:0:0:
194,84,134641,2,0,L|174:202,1,96,8|0,1:2|0:0,0:0:0:0:
33,25,134861,6,0,B|95:187|17:149|89:344,1,288,2|0,1:2|0:0,0:0:0:0:
127,366,135308,2,0,P|172:353|214:330,1,96,2|0,1:2|0:0,0:0:0:0:
405,251,135532,2,0,P|363:227|317:214,1,96,10|0,1:2|0:0,0:0:0:0:
271,21,135756,6,0,P|178:47|164:159,1,192,6|8,1:2|1:2,0:0:0:0:
215,171,136094,1,0,0:0:0:0:
331,75,136207,6,0,P|337:181|338:276,1,192,2|8,1:2|1:2,0:0:0:0:
288,320,136545,1,2,0:0:0:0:
81,329,136658,6,0,P|75:223|74:128,1,192,0|8,1:0|1:2,0:0:0:0:
124,84,136996,1,0,0:0:0:0:
215,171,137109,6,0,P|263:164|310:164,1,96,2|0,1:2|0:0,0:0:0:0:
283,17,137331,2,0,P|330:24|378:23,1,96,10|0,1:2|0:0,0:0:0:0:
507,88,137553,6,0,P|459:95|411:94,1,96,2|0,1:2|0:0,0:0:0:0:
440,242,137775,2,0,P|392:235|344:235,1,96,10|0,1:2|0:0,0:0:0:0:
71,71,137997,5,2,1:2:0:0:
177,31,138108,2,0,P|159:158|109:236,1,192,2|2,0:0|0:0,0:0:0:0:
68,156,138444,6,0,P|58:255|189:256,1,192,0|8,1:0|1:2,0:0:0:0:
204,269,138780,1,0,0:0:0:0:
319,384,138892,6,0,P|312:248|474:249,1,288,0|0,1:0|0:0,0:0:0:0:
491,283,139340,6,0,L|462:36,1,215.999993408203,14|2,1:2|1:2,0:0:0:0:
398,33,139680,1,0,0:0:0:0:
254,168,139794,6,0,L|384:182,1,107.999996704102,2|0,1:2|0:0,0:0:0:0:
182,9,140014,2,0,L|52:23,1,107.999996704102,14|0,1:2|0:0,0:0:0:0:
19,224,140235,5,2,1:2:0:0:
44,124,140346,1,0,0:0:0:0:
120,192,140458,2,0,L|109:319,1,107.999996704102,2|0,1:2|0:0,0:0:0:0:
22,351,140682,6,0,P|188:323|359:295,1,323.999990112305,14|0,1:2|0:0,0:0:0:0:
398,240,141130,2,0,P|461:258|516:274,1,107.999996704102,0|0,1:0|0:0,0:0:0:0:
377,103,141353,5,14,1:2:0:0:
426,42,141465,1,0,0:0:0:0:
495,77,141577,1,0,1:0:0:0:
216,169,141689,5,0,0:0:0:0:
146,95,141801,1,0,1:0:0:0:
219,13,141913,1,0,0:0:0:0:
278,119,142025,6,0,P|271:172|264:235,1,107.999996704102,14|0,1:2|0:0,0:0:0:0:
187,384,142255,5,0,1:0:0:0:
104,256,142371,1,0,0:0:0:0:
106,348,142486,5,0,1:0:0:0:
184,236,142597,1,0,0:0:0:0:
259,318,142708,5,0,0:0:0:0:
25,299,142819,6,0,L|5:116,1,180,6|2,1:3|0:0,0:0:0:0:
418,32,146541,6,0,P|425:91|424:151,1,120,4|2,1:2|0:0,0:0:0:0:
229,91,146982,2,0,P|222:150|223:210,1,120,8|2,1:2|0:0,0:0:0:0:
342,357,147436,2,0,P|412:338|418:278,1,120,0|2,1:0|0:0,0:0:0:0:
373,242,147777,1,0,0:0:0:0:
302,279,147891,6,0,L|221:286,1,60,8|0,1:2|0:0,0:0:0:0:
163,205,148114,2,0,L|244:212,1,60,0|2,0:0|0:0,0:0:0:0:
147,367,148338,6,0,P|129:310|100:258,1,120,0|2,1:0|0:0,0:0:0:0:
294,173,148796,2,0,P|318:101|356:42,1,120,8|2,1:2|0:0,0:0:0:0:
195,19,149237,2,0,B|118:21|158:50|44:60,1,120,0|2,1:0|0:0,0:0:0:0:
2,50,149572,1,0,0:0:0:0:
31,125,149684,6,0,P|38:154|42:183,1,60,8|2,1:2|0:0,0:0:0:0:
158,281,149896,2,0,P|162:251|169:222,1,60
240,183,150109,5,4,1:3:0:0:
240,183,150460,5,2,0:0:0:0:
300,239,150700,1,2,0:0:0:0:
355,181,150905,1,2,0:0:0:0:
355,181,151038,2,0,P|346:121|331:42,2,120,2|2|2,0:0|0:0|0:0,0:0:0:0:
416,225,151705,1,2,0:0:0:0:
442,346,151903,5,8,0:0:0:0:
404,341,151993,1,8,0:3:0:0:
366,336,152083,5,8,0:3:0:0:
345,333,152156,1,8,0:3:0:0:
327,331,152229,1,8,0:3:0:0:
310,328,152293,1,8,0:3:0:0:
298,326,152358,1,8,0:0:0:0:
296,241,152559,6,1,B|178:247|134:318|134:318|288:72|142:-30|-30:-31|-138:94|22:202|184:95|184:95|378:-42|381:169|283:163,1,1152,6|0,1:2|0:0,0:0:0:0:
