osu file format v14

[General]
AudioFilename: audio.mp3
AudioLeadIn: 0
PreviewTime: 114163
Countdown: 0
SampleSet: Soft
StackLeniency: 0.7
Mode: 0
LetterboxInBreaks: 0
EpilepsyWarning: 1
WidescreenStoryboard: 0

[Editor]
DistanceSpacing: 0.8
BeatDivisor: 6
GridSize: 8
TimelineZoom: 2.6

[Metadata]
Title:Wild Side
TitleUnicode:Wild Side
Artist:ALI
ArtistUnicode:ALI
Creator:Revolver
Version:Insane
Source:BEASTARS
Tags:ビースターズ anime opening op full version furry alien liberty international 2019 jazz rap hip hop studio orange netflix paru itagaki anime opening op full version japanese english french alien liberty international gouhin fieryrage venerablenyanta storyboard
BeatmapID:3417910
BeatmapSetID:1672763

[Difficulty]
HPDrainRate:4.2
CircleSize:4
OverallDifficulty:8
ApproachRate:9
SliderMultiplier:1.6
SliderTickRate:1

[Events]
//Background and Video events
0,0,"a2.png",0,0
//Break Periods
2,4363,10698
2,61533,73587
2,114479,126436
2,143170,145941
//Storyboard Layer 0 (Background)
//Storyboard Layer 1 (Fail)
//Storyboard Layer 2 (Pass)
//Storyboard Layer 3 (Foreground)
Sprite,Foreground,Centre,"sb\px.png",473,427 R,0,146541,,-0.247 C,0,146541,,209,209,201 V,0,146541,,2,620 F,2,146541,146961,0.1
Sprite,Foreground,Centre,"sb\px.png",468,409 R,0,146541,,-0.289 C,0,146541,,209,209,201 V,0,146541,,2,620 F,2,146541,146961,0.1
Sprite,Foreground,Centre,"sb\px.png",398,244 R,0,146982,,-0.205 C,0,146982,,209,209,201 V,0,146982,,2,620 F,2,146982,147409,0.1
Sprite,Foreground,Centre,"sb\px.png",379,239 R,0,146982,,-0.307 C,0,146982,,209,209,201 V,0,146982,,2,620 F,2,146982,147409,0.1
Sprite,Foreground,Centre,"sb\px.png",376,352 R,0,147436,,-0.204 C,0,147436,,209,209,201 V,0,147436,,2,620 F,2,147436,147863,0.1
Sprite,Foreground,Centre,"sb\px.png",358,363 R,0,147436,,-0.201 C,0,147436,,209,209,201 V,0,147436,,2,620 F,2,147436,147863,0.1
Sprite,Foreground,Centre,"sb\px.png",206,266 R,0,147891,,-0.237 C,0,147891,,209,209,201 V,0,147891,,2,620 F,2,147891,148314,0.1
Sprite,Foreground,Centre,"sb\px.png",211,286 R,0,147891,,-0.394 C,0,147891,,209,209,201 V,0,147891,,2,620 F,2,147891,148314,0.1
Sprite,Foreground,Centre,"sb\px.png",263,182 R,0,148338,,-0.214 C,0,148338,,209,209,201 V,0,148338,,2,620 F,2,148338,148767,0.1
Sprite,Foreground,Centre,"sb\px.png",263,183 R,0,148338,,-0.384 C,0,148338,,209,209,201 V,0,148338,,2,620 F,2,148338,148767,0.1
Sprite,Foreground,Centre,"sb\px.png",345,109 R,0,148796,,-0.341 C,0,148796,,209,209,201 V,0,148796,,2,620 F,2,148796,149216,0.1
Sprite,Foreground,Centre,"sb\px.png",369,115 R,0,148796,,-0.248 C,0,148796,,209,209,201 V,0,148796,,2,620 F,2,148796,149216,0.1
Sprite,Foreground,Centre,"sb\px.png",505,199 R,0,149237,,-0.332 C,0,149237,,209,209,201 V,0,149237,,2,620 F,2,149237,149660,0.1
Sprite,Foreground,Centre,"sb\px.png",533,203 R,0,149237,,-0.257 C,0,149237,,209,209,201 V,0,149237,,2,620 F,2,149237,149660,0.1
Sprite,Foreground,Centre,"sb\px.png",544,400 R,0,149684,,-0.219 C,0,149684,,209,209,201 V,0,149684,,2,620 F,2,149684,150096,0.1
Sprite,Foreground,Centre,"sb\px.png",564,402 R,0,149684,,-0.309 C,0,149684,,209,209,201 V,0,149684,,2,620 F,2,149684,150096,0.1
Sprite,Foreground,Centre,"sb\px.png",331,367 R,0,150109,,-0.318 C,0,150109,,209,209,201 V,0,150109,,2,620 F,2,150109,150309,0.1
Sprite,Foreground,Centre,"sb\px.png",348,379 R,0,150109,,-0.303 C,0,150109,,209,209,201 V,0,150109,,2,620 F,2,150109,150309,0.1
Sprite,Foreground,Centre,"sb\px.png",160,249 R,0,150460,,-0.235 C,0,150460,,209,209,201 V,0,150460,,2,620 F,2,150460,150660,0.1
Sprite,Foreground,Centre,"sb\px.png",177,248 R,0,150460,,-0.265 C,0,150460,,209,209,201 V,0,150460,,2,620 F,2,150460,150660,0.1
Sprite,Foreground,Centre,"sb\px.png",220,376 R,0,150700,,-0.221 C,0,150700,,209,209,201 V,0,150700,,2,620 F,2,150700,150900,0.1
Sprite,Foreground,Centre,"sb\px.png",228,372 R,0,150700,,-0.233 C,0,150700,,209,209,201 V,0,150700,,2,620 F,2,150700,150900,0.1
Sprite,Foreground,Centre,"sb\px.png",281,249 R,0,150905,,-0.235 C,0,150905,,209,209,201 V,0,150905,,2,620 F,2,150905,151105,0.1
Sprite,Foreground,Centre,"sb\px.png",282,259 R,0,150905,,-0.304 C,0,150905,,209,209,201 V,0,150905,,2,620 F,2,150905,151105,0.1
Sprite,Foreground,Centre,"sb\px.png",295,251 R,0,151038,,-0.239 C,0,151038,,209,209,201 V,0,151038,,2,620 F,2,151038,151238,0.1
Sprite,Foreground,Centre,"sb\px.png",279,251 R,0,151038,,-0.257 C,0,151038,,209,209,201 V,0,151038,,2,620 F,2,151038,151238,0.1
Sprite,Foreground,Centre,"sb\px.png",103,337 R,0,151256,,-0.363 C,0,151256,,209,209,201 V,0,151256,,2,620 F,2,151256,151456,0.1
Sprite,Foreground,Centre,"sb\px.png",114,326 R,0,151256,,-0.335 C,0,151256,,209,209,201 V,0,151256,,2,620 F,2,151256,151456,0.1
Sprite,Foreground,Centre,"sb\px.png",323,358 R,0,151475,,-0.234 C,0,151475,,209,209,201 V,0,151475,,2,620 F,2,151475,151675,0.1
Sprite,Foreground,Centre,"sb\px.png",327,367 R,0,151475,,-0.248 C,0,151475,,209,209,201 V,0,151475,,2,620 F,2,151475,151675,0.1
Sprite,Foreground,Centre,"sb\px.png",534,386 R,0,151705,,-0.296 C,0,151705,,209,209,201 V,0,151705,,2,620 F,2,151705,151905,0.1
Sprite,Foreground,Centre,"sb\px.png",525,387 R,0,151705,,-0.343 C,0,151705,,209,209,201 V,0,151705,,2,620 F,2,151705,151905,0.1
Sprite,Foreground,Centre,"sb\px.png",515,265 R,0,151903,,-0.363 C,0,151903,,209,209,201 V,0,151903,,2,620 F,2,151903,152103,0.1
Sprite,Foreground,Centre,"sb\px.png",493,277 R,0,151903,,-0.262 C,0,151903,,209,209,201 V,0,151903,,2,620 F,2,151903,152103,0.1
Sprite,Foreground,Centre,"sb\px.png",509,286 R,0,151993,,-0.356 C,0,151993,,209,209,201 V,0,151993,,2,620 F,2,151993,152557,0.1
Sprite,Foreground,Centre,"sb\px.png",518,260 R,0,151993,,-0.22 C,0,151993,,209,209,201 V,0,151993,,2,620 F,2,151993,152557,0.1
Sprite,Foreground,Centre,"sb\px.png",259,379 R,0,152559,,-0.371 C,0,152559,,209,209,201 V,0,152559,,2,620 F,2,152559,153654,0.1
Sprite,Foreground,Centre,"sb\px.png",242,395 R,0,152559,,-0.21 C,0,152559,,209,209,201 V,0,152559,,2,620 F,2,152559,153654,0.1
Sprite,Foreground,Centre,"sb\px.png",438,162 R,0,128583,,0.253 C,0,128583,,209,209,201 V,0,128583,,2,620 F,2,128583,129008,0.1
Sprite,Foreground,Centre,"sb\px.png",433,144 R,0,128583,,0.211 C,0,128583,,209,209,201 V,0,128583,,2,620 F,2,128583,129008,0.1
Sprite,Foreground,Centre,"sb\px.png",201,125 R,0,129034,,0.295 C,0,129034,,209,209,201 V,0,129034,,2,620 F,2,129034,129234,0.1
Sprite,Foreground,Centre,"sb\px.png",182,120 R,0,129034,,0.193 C,0,129034,,209,209,201 V,0,129034,,2,620 F,2,129034,129234,0.1
Sprite,Foreground,Centre,"sb\px.png",270,299 R,0,129263,,0.296 C,0,129263,,209,209,201 V,0,129263,,2,620 F,2,129263,129463,0.1
Sprite,Foreground,Centre,"sb\px.png",252,310 R,0,129263,,0.299 C,0,129263,,209,209,201 V,0,129263,,2,620 F,2,129263,129463,0.1
Sprite,Foreground,Centre,"sb\px.png",341,50 R,0,129492,,0.263 C,0,129492,,209,209,201 V,0,129492,,2,620 F,2,129492,129806,0.1
Sprite,Foreground,Centre,"sb\px.png",346,70 R,0,129492,,0.106 C,0,129492,,209,209,201 V,0,129492,,2,620 F,2,129492,129806,0.1
Sprite,Foreground,Centre,"sb\px.png",486,77 R,0,129721,,0.286 C,0,129721,,209,209,201 V,0,129721,,2,620 F,2,129721,129921,0.1
Sprite,Foreground,Centre,"sb\px.png",486,78 R,0,129721,,0.116 C,0,129721,,209,209,201 V,0,129721,,2,620 F,2,129721,129921,0.1
Sprite,Foreground,Centre,"sb\px.png",471,223 R,0,129936,,0.159 C,0,129936,,209,209,201 V,0,129936,,2,620 F,2,129936,130243,0.1
Sprite,Foreground,Centre,"sb\px.png",495,229 R,0,129936,,0.252 C,0,129936,,209,209,201 V,0,129936,,2,620 F,2,129936,130243,0.1
Sprite,Foreground,Centre,"sb\px.png",552,317 R,0,130152,,0.168 C,0,130152,,209,209,201 V,0,130152,,2,620 F,2,130152,130468,0.1
Sprite,Foreground,Centre,"sb\px.png",580,321 R,0,130152,,0.243 C,0,130152,,209,209,201 V,0,130152,,2,620 F,2,130152,130468,0.1
Sprite,Foreground,Centre,"sb\px.png",479,424 R,0,130384,,0.281 C,0,130384,,209,209,201 V,0,130384,,2,620 F,2,130384,130584,0.1
Sprite,Foreground,Centre,"sb\px.png",499,426 R,0,130384,,0.191 C,0,130384,,209,209,201 V,0,130384,,2,620 F,2,130384,130584,0.1
Sprite,Foreground,Centre,"sb\px.png",480,422 R,0,130495,,0.182 C,0,130495,,209,209,201 V,0,130495,,2,620 F,2,130495,130695,0.1
Sprite,Foreground,Centre,"sb\px.png",497,434 R,0,130495,,0.197 C,0,130495,,209,209,201 V,0,130495,,2,620 F,2,130495,130695,0.1
Sprite,Foreground,Centre,"sb\px.png",481,442 R,0,130607,,0.265 C,0,130607,,209,209,201 V,0,130607,,2,620 F,2,130607,130807,0.1
Sprite,Foreground,Centre,"sb\px.png",498,441 R,0,130607,,0.235 C,0,130607,,209,209,201 V,0,130607,,2,620 F,2,130607,130807,0.1
Sprite,Foreground,Centre,"sb\px.png",388,259 R,0,130831,,0.279 C,0,130831,,209,209,201 V,0,130831,,2,620 F,2,130831,131031,0.1
Sprite,Foreground,Centre,"sb\px.png",396,255 R,0,130831,,0.267 C,0,130831,,209,209,201 V,0,130831,,2,620 F,2,130831,131031,0.1
Sprite,Foreground,Centre,"sb\px.png",565,221 R,0,131055,,0.265 C,0,131055,,209,209,201 V,0,131055,,2,620 F,2,131055,131255,0.1
Sprite,Foreground,Centre,"sb\px.png",566,231 R,0,131055,,0.196 C,0,131055,,209,209,201 V,0,131055,,2,620 F,2,131055,131255,0.1
Sprite,Foreground,Centre,"sb\px.png",398,394 R,0,131279,,0.261 C,0,131279,,209,209,201 V,0,131279,,2,620 F,2,131279,131702,0.1
Sprite,Foreground,Centre,"sb\px.png",382,394 R,0,131279,,0.243 C,0,131279,,209,209,201 V,0,131279,,2,620 F,2,131279,131702,0.1
Sprite,Foreground,Centre,"sb\px.png",212,289 R,0,131727,,0.137 C,0,131727,,209,209,201 V,0,131727,,2,620 F,2,131727,132150,0.1
Sprite,Foreground,Centre,"sb\px.png",223,278 R,0,131727,,0.165 C,0,131727,,209,209,201 V,0,131727,,2,620 F,2,131727,132150,0.1
Sprite,Foreground,Centre,"sb\px.png",313,213 R,0,132175,,0.266 C,0,132175,,209,209,201 V,0,132175,,2,620 F,2,132175,132602,0.1
Sprite,Foreground,Centre,"sb\px.png",317,222 R,0,132175,,0.252 C,0,132175,,209,209,201 V,0,132175,,2,620 F,2,132175,132602,0.1
Sprite,Foreground,Centre,"sb\px.png",420,142 R,0,132629,,0.204 C,0,132629,,209,209,201 V,0,132629,,2,620 F,2,132629,132829,0.1
Sprite,Foreground,Centre,"sb\px.png",411,143 R,0,132629,,0.157 C,0,132629,,209,209,201 V,0,132629,,2,620 F,2,132629,132829,0.1
Sprite,Foreground,Centre,"sb\px.png",204,133 R,0,132856,,0.137 C,0,132856,,209,209,201 V,0,132856,,2,620 F,2,132856,133056,0.1
Sprite,Foreground,Centre,"sb\px.png",182,145 R,0,132856,,0.238 C,0,132856,,209,209,201 V,0,132856,,2,620 F,2,132856,133056,0.1
Sprite,Foreground,Centre,"sb\px.png",320,313 R,0,133084,,0.144 C,0,133084,,209,209,201 V,0,133084,,2,620 F,2,133084,133507,0.1
Sprite,Foreground,Centre,"sb\px.png",329,287 R,0,133084,,0.28 C,0,133084,,209,209,201 V,0,133084,,2,620 F,2,133084,133507,0.1
Sprite,Foreground,Centre,"sb\px.png",496,198 R,0,133531,,0.129 C,0,133531,,209,209,201 V,0,133531,,2,620 F,2,133531,133731,0.1
Sprite,Foreground,Centre,"sb\px.png",479,214 R,0,133531,,0.29 C,0,133531,,209,209,201 V,0,133531,,2,620 F,2,133531,133731,0.1
Sprite,Foreground,Centre,"sb\px.png",514,401 R,0,133755,,0.235 C,0,133755,,209,209,201 V,0,133755,,2,620 F,2,133755,133955,0.1
Sprite,Foreground,Centre,"sb\px.png",517,403 R,0,133755,,0.223 C,0,133755,,209,209,201 V,0,133755,,2,620 F,2,133755,133955,0.1
Sprite,Foreground,Centre,"sb\px.png",400,264 R,0,133979,,0.27 C,0,133979,,209,209,201 V,0,133979,,2,620 F,2,133979,134179,0.1
Sprite,Foreground,Centre,"sb\px.png",401,262 R,0,133979,,0.24 C,0,133979,,209,209,201 V,0,133979,,2,620 F,2,133979,134179,0.1
Sprite,Foreground,Centre,"sb\px.png",258,265 R,0,134199,,0.177 C,0,134199,,209,209,201 V,0,134199,,2,620 F,2,134199,134399,0.1
Sprite,Foreground,Centre,"sb\px.png",245,244 R,0,134199,,0.201 C,0,134199,,209,209,201 V,0,134199,,2,620 F,2,134199,134399,0.1
Sprite,Foreground,Centre,"sb\px.png",226,407 R,0,134420,,0.156 C,0,134420,,209,209,201 V,0,134420,,2,620 F,2,134420,134620,0.1
Sprite,Foreground,Centre,"sb\px.png",225,431 R,0,134420,,0.222 C,0,134420,,209,209,201 V,0,134420,,2,620 F,2,134420,134620,0.1
Sprite,Foreground,Centre,"sb\px.png",385,447 R,0,134640,,0.18 C,0,134640,,209,209,201 V,0,134640,,2,620 F,2,134640,134840,0.1
Sprite,Foreground,Centre,"sb\px.png",410,428 R,0,134640,,0.239 C,0,134640,,209,209,201 V,0,134640,,2,620 F,2,134640,134840,0.1
Sprite,Foreground,Centre,"sb\px.png",449,255 R,0,134861,,0.237 C,0,134861,,209,209,201 V,0,134861,,2,620 F,2,134861,135061,0.1
Sprite,Foreground,Centre,"sb\px.png",448,236 R,0,134861,,0.136 C,0,134861,,209,209,201 V,0,134861,,2,620 F,2,134861,135061,0.1
Sprite,Foreground,Centre,"sb\px.png",158,263 R,0,135085,,0.299 C,0,135085,,209,209,201 V,0,135085,,2,620 F,2,135085,135285,0.1
Sprite,Foreground,Centre,"sb\px.png",157,257 R,0,135085,,0.152 C,0,135085,,209,209,201 V,0,135085,,2,620 F,2,135085,135285,0.1
Sprite,Foreground,Centre,"sb\px.png",324,405 R,0,135308,,0.229 C,0,135308,,209,209,201 V,0,135308,,2,620 F,2,135308,135508,0.1
Sprite,Foreground,Centre,"sb\px.png",314,417 R,0,135308,,0.115 C,0,135308,,209,209,201 V,0,135308,,2,620 F,2,135308,135508,0.1
Sprite,Foreground,Centre,"sb\px.png",287,103 R,0,135532,,0.262 C,0,135532,,209,209,201 V,0,135532,,2,620 F,2,135532,135732,0.1
Sprite,Foreground,Centre,"sb\px.png",291,116 R,0,135532,,0.21 C,0,135532,,209,209,201 V,0,135532,,2,620 F,2,135532,135732,0.1
Sprite,Foreground,Centre,"sb\px.png",98,232 R,0,135756,,0.16 C,0,135756,,209,209,201 V,0,135756,,2,620 F,2,135756,136181,0.1
Sprite,Foreground,Centre,"sb\px.png",79,216 R,0,135756,,0.196 C,0,135756,,209,209,201 V,0,135756,,2,620 F,2,135756,136181,0.1
Sprite,Foreground,Centre,"sb\px.png",125,427 R,0,136207,,0.146 C,0,136207,,209,209,201 V,0,136207,,2,620 F,2,136207,136407,0.1
Sprite,Foreground,Centre,"sb\px.png",123,438 R,0,136207,,0.19 C,0,136207,,209,209,201 V,0,136207,,2,620 F,2,136207,136407,0.1
Sprite,Foreground,Centre,"sb\px.png",230,247 R,0,136432,,0.263 C,0,136432,,209,209,201 V,0,136432,,2,620 F,2,136432,136632,0.1
Sprite,Foreground,Centre,"sb\px.png",236,263 R,0,136432,,0.105 C,0,136432,,209,209,201 V,0,136432,,2,620 F,2,136432,136632,0.1
Sprite,Foreground,Centre,"sb\px.png",314,416 R,0,136658,,0.298 C,0,136658,,209,209,201 V,0,136658,,2,620 F,2,136658,137083,0.1
Sprite,Foreground,Centre,"sb\px.png",299,407 R,0,136658,,0.155 C,0,136658,,209,209,201 V,0,136658,,2,620 F,2,136658,137083,0.1
Sprite,Foreground,Centre,"sb\px.png",522,139 R,0,137109,,0.254 C,0,137109,,209,209,201 V,0,137109,,2,620 F,2,137109,137420,0.1
Sprite,Foreground,Centre,"sb\px.png",502,134 R,0,137109,,0.294 C,0,137109,,209,209,201 V,0,137109,,2,620 F,2,137109,137420,0.1
Sprite,Foreground,Centre,"sb\px.png",577,272 R,0,137331,,0.151 C,0,137331,,209,209,201 V,0,137331,,2,620 F,2,137331,137642,0.1
Sprite,Foreground,Centre,"sb\px.png",554,269 R,0,137331,,0.135 C,0,137331,,209,209,201 V,0,137331,,2,620 F,2,137331,137642,0.1
Sprite,Foreground,Centre,"sb\px.png",501,348 R,0,137553,,0.257 C,0,137553,,209,209,201 V,0,137553,,2,620 F,2,137553,137753,0.1
Sprite,Foreground,Centre,"sb\px.png",490,342 R,0,137553,,0.298 C,0,137553,,209,209,201 V,0,137553,,2,620 F,2,137553,137753,0.1
Sprite,Foreground,Centre,"sb\px.png",389,156 R,0,137775,,0.124 C,0,137775,,209,209,201 V,0,137775,,2,620 F,2,137775,137975,0.1
Sprite,Foreground,Centre,"sb\px.png",393,150 R,0,137775,,0.216 C,0,137775,,209,209,201 V,0,137775,,2,620 F,2,137775,137975,0.1
Sprite,Foreground,Centre,"sb\px.png",364,273 R,0,137997,,0.148 C,0,137997,,209,209,201 V,0,137997,,2,620 F,2,137997,138197,0.1
Sprite,Foreground,Centre,"sb\px.png",380,267 R,0,137997,,0.222 C,0,137997,,209,209,201 V,0,137997,,2,620 F,2,137997,138197,0.1
Sprite,Foreground,Centre,"sb\px.png",373,283 R,0,138108,,0.168 C,0,138108,,209,209,201 V,0,138108,,2,620 F,2,138108,138308,0.1
Sprite,Foreground,Centre,"sb\px.png",357,266 R,0,138108,,0.275 C,0,138108,,209,209,201 V,0,138108,,2,620 F,2,138108,138308,0.1
Sprite,Foreground,Centre,"sb\px.png",514,148 R,0,138332,,0.23 C,0,138332,,209,209,201 V,0,138332,,2,620 F,2,138332,138532,0.1
Sprite,Foreground,Centre,"sb\px.png",500,129 R,0,138332,,0.194 C,0,138332,,209,209,201 V,0,138332,,2,620 F,2,138332,138532,0.1
Sprite,Foreground,Centre,"sb\px.png",498,148 R,0,138444,,0.198 C,0,138444,,209,209,201 V,0,138444,,2,620 F,2,138444,138644,0.1
Sprite,Foreground,Centre,"sb\px.png",512,131 R,0,138444,,0.173 C,0,138444,,209,209,201 V,0,138444,,2,620 F,2,138444,138644,0.1
Sprite,Foreground,Centre,"sb\px.png",352,77 R,0,138668,,0.222 C,0,138668,,209,209,201 V,0,138668,,2,620 F,2,138668,138868,0.1
Sprite,Foreground,Centre,"sb\px.png",345,77 R,0,138668,,0.292 C,0,138668,,209,209,201 V,0,138668,,2,620 F,2,138668,138868,0.1
Sprite,Foreground,Centre,"sb\px.png",253,163 R,0,138892,,0.118 C,0,138892,,209,209,201 V,0,138892,,2,620 F,2,138892,139315,0.1
Sprite,Foreground,Centre,"sb\px.png",254,141 R,0,138892,,0.122 C,0,138892,,209,209,201 V,0,138892,,2,620 F,2,138892,139315,0.1
Sprite,Foreground,Centre,"sb\px.png",105,68 R,0,139340,,0.267 C,0,139340,,209,209,201 V,0,139340,,2,620 F,2,139340,139540,0.1
Sprite,Foreground,Centre,"sb\px.png",103,82 R,0,139340,,0.148 C,0,139340,,209,209,201 V,0,139340,,2,620 F,2,139340,139540,0.1
Sprite,Foreground,Centre,"sb\px.png",84,216 R,0,139567,,0.189 C,0,139567,,209,209,201 V,0,139567,,2,620 F,2,139567,139767,0.1
Sprite,Foreground,Centre,"sb\px.png",86,215 R,0,139567,,0.192 C,0,139567,,209,209,201 V,0,139567,,2,620 F,2,139567,139767,0.1
Sprite,Foreground,Centre,"sb\px.png",129,325 R,0,139794,,0.185 C,0,139794,,209,209,201 V,0,139794,,2,620 F,2,139794,139994,0.1
Sprite,Foreground,Centre,"sb\px.png",138,331 R,0,139794,,0.221 C,0,139794,,209,209,201 V,0,139794,,2,620 F,2,139794,139994,0.1
Sprite,Foreground,Centre,"sb\px.png",204,256 R,0,140014,,0.298 C,0,140014,,209,209,201 V,0,140014,,2,620 F,2,140014,140214,0.1
Sprite,Foreground,Centre,"sb\px.png",228,254 R,0,140014,,0.127 C,0,140014,,209,209,201 V,0,140014,,2,620 F,2,140014,140214,0.1
Sprite,Foreground,Centre,"sb\px.png",328,229 R,0,140235,,0.234 C,0,140235,,209,209,201 V,0,140235,,2,620 F,2,140235,140435,0.1
Sprite,Foreground,Centre,"sb\px.png",339,238 R,0,140235,,0.165 C,0,140235,,209,209,201 V,0,140235,,2,620 F,2,140235,140435,0.1
Sprite,Foreground,Centre,"sb\px.png",312,367 R,0,140458,,0.265 C,0,140458,,209,209,201 V,0,140458,,2,620 F,2,140458,140658,0.1
Sprite,Foreground,Centre,"sb\px.png",305,367 R,0,140458,,0.132 C,0,140458,,209,209,201 V,0,140458,,2,620 F,2,140458,140658,0.1
Sprite,Foreground,Centre,"sb\px.png",268,156 R,0,140682,,0.162 C,0,140682,,209,209,201 V,0,140682,,2,620 F,2,140682,140882,0.1
Sprite,Foreground,Centre,"sb\px.png",256,164 R,0,140682,,0.192 C,0,140682,,209,209,201 V,0,140682,,2,620 F,2,140682,140882,0.1
Sprite,Foreground,Centre,"sb\px.png",443,298 R,0,140906,,0.138 C,0,140906,,209,209,201 V,0,140906,,2,620 F,2,140906,141106,0.1
Sprite,Foreground,Centre,"sb\px.png",420,307 R,0,140906,,0.141 C,0,140906,,209,209,201 V,0,140906,,2,620 F,2,140906,141106,0.1
Sprite,Foreground,Centre,"sb\px.png",432,303 R,0,141018,,0.254 C,0,141018,,209,209,201 V,0,141018,,2,620 F,2,141018,141218,0.1
Sprite,Foreground,Centre,"sb\px.png",430,291 R,0,141018,,0.187 C,0,141018,,209,209,201 V,0,141018,,2,620 F,2,141018,141218,0.1
Sprite,Foreground,Centre,"sb\px.png",419,313 R,0,141130,,0.212 C,0,141130,,209,209,201 V,0,141130,,2,620 F,2,141130,141553,0.1
Sprite,Foreground,Centre,"sb\px.png",437,307 R,0,141130,,0.103 C,0,141130,,209,209,201 V,0,141130,,2,620 F,2,141130,141553,0.1
Sprite,Foreground,Centre,"sb\px.png",345,226 R,0,141577,,0.298 C,0,141577,,209,209,201 V,0,141577,,2,620 F,2,141577,142000,0.1
Sprite,Foreground,Centre,"sb\px.png",331,216 R,0,141577,,0.156 C,0,141577,,209,209,201 V,0,141577,,2,620 F,2,141577,142000,0.1
Sprite,Foreground,Centre,"sb\px.png",243,427 R,0,142025,,0.151 C,0,142025,,209,209,201 V,0,142025,,2,620 F,2,142025,142225,0.1
Sprite,Foreground,Centre,"sb\px.png",232,404 R,0,142025,,0.189 C,0,142025,,209,209,201 V,0,142025,,2,620 F,2,142025,142225,0.1
Sprite,Foreground,Centre,"sb\px.png",222,190 R,0,142255,,0.264 C,0,142255,,209,209,201 V,0,142255,,2,620 F,2,142255,142455,0.1
Sprite,Foreground,Centre,"sb\px.png",229,193 R,0,142255,,0.14 C,0,142255,,209,209,201 V,0,142255,,2,620 F,2,142255,142455,0.1
Sprite,Foreground,Centre,"sb\px.png",444,313 R,0,142486,,0.279 C,0,142486,,209,209,201 V,0,142486,,2,620 F,2,142486,142686,0.1
Sprite,Foreground,Centre,"sb\px.png",430,313 R,0,142486,,0.171 C,0,142486,,209,209,201 V,0,142486,,2,620 F,2,142486,142686,0.1
Sprite,Foreground,Centre,"sb\px.png",125,276 R,0,142708,,0.183 C,0,142708,,209,209,201 V,0,142708,,2,620 F,2,142708,142908,0.1
Sprite,Foreground,Centre,"sb\px.png",120,279 R,0,142708,,0.232 C,0,142708,,209,209,201 V,0,142708,,2,620 F,2,142708,142908,0.1
Sprite,Foreground,Centre,"sb\px.png",127,294 R,0,142819,,0.282 C,0,142819,,209,209,201 V,0,142819,,2,620 F,2,142819,143019,0.1
Sprite,Foreground,Centre,"sb\px.png",117,287 R,0,142819,,0.168 C,0,142819,,209,209,201 V,0,142819,,2,620 F,2,142819,143019,0.1
Sprite,Foreground,Centre,"sb\px.png",99,227 R,0,135756,,-0.747 C,0,135756,,209,209,201 V,0,135756,,2,620 F,2,135756,136181,0.1
Sprite,Foreground,Centre,"sb\px.png",94,209 R,0,135756,,-0.789 C,0,135756,,209,209,201 V,0,135756,,2,620 F,2,135756,136181,0.1
Sprite,Foreground,Centre,"sb\px.png",146,438 R,0,136207,,-0.705 C,0,136207,,209,209,201 V,0,136207,,2,620 F,2,136207,136407,0.1
Sprite,Foreground,Centre,"sb\px.png",127,433 R,0,136207,,-0.807 C,0,136207,,209,209,201 V,0,136207,,2,620 F,2,136207,136407,0.1
Sprite,Foreground,Centre,"sb\px.png",248,250 R,0,136432,,-0.704 C,0,136432,,209,209,201 V,0,136432,,2,620 F,2,136432,136632,0.1
Sprite,Foreground,Centre,"sb\px.png",230,261 R,0,136432,,-0.701 C,0,136432,,209,209,201 V,0,136432,,2,620 F,2,136432,136632,0.1
Sprite,Foreground,Centre,"sb\px.png",319,397 R,0,136658,,-0.737 C,0,136658,,209,209,201 V,0,136658,,2,620 F,2,136658,137083,0.1
Sprite,Foreground,Centre,"sb\px.png",324,417 R,0,136658,,-0.894 C,0,136658,,209,209,201 V,0,136658,,2,620 F,2,136658,137083,0.1
Sprite,Foreground,Centre,"sb\px.png",513,137 R,0,137109,,-0.714 C,0,137109,,209,209,201 V,0,137109,,2,620 F,2,137109,137420,0.1
Sprite,Foreground,Centre,"sb\px.png",513,138 R,0,137109,,-0.884 C,0,137109,,209,209,201 V,0,137109,,2,620 F,2,137109,137420,0.1
Sprite,Foreground,Centre,"sb\px.png",556,256 R,0,137331,,-0.841 C,0,137331,,209,209,201 V,0,137331,,2,620 F,2,137331,137642,0.1
Sprite,Foreground,Centre,"sb\px.png",580,262 R,0,137331,,-0.748 C,0,137331,,209,209,201 V,0,137331,,2,620 F,2,137331,137642,0.1
Sprite,Foreground,Centre,"sb\px.png",475,343 R,0,137553,,-0.832 C,0,137553,,209,209,201 V,0,137553,,2,620 F,2,137553,137753,0.1
Sprite,Foreground,Centre,"sb\px.png",503,347 R,0,137553,,-0.757 C,0,137553,,209,209,201 V,0,137553,,2,620 F,2,137553,137753,0.1
Sprite,Foreground,Centre,"sb\px.png",391,144 R,0,137775,,-0.719 C,0,137775,,209,209,201 V,0,137775,,2,620 F,2,137775,137975,0.1
Sprite,Foreground,Centre,"sb\px.png",411,146 R,0,137775,,-0.809 C,0,137775,,209,209,201 V,0,137775,,2,620 F,2,137775,137975,0.1
Sprite,Foreground,Centre,"sb\px.png",361,270 R,0,137997,,-0.818 C,0,137997,,209,209,201 V,0,137997,,2,620 F,2,137997,138197,0.1
Sprite,Foreground,Centre,"sb\px.png",378,282 R,0,137997,,-0.803 C,0,137997,,209,209,201 V,0,137997,,2,620 F,2,137997,138197,0.1
Sprite,Foreground,Centre,"sb\px.png",362,290 R,0,138108,,-0.735 C,0,138108,,209,209,201 V,0,138108,,2,620 F,2,138108,138308,0.1
Sprite,Foreground,Centre,"sb\px.png",379,289 R,0,138108,,-0.765 C,0,138108,,209,209,201 V,0,138108,,2,620 F,2,138108,138308,0.1
Sprite,Foreground,Centre,"sb\px.png",511,128 R,0,138332,,-0.721 C,0,138332,,209,209,201 V,0,138332,,2,620 F,2,138332,138532,0.1
Sprite,Foreground,Centre,"sb\px.png",519,124 R,0,138332,,-0.733 C,0,138332,,209,209,201 V,0,138332,,2,620 F,2,138332,138532,0.1
Sprite,Foreground,Centre,"sb\px.png",498,141 R,0,138444,,-0.735 C,0,138444,,209,209,201 V,0,138444,,2,620 F,2,138444,138644,0.1
Sprite,Foreground,Centre,"sb\px.png",499,151 R,0,138444,,-0.804 C,0,138444,,209,209,201 V,0,138444,,2,620 F,2,138444,138644,0.1
Sprite,Foreground,Centre,"sb\px.png",364,69 R,0,138668,,-0.739 C,0,138668,,209,209,201 V,0,138668,,2,620 F,2,138668,138868,0.1
Sprite,Foreground,Centre,"sb\px.png",348,69 R,0,138668,,-0.757 C,0,138668,,209,209,201 V,0,138668,,2,620 F,2,138668,138868,0.1
Sprite,Foreground,Centre,"sb\px.png",252,167 R,0,138892,,-0.863 C,0,138892,,209,209,201 V,0,138892,,2,620 F,2,138892,139315,0.1
Sprite,Foreground,Centre,"sb\px.png",263,156 R,0,138892,,-0.835 C,0,138892,,209,209,201 V,0,138892,,2,620 F,2,138892,139315,0.1
Sprite,Foreground,Centre,"sb\px.png",104,79 R,0,139340,,-0.734 C,0,139340,,209,209,201 V,0,139340,,2,620 F,2,139340,139540,0.1
Sprite,Foreground,Centre,"sb\px.png",108,88 R,0,139340,,-0.748 C,0,139340,,209,209,201 V,0,139340,,2,620 F,2,139340,139540,0.1
Sprite,Foreground,Centre,"sb\px.png",87,199 R,0,139567,,-0.796 C,0,139567,,209,209,201 V,0,139567,,2,620 F,2,139567,139767,0.1
Sprite,Foreground,Centre,"sb\px.png",78,200 R,0,139567,,-0.843 C,0,139567,,209,209,201 V,0,139567,,2,620 F,2,139567,139767,0.1
Sprite,Foreground,Centre,"sb\px.png",143,308 R,0,139794,,-0.863 C,0,139794,,209,209,201 V,0,139794,,2,620 F,2,139794,139994,0.1
Sprite,Foreground,Centre,"sb\px.png",121,320 R,0,139794,,-0.762 C,0,139794,,209,209,201 V,0,139794,,2,620 F,2,139794,139994,0.1
Sprite,Foreground,Centre,"sb\px.png",220,265 R,0,140014,,-0.856 C,0,140014,,209,209,201 V,0,140014,,2,620 F,2,140014,140214,0.1
Sprite,Foreground,Centre,"sb\px.png",229,239 R,0,140014,,-0.72 C,0,140014,,209,209,201 V,0,140014,,2,620 F,2,140014,140214,0.1
Sprite,Foreground,Centre,"sb\px.png",348,215 R,0,140235,,-0.871 C,0,140235,,209,209,201 V,0,140235,,2,620 F,2,140235,140435,0.1
Sprite,Foreground,Centre,"sb\px.png",331,231 R,0,140235,,-0.71 C,0,140235,,209,209,201 V,0,140235,,2,620 F,2,140235,140435,0.1
Sprite,Foreground,Centre,"sb\px.png",303,356 R,0,140458,,-0.765 C,0,140458,,209,209,201 V,0,140458,,2,620 F,2,140458,140658,0.1
Sprite,Foreground,Centre,"sb\px.png",306,358 R,0,140458,,-0.777 C,0,140458,,209,209,201 V,0,140458,,2,620 F,2,140458,140658,0.1
Sprite,Foreground,Centre,"sb\px.png",249,150 R,0,140682,,-0.73 C,0,140682,,209,209,201 V,0,140682,,2,620 F,2,140682,140882,0.1
Sprite,Foreground,Centre,"sb\px.png",250,148 R,0,140682,,-0.76 C,0,140682,,209,209,201 V,0,140682,,2,620 F,2,140682,140882,0.1
Sprite,Foreground,Centre,"sb\px.png",444,317 R,0,140906,,-0.823 C,0,140906,,209,209,201 V,0,140906,,2,620 F,2,140906,141106,0.1
Sprite,Foreground,Centre,"sb\px.png",431,296 R,0,140906,,-0.799 C,0,140906,,209,209,201 V,0,140906,,2,620 F,2,140906,141106,0.1
Sprite,Foreground,Centre,"sb\px.png",431,289 R,0,141018,,-0.844 C,0,141018,,209,209,201 V,0,141018,,2,620 F,2,141018,141218,0.1
Sprite,Foreground,Centre,"sb\px.png",430,313 R,0,141018,,-0.778 C,0,141018,,209,209,201 V,0,141018,,2,620 F,2,141018,141218,0.1
Sprite,Foreground,Centre,"sb\px.png",419,310 R,0,141130,,-0.82 C,0,141130,,209,209,201 V,0,141130,,2,620 F,2,141130,141553,0.1
Sprite,Foreground,Centre,"sb\px.png",444,291 R,0,141130,,-0.761 C,0,141130,,209,209,201 V,0,141130,,2,620 F,2,141130,141553,0.1
Sprite,Foreground,Centre,"sb\px.png",346,237 R,0,141577,,-0.763 C,0,141577,,209,209,201 V,0,141577,,2,620 F,2,141577,142000,0.1
Sprite,Foreground,Centre,"sb\px.png",345,218 R,0,141577,,-0.864 C,0,141577,,209,209,201 V,0,141577,,2,620 F,2,141577,142000,0.1
Sprite,Foreground,Centre,"sb\px.png",243,411 R,0,142025,,-0.701 C,0,142025,,209,209,201 V,0,142025,,2,620 F,2,142025,142225,0.1
Sprite,Foreground,Centre,"sb\px.png",242,405 R,0,142025,,-0.848 C,0,142025,,209,209,201 V,0,142025,,2,620 F,2,142025,142225,0.1
Sprite,Foreground,Centre,"sb\px.png",239,182 R,0,142255,,-0.771 C,0,142255,,209,209,201 V,0,142255,,2,620 F,2,142255,142455,0.1
Sprite,Foreground,Centre,"sb\px.png",229,194 R,0,142255,,-0.885 C,0,142255,,209,209,201 V,0,142255,,2,620 F,2,142255,142455,0.1
Sprite,Foreground,Centre,"sb\px.png",431,292 R,0,142486,,-0.738 C,0,142486,,209,209,201 V,0,142486,,2,620 F,2,142486,142686,0.1
Sprite,Foreground,Centre,"sb\px.png",435,305 R,0,142486,,-0.79 C,0,142486,,209,209,201 V,0,142486,,2,620 F,2,142486,142686,0.1
Sprite,Foreground,Centre,"sb\px.png",129,296 R,0,142708,,-0.84 C,0,142708,,209,209,201 V,0,142708,,2,620 F,2,142708,142908,0.1
Sprite,Foreground,Centre,"sb\px.png",110,280 R,0,142708,,-0.804 C,0,142708,,209,209,201 V,0,142708,,2,620 F,2,142708,142908,0.1
Sprite,Foreground,Centre,"sb\px.png",115,269 R,0,142819,,-0.854 C,0,142819,,209,209,201 V,0,142819,,2,620 F,2,142819,143019,0.1
Sprite,Foreground,Centre,"sb\px.png",113,280 R,0,142819,,-0.81 C,0,142819,,209,209,201 V,0,142819,,2,620 F,2,142819,143019,0.1
//Storyboard Layer 4 (Overlay)
//Storyboard Sound Samples

[TimingPoints]
3,447.761194029851,4,2,1,70,1,8
562,491.803278688525,4,2,1,70,1,0
685,458.015267175573,4,2,1,70,1,8
914,434.782608695652,4,2,1,70,1,8
1348,419.58041958042,4,2,1,70,1,8
1557,-90.9090909090909,4,2,1,70,0,8
1767,441.176470588235,4,2,1,70,1,8
1767,-83.3333333333333,4,2,1,70,0,8
1987,-76.9230769230769,4,2,1,70,0,8
2208,571.428571428571,4,2,1,70,1,8
2208,-71.4285714285714,4,2,1,70,0,8
2350,437.956204379562,4,2,1,70,1,0
2422,-100,4,2,1,60,0,0
2495,-100,4,2,1,50,0,0
2568,-100,4,2,1,60,0,0
2641,-100,4,2,1,70,0,0
3006,454.545454545455,4,2,1,70,1,8
3460,540.540540540541,4,2,1,70,1,8
3595,425.531914893617,4,2,1,70,1,8
4020,458.015267175573,4,2,1,70,1,8
4134,458.015267175573,4,2,1,70,1,0
4363,437.956204379562,4,2,5,50,1,8
4800,458.015267175573,4,2,5,50,1,8
5258,468.75,4,2,5,50,1,8
5609,447.761194029851,4,2,5,50,1,8
5832,408.163265306122,4,2,5,50,1,8
5934,408.163265306122,4,2,5,50,1,0
6138,454.545454545455,4,2,5,50,1,8
7615,441.176470588235,4,2,5,50,1,8
7725,441.176470588235,4,2,5,50,1,0
7945,447.761194029851,4,2,5,50,1,8
9512,447.761194029851,4,2,5,50,1,0
10631,487.80487804878,4,2,5,50,1,8
10996,402.684563758389,4,2,5,50,1,8
11298,454.545454545455,4,2,1,70,1,0
11298,-90.9090909090909,4,2,1,70,0,0
11752,447.761194029851,4,2,1,70,1,8
11752,-76.9230769230769,4,2,1,70,0,8
12199,-111.111111111111,4,2,1,70,0,8
12647,437.956204379562,4,2,1,70,1,8
12647,-76.9230769230769,4,2,1,70,0,8
13084,458.015267175573,4,2,1,70,1,0
13084,-83.3333333333333,4,2,1,70,0,0
13542,434.782608695652,4,2,1,70,1,8
13976,447.761194029851,4,2,1,70,1,8
14423,437.956204379562,4,2,1,70,1,8
14423,-83.3333333333333,4,2,1,70,0,8
14860,461.538461538462,4,2,1,70,1,0
15321,447.761194029851,4,2,1,70,1,8
15992,431.654676258993,4,2,1,70,1,8
16207,447.761194029851,4,2,1,70,1,8
16207,-83.3333333333333,4,2,1,70,0,8
16654,447.761194029851,4,2,1,70,1,0
17102,437.956204379562,4,2,1,70,1,8
17539,465.116279069767,4,2,1,70,1,8
18004,447.761194029851,4,2,1,70,1,8
18451,447.761194029851,4,2,1,70,1,0
18451,-71.4285714285714,4,2,1,70,0,0
20242,441.176470588235,4,2,1,70,1,0
20242,-76.9230769230769,4,2,1,70,0,0
21124,458.015267175573,4,2,1,70,1,8
21582,447.761194029851,4,2,1,70,1,8
22029,447.761194029851,4,2,1,70,1,0
22476,454.545454545455,4,2,1,70,1,8
22476,-76.9230769230769,4,2,1,70,0,0
23385,447.761194029851,4,2,1,70,1,8
23608,416.666666666667,4,2,1,70,1,8
23608,-76.9230769230769,4,2,1,70,0,0
23816,458.015267175573,4,2,1,70,1,0
23816,-71.4285714285714,4,2,1,70,0,0
24274,444.444444444444,4,2,1,70,1,8
25162,476.190476190476,4,2,1,70,1,8
25400,413.793103448276,4,2,1,70,1,8
25400,-76.9230769230769,4,2,1,70,0,0
25606,447.761194029851,4,2,1,70,1,0
26501,461.538461538462,4,2,1,70,1,8
26962,447.761194029851,4,2,1,70,1,8
27409,447.761194029851,4,2,1,70,1,0
32334,441.176470588235,4,2,1,70,1,8
32775,447.761194029851,4,2,1,70,1,0
33222,454.545454545455,4,2,1,70,1,8
33676,-83.3333333333333,4,2,1,70,0,8
34131,446.096654275093,4,2,1,70,1,8
34577,446.096654275093,4,2,1,70,1,0
35023,447.761194029851,4,2,1,70,1,8
36366,444.444444444444,4,2,1,70,1,0
37254,451.127819548872,4,2,1,70,1,8
38156,446.096654275093,4,2,1,70,1,0
39048,447.761194029851,4,2,1,70,1,8
39719,416.666666666667,4,2,1,70,1,8
39927,454.545454545455,4,2,1,70,1,0
40154,-76.9230769230769,4,2,1,70,0,0
40836,447.761194029851,4,2,1,70,1,8
41283,-76.9230769230769,4,2,1,70,0,0
41731,451.127819548872,4,2,1,70,1,0
41731,-71.4285714285714,4,2,1,70,0,0
42858,-76.9230769230769,4,2,1,70,0,0
43535,447.761194029851,4,2,1,70,1,0
43535,-83.3333333333333,4,2,1,70,0,0
44430,-76.9230769230769,4,2,1,70,0,0
44878,-71.4285714285714,4,2,1,70,0,0
45102,425.531914893617,4,2,1,70,1,8
45314,458.015267175573,4,2,1,70,1,0
45314,-83.3333333333333,4,2,1,70,0,0
45772,441.176470588235,4,2,1,70,1,8
46654,447.761194029851,4,2,1,70,1,8
46654,-71.4285714285714,4,2,1,70,0,0
46877,416.666666666667,4,2,1,70,1,8
46877,-71.4285714285714,4,2,1,70,0,0
47085,451.127819548872,4,2,1,70,1,0
47085,-83.3333333333333,4,2,1,70,0,0
47536,-71.9424460431655,4,2,1,70,0,0
47987,458.015267175573,4,2,1,70,1,8
48445,447.761194029851,4,2,1,70,1,8
48892,454.545454545455,4,2,1,70,1,0
48892,-76.9230769230769,4,2,1,70,0,0
49346,447.761194029851,4,2,1,70,1,8
50241,442.80442804428,4,2,1,70,1,8
50241,-83.3333333333333,4,2,1,70,0,8
50683,454.545454545455,4,2,1,70,1,0
50683,-71.4285714285714,4,2,1,70,0,0
51137,447.761194029851,4,2,1,70,1,8
51248,-83.3333333333333,4,2,1,70,0,0
52480,444.444444444444,4,2,1,70,1,0
53813,451.127819548872,4,2,1,70,1,8
54264,447.761194029851,4,2,1,70,1,0
54264,-76.9230769230769,4,2,1,70,0,0
54711,-71.4285714285714,4,2,1,70,0,0
55159,-76.9230769230769,4,2,1,70,0,0
56055,480,4,2,1,70,1,0
56295,447.761194029851,4,2,1,70,1,8
56406,-83.3333333333333,4,2,1,70,0,8
56742,441.176470588235,4,2,1,70,1,8
57183,447.761194029851,4,2,1,70,1,8
57183,-76.9230769230769,4,2,1,70,0,8
57854,458.015267175573,4,2,1,70,1,0
58312,437.956204379562,4,2,1,70,1,8
58312,-76.9230769230769,4,2,1,70,0,8
58749,447.761194029851,4,2,1,70,1,8
58749,-76.9230769230769,4,2,1,70,0,8
59644,454.545454545455,4,2,1,70,1,0
60098,447.761194029851,4,2,1,70,1,8
60545,-71.4285714285714,4,2,1,70,0,8
60993,454.545454545455,4,2,1,70,1,8
61333,-123.304562268804,4,2,1,70,0,8
61447,447.761194029851,4,2,5,50,1,0
63238,465.116279069767,4,2,5,50,1,0
63703,447.761194029851,4,2,5,50,1,8
64150,431.654676258993,4,2,5,50,1,8
64581,447.761194029851,4,2,5,50,1,8
65028,447.761194029851,4,2,5,50,1,0
68386,441.176470588235,4,2,5,50,1,8
68606,447.761194029851,4,2,5,60,1,0
71964,480,4,2,5,60,1,8
72204,425.531914893617,4,2,5,60,1,0
72629,444.444444444444,4,2,5,60,1,8
73517,447.761194029851,4,2,5,60,1,8
73964,447.427293064877,4,2,5,50,1,0
74411,-100,4,2,5,50,0,0
74415,491.803278688525,4,2,5,55,1,8
74660,447.761194029851,4,2,5,55,1,8
75107,461.538461538462,4,2,5,60,1,8
75337,491.803278688525,4,2,5,70,1,8
75582,397.350993377483,4,2,5,70,1,8
75780,444.444444444444,4,2,1,70,1,0
76224,-83.3333333333333,4,2,1,70,0,0
76668,447.761194029851,4,2,1,70,1,8
76668,-76.9230769230769,4,2,1,70,0,8
77563,447.761194029851,4,2,1,70,1,0
77563,-83.3333333333333,4,2,1,70,0,0
78682,-76.9230769230769,4,2,1,70,0,0
79354,444.444444444444,4,2,1,70,1,0
79354,-83.3333333333333,4,2,1,70,0,0
79798,447.761194029851,4,2,1,70,1,8
79798,-76.9230769230769,4,2,1,70,0,8
80917,434.782608695652,4,2,1,70,1,8
80917,-76.9230769230769,4,2,1,70,0,8
81134,446.096654275093,4,2,1,70,1,0
82472,454.545454545455,4,2,1,70,1,8
82926,447.761194029851,4,2,1,70,1,0
82926,-76.9230769230769,4,2,1,70,0,0
83821,-83.3333333333333,4,2,1,70,0,0
84717,-76.9230769230769,4,2,1,70,0,0
86060,-71.4285714285714,4,2,1,70,0,0
86284,437.956204379562,4,2,1,70,1,8
86502,447.761194029851,4,2,1,70,1,0
86502,-76.9230769230769,4,2,1,70,0,0
87397,451.127819548872,4,2,1,70,1,8
87397,-83.3333333333333,4,2,1,70,0,0
88073,419.58041958042,4,2,1,70,1,8
88282,465.116279069767,4,2,1,70,1,0
88282,-76.9230769230769,4,2,1,70,0,0
88747,437.956204379562,4,2,1,70,1,8
88747,-76.9230769230769,4,2,1,70,0,0
89184,447.761194029851,4,2,1,70,1,8
89184,-76.9230769230769,4,2,1,70,0,0
90079,461.538461538462,4,2,1,70,1,0
90079,-83.3333333333333,4,2,1,70,0,0
90540,446.096654275093,4,2,1,70,1,8
91432,454.545454545455,4,2,1,70,1,8
91886,454.545454545455,4,2,1,70,1,0
92341,446.096654275093,4,2,1,70,1,8
92341,-83.3333333333333,4,2,1,70,0,0
93233,431.654676258993,4,2,1,70,1,8
93664,447.761194029851,4,2,1,70,1,0
93887,-83.3333333333333,4,2,1,70,0,0
94111,454.545454545455,4,2,1,70,1,8
94111,-83.3333333333333,4,2,1,70,0,0
95020,447.761194029851,4,2,1,70,1,8
95243,425.531914893617,4,2,1,70,1,8
95455,465.116279069767,4,2,1,70,1,0
95920,444.444444444444,4,2,1,70,1,8
95920,-83.3333333333333,4,2,1,70,0,0
97253,447.761194029851,4,2,1,70,1,0
97253,-76.9230769230769,4,2,1,70,0,0
99044,458.015267175573,4,2,1,70,1,0
99273,-76.9230769230769,4,2,1,70,0,0
99502,447.761194029851,4,2,1,70,1,8
99502,-76.9230769230769,4,2,1,70,0,0
100621,434.782608695652,4,2,1,70,1,8
100838,447.761194029851,4,2,1,70,1,0
100838,-71.4285714285714,4,2,1,70,0,0
102181,437.956204379562,4,2,1,70,1,8
102618,458.015267175573,4,2,1,70,1,0
102618,-71.4285714285714,4,2,1,70,0,0
103076,447.761194029851,4,2,1,70,1,8
103076,-71.4285714285714,4,2,1,70,0,0
104419,447.761194029851,4,2,1,70,1,0
104642,-83.3333333333333,4,2,1,70,0,0
105986,437.956204379562,4,2,1,70,1,8
106204,447.761194029851,4,2,1,70,1,0
106651,-83.3333333333333,4,2,1,70,0,0
107099,458.015267175573,4,2,1,70,1,8
107328,-83.3333333333333,4,2,1,70,0,0
107557,437.956204379562,4,2,1,70,1,8
107994,465.116279069767,4,2,1,70,1,0
108459,444.444444444444,4,2,1,70,1,8
108459,-83.3333333333333,4,2,1,70,0,0
109792,447.761194029851,4,2,1,70,1,0
110239,-83.3333333333333,4,2,1,70,0,0
111135,491.803278688525,4,2,1,70,1,8
111380,352.941176470588,4,2,1,70,1,8
111380,-76.9230769230769,4,2,1,70,0,8
111556,491.803278688525,4,2,1,60,1,0
111924,387.096774193548,4,2,1,60,1,8
112020,461.538461538462,4,2,1,60,1,8
112250,-76.9230769230769,4,2,1,40,0,8
112327,-76.9230769230769,4,2,1,50,0,8
112404,-76.9230769230769,4,2,1,60,0,8
112481,447.761194029851,4,2,1,70,1,8
112816,431.654676258993,4,2,1,70,1,8
113031,461.538461538462,4,2,1,70,1,8
113492,428.571428571429,4,2,1,70,1,8
113706,480,4,2,1,70,1,8
113706,-71.4285714285714,4,2,1,70,0,8
113946,444.444444444444,4,2,1,70,1,8
114279,461.538461538462,4,2,1,70,1,0
114740,447.761194029851,4,2,5,70,1,8
115187,444.444444444444,4,2,5,70,1,8
116075,444.444444444444,4,2,5,70,1,0
118297,447.761194029851,4,2,5,70,1,8
119640,444.444444444444,4,2,5,70,1,0
120528,447.761194029851,4,2,5,70,1,8
121423,447.761194029851,4,2,5,70,1,0
121423,-90.9090909090909,4,2,5,70,0,0
122766,454.545454545455,4,2,5,70,1,8
122766,-90.9090909090909,4,2,5,70,0,0
123220,451.127819548872,4,2,5,70,1,0
124122,-90.9090909090909,4,2,5,70,0,0
124573,444.444444444444,4,2,5,70,1,8
124573,-90.9090909090909,4,2,5,70,0,0
125017,444.444444444444,4,2,5,70,1,0
125017,-90.9090909090909,4,2,5,70,0,0
125905,454.545454545455,4,2,5,70,1,8
125905,-90.9090909090909,4,2,5,70,0,0
126814,444.444444444444,4,2,5,70,1,0
127702,447.761194029851,4,2,5,70,1,8
127925,491.803278688525,4,2,5,70,1,8
128170,359.281437125748,4,2,1,70,1,8
128349,468.75,4,2,1,70,1,8
128583,451.127819548872,4,2,1,70,1,1
128583,-66.6666666666667,4,2,1,70,0,1
129034,458.015267175573,4,2,1,70,1,9
129492,-71.4285714285714,4,2,1,70,0,9
129721,431.654676258993,4,2,1,70,1,9
129721,-71.4285714285714,4,2,1,70,0,9
130152,465.116279069767,4,2,1,70,1,9
130152,-71.4285714285714,4,2,1,70,0,9
130384,447.761194029851,4,2,1,70,1,1
131279,-71.4285714285714,4,2,1,70,0,9
132175,454.545454545455,4,2,1,70,1,1
132175,-76.9230769230769,4,2,1,70,0,1
133084,447.761194029851,4,2,1,70,1,9
133084,-76.9230769230769,4,2,1,70,0,1
133979,441.176470588235,4,2,1,70,1,1
134861,447.761194029851,4,2,1,70,1,9
135756,451.127819548872,4,2,1,70,1,1
135756,-66.6666666666667,4,2,1,70,0,1
136658,-71.4285714285714,4,2,1,70,0,1
137109,444.444444444444,4,2,1,70,1,9
137109,-71.4285714285714,4,2,1,70,0,1
137553,444.444444444444,4,2,1,70,1,1
137997,447.761194029851,4,2,1,70,1,9
138892,-76.9230769230769,4,2,1,70,0,9
139340,454.545454545455,4,2,1,70,1,1
139794,441.176470588235,4,2,1,70,1,9
140235,447.761194029851,4,2,1,70,1,9
141130,447.761194029851,4,2,1,70,1,1
141130,-71.4285714285714,4,2,1,70,0,1
142025,461.538461538462,4,2,1,70,1,9
142025,-71.4285714285714,4,2,1,70,0,1
142486,444.444444444444,4,2,1,70,1,9
142486,-71.4285714285714,4,2,1,70,0,1
142819,468.75,4,2,5,70,1,9
142936,468.75,4,2,5,70,1,0
143170,447.761194029851,4,2,5,50,1,8
143617,454.545454545455,4,2,5,50,1,8
144750,447.761194029851,4,2,5,50,1,0
144974,447.761194029851,4,2,5,50,1,8
146541,441.176470588235,4,2,5,70,1,0
146541,-83.3333333333333,4,2,5,70,0,0
146982,454.545454545455,4,2,5,70,1,8
146982,-83.3333333333333,4,2,5,70,0,0
147891,447.761194029851,4,2,5,70,1,8
147891,-83.3333333333333,4,2,5,70,0,0
148338,458.015267175573,4,2,5,70,1,0
148338,-83.3333333333333,4,2,5,70,0,0
148796,441.176470588235,4,2,5,70,1,8
148796,-83.3333333333333,4,2,5,70,0,0
149237,447.761194029851,4,2,5,70,1,8
149237,-83.3333333333333,4,2,5,70,0,0
149684,425.531914893617,4,2,5,70,1,8
149684,-83.3333333333333,4,2,5,70,0,0
150109,468.75,4,2,1,70,1,0
150460,480,4,2,1,70,1,8
150700,410.958904109589,4,2,1,70,1,8
150905,535.714285714286,4,2,1,70,1,8
151038,437.956204379562,4,2,1,70,1,8
151475,461.538461538462,4,2,1,70,1,8
151705,397.350993377483,4,2,1,70,1,8
151903,361.44578313253,4,2,1,60,1,0
151993,-100.806451612903,4,2,1,60,0,0
152083,292.682926829268,4,2,1,50,1,8
152229,259.74025974026,4,2,1,55,1,8
152358,402.684563758389,4,2,1,70,1,8
152559,447.761194029851,4,2,1,70,1,8
152559,-71.5031315240048,4,2,1,70,0,8

[Colours]
Combo1 : 113,128,126
Combo2 : 122,175,180
Combo3 : 220,208,105

[HitObjects]
184,229,562,5,2,0:0:0:0:
184,229,684,1,2,0:0:0:0:
79,295,914,2,0,L|0:285,2,80,2|2|2,0:0|0:0|0:0,0:0:0:0:
12,150,1557,6,0,L|22:67,1,44.0000013427735
104,101,1767,2,0,L|94:18,1,47.9999985351563,2|2,0:0|0:0,0:0:0:0:
188,57,1987,2,0,L|198:-26,1,51.999997619629
274,83,2208,1,2,0:0:0:0:
256,192,2350,12,6,3006,1:2:0:0:
256,192,3119,12,4,4020,1:3:0:0:
72,161,11298,6,0,P|114:175|173:144,1,88.000002685547,0|0,1:0|0:0,0:0:0:0:
229,43,11752,2,0,P|271:29|330:60,1,103.999995239258,0|0,1:0|0:0,0:0:0:0:
495,182,12199,2,0,L|484:66,1,107.999997106433,2|0,1:2|0:0,0:0:0:0:
409,115,12647,2,0,L|419:225,1,103.999995626688,2|2,1:2|0:0,0:0:0:0:
426,312,12975,1,0,0:0:0:0:
426,312,13084,5,2,1:2:0:0:
306,150,13313,1,2,0:0:0:0:
267,358,13542,1,2,1:2:0:0:
325,261,13759,1,2,0:0:0:0:
199,207,13976,2,0,L|111:197,1,80,2|2,1:2|0:0,0:0:0:0:
50,252,14311,1,0,0:0:0:0:
50,252,14423,2,0,L|-16:262,2,47.9999985351563,2|2|2,1:2|0:0|0:0,0:0:0:0:
169,107,14860,1,0,1:0:0:0:
108,338,15090,5,2,0:0:0:0:
241,279,15321,1,2,1:2:0:0:
207,381,15544,1,2,0:0:0:0:
119,197,15768,1,2,1:2:0:0:
241,181,15992,5,0,0:0:0:0:
241,181,16099,1,0,0:0:0:0:
241,181,16207,2,0,P|288:197|338:181,1,95.9999970703126,2|2,1:2|0:0,0:0:0:0:
402,129,16542,1,2,0:0:0:0:
402,129,16654,6,0,P|441:116|481:129,1,80,2|2,1:2|0:0,0:0:0:0:
498,232,17102,1,2,1:2:0:0:
394,29,17320,1,2,0:0:0:0:
394,29,17430,1,2,0:0:0:0:
394,29,17539,1,2,1:2:0:0:
331,185,17771,5,2,0:0:0:0:
324,216,17887,1,0,0:0:0:0:
316,248,18004,1,14,1:2:0:0:
316,248,18451,5,6,1:2:0:0:
418,124,18674,1,0,0:0:0:0:
441,309,18898,1,10,1:2:0:0:
331,84,19122,1,2,0:0:0:0:
223,201,19346,2,0,P|166:217|95:183,1,111.999996582031,2|0,1:2|0:0,0:0:0:0:
64,128,19682,1,0,0:0:0:0:
64,128,19794,6,0,L|85:9,1,111.999996582031,10|2,1:2|0:0,0:0:0:0:
172,0,20130,1,0,0:0:0:0:
172,0,20242,6,0,L|182:77,1,51.999997813344,2|2,1:2|0:0,0:0:0:0:
264,74,20462,2,0,L|257:125,1,51.999997813344,2|0,0:0|0:0,0:0:0:0:
343,32,20683,2,0,P|397:9|467:38,1,103.999995239258,10|0,1:2|0:0,0:0:0:0:
498,198,21124,5,2,1:2:0:0:
409,102,21353,1,2,0:0:0:0:
409,102,21467,1,0,0:0:0:0:
409,102,21582,1,10,1:2:0:0:
382,297,21805,1,2,0:0:0:0:
297,144,22029,5,0,1:0:0:0:
394,210,22252,1,2,0:0:0:0:
394,210,22364,1,0,0:0:0:0:
394,210,22476,2,0,L|506:196,1,103.999995239258,10|0,1:2|0:0,0:0:0:0:
503,107,22816,2,0,L|399:119,1,103.999995239258,2|0,0:0|0:0,0:0:0:0:
318,139,23157,1,0,0:0:0:0:
276,144,23271,1,0,0:0:0:0:
243,147,23385,5,8,1:2:0:0:
204,303,23608,2,0,L|210:357,1,51.999997619629,2|0,0:0|0:0,0:0:0:0:
155,198,23816,6,0,P|99:219|28:199,1,111.999996582031,2|2,1:2|0:0,0:0:0:0:
5,68,24274,1,10,1:2:0:0:
93,126,24496,1,2,0:0:0:0:
0,302,24718,5,2,1:2:0:0:
48,210,24940,1,6,0:3:0:0:
94,373,25162,1,8,1:2:0:0:
155,198,25400,6,0,L|223:189,1,51.999997619629,8|8,0:3|0:3,0:0:0:0:
295,182,25606,1,4,1:2:0:0:
295,182,26053,5,10,1:2:0:0:
357,267,26277,1,2,0:0:0:0:
410,176,26501,2,0,L|221:149,1,160,2|8,1:2|1:2,0:0:0:0:
1,114,27409,5,2,1:2:0:0:
72,191,27632,1,2,0:0:0:0:
80,46,27856,1,10,1:2:0:0:
112,46,27968,1,0,0:0:0:0:
144,46,28080,1,2,0:0:0:0:
176,46,28192,1,2,0:0:0:0:
257,111,28416,1,2,0:0:0:0:
257,111,29647,5,10,1:2:0:0:
319,26,29871,1,2,0:0:0:0:
372,117,30095,2,0,L|183:144,1,160,2|8,1:2|1:2,0:0:0:0:
51,266,30991,5,2,1:2:0:0:
122,189,31214,1,2,0:0:0:0:
130,334,31438,1,10,1:2:0:0:
170,332,31550,1,0,0:0:0:0:
209,333,31662,1,2,0:0:0:0:
249,333,31774,1,2,0:0:0:0:
249,333,33222,5,10,1:2:0:0:
342,205,33449,1,2,0:0:0:0:
341,352,33676,2,0,L|143:383,1,191.999994140625,2|8,1:2|1:2,0:0:0:0:
45,338,34577,5,2,1:2:0:0:
145,264,34800,1,2,0:0:0:0:
44,193,35023,1,10,1:2:0:0:
31,146,35134,1,0,0:0:0:0:
39,99,35246,1,2,0:0:0:0:
66,60,35358,1,2,0:0:0:0:
181,44,35582,1,2,0:0:0:0:
181,44,36366,6,0,L|359:22,1,160,2|8,1:2|1:2,0:0:0:0:
450,46,37032,1,0,0:0:0:0:
494,178,37254,2,0,L|336:159,1,160,2|8,1:2|1:2,0:0:0:0:
162,160,38156,6,0,L|175:259,1,80,2|0,1:2|0:0,0:0:0:0:
344,263,38602,2,0,L|332:362,1,80,10|0,1:2|0:0,0:0:0:0:
66,118,39048,2,0,L|78:217,1,80,2|4,1:2|0:3,0:0:0:0:
436,315,39495,1,10,1:2:0:0:
256,192,39719,5,8,0:3:0:0:
256,160,39823,1,8,0:3:0:0:
256,128,39927,1,6,1:2:0:0:
359,193,40154,6,0,P|416:206|471:175,1,103.999995239258,2|10,0:0|1:2,0:0:0:0:
402,100,40608,1,2,0:0:0:0:
322,291,40836,1,0,1:0:0:0:
256,192,41059,1,2,0:0:0:0:
194,97,41283,2,0,P|140:80|78:98,1,103.999995239258,10|0,1:2|0:0,0:0:0:0:
38,160,41619,1,0,0:0:0:0:
38,160,41731,6,0,L|56:303,1,111.999996582031,0|2,1:0|0:0,0:0:0:0:
144,358,42182,1,10,1:2:0:0:
142,184,42407,1,2,0:0:0:0:
256,128,42633,5,0,1:0:0:0:
256,160,42745,1,0,0:0:0:0:
256,192,42858,2,0,L|276:304,1,103.999995239258,2|8,0:0|1:2,0:0:0:0:
368,197,43309,1,0,0:0:0:0:
368,197,43422,1,0,0:0:0:0:
368,197,43535,6,0,P|416:179|469:196,1,95.9999970703126,0|2,1:0|0:0,0:0:0:0:
421,285,43982,1,10,1:2:0:0:
467,83,44206,1,2,0:0:0:0:
322,103,44430,6,0,L|270:97,1,51.999997619629,0|0,1:0|0:0,0:0:0:0:
201,42,44654,2,0,L|149:48,1,51.999997619629,2|0,0:0|0:0,0:0:0:0:
86,113,44878,2,0,P|70:172|100:244,1,111.999996582031,10|2,1:2|0:0,0:0:0:0:
149,275,45208,1,4,0:3:0:0:
149,275,45314,6,0,L|115:375,1,95.9999970703126,0|2,1:0|0:0,0:0:0:0:
0,322,45772,1,10,1:2:0:0:
176,191,45992,1,2,0:0:0:0:
0,239,46213,1,0,1:0:0:0:
0,239,46323,1,2,0:0:0:0:
0,239,46433,1,6,0:3:0:0:
233,296,46654,6,0,L|199:396,1,55.9999982910157,10|2,1:2|0:0,0:0:0:0:
291,226,46877,2,0,L|273:173,1,55.9999982910157,2|2,0:0|0:0,0:0:0:0:
350,297,47085,6,0,P|396:315|463:280,1,95.9999970703126,6|2,1:2|0:0,0:0:0:0:
500,237,47423,1,0,0:0:0:0:
499,236,47536,38,0,B|403:181|329:201|261:296|303:294|290:386|194:404|132:369,1,447.999986328125,10|8,1:2|1:2,0:0:0:0:
183,277,48668,1,2,0:0:0:0:
183,277,48780,1,2,0:0:0:0:
183,277,48892,6,0,L|193:209,1,51.999997619629,2|2,1:2|0:0,0:0:0:0:
212,83,49232,1,2,0:0:0:0:
293,189,49457,1,2,0:0:0:0:
118,131,49681,1,2,0:0:0:0:
279,5,49905,1,2,0:0:0:0:
279,5,50017,1,2,0:0:0:0:
393,119,50241,6,0,L|405:166,1,47.9999985351563,10|0,1:2|0:0,0:0:0:0:
486,204,50462,2,0,L|474:250,1,47.9999985351563,2|2,0:0|0:0,0:0:0:0:
410,312,50683,6,0,P|363:338|281:297,1,111.999996582031,2|0,1:2|0:0,0:0:0:0:
251,256,51023,1,2,0:0:0:0:
163,343,51248,1,2,0:0:0:0:
163,343,51360,2,0,L|47:328,1,95.9999970703126,2|0,0:0|1:0,0:0:0:0:
0,171,51808,2,0,L|95:183,1,95.9999970703126,2|8,0:0|1:2,0:0:0:0:
251,256,52256,1,0,0:0:0:0:
253,217,52368,1,0,0:0:0:0:
253,184,52480,1,0,1:0:0:0:
253,184,52924,5,10,1:2:0:0:
351,49,53146,1,2,0:0:0:0:
404,209,53368,1,2,1:2:0:0:
248,59,53591,1,2,0:0:0:0:
476,117,53813,1,10,1:2:0:0:
161,184,54038,1,2,0:0:0:0:
307,384,54264,6,0,P|279:341|331:249,1,155.999993440032,2|2,1:2|0:0,0:0:0:0:
399,294,54711,2,0,L|515:269,1,111.999996582031,10|2,1:2|0:0,0:0:0:0:
308,155,55159,1,2,1:2:0:0:
308,155,55271,2,0,L|440:174,2,103.999995239258,2|2|2,0:0|0:0|0:0,0:0:0:0:
157,139,55943,1,2,0:0:0:0:
278,13,56175,1,2,0:0:0:0:
227,222,56406,2,0,L|255:374,1,143.999995605469
74,277,56962,5,2,1:2:0:0:
44,265,57072,1,0,0:0:0:0:
14,253,57183,6,0,L|16:197,1,51.999997619629,2|0,0:0|0:0,0:0:0:0:
28,114,57406,1,10,1:2:0:0:
28,114,57518,2,0,P|126:96|158:168,1,155.999992858887,0|0,0:0|1:0,0:0:0:0:
308,227,58312,6,0,L|322:167,1,51.999997813344,10|0,1:2|0:0,0:0:0:0:
221,251,58530,2,0,L|233:302,1,51.999997813344,2|2,0:0|0:0,0:0:0:0:
175,366,58749,2,0,L|124:354,1,51.999997813344,2|0,1:2|0:0,0:0:0:0:
50,280,58972,2,0,L|101:268,1,51.999997813344,2|2,0:0|0:0,0:0:0:0:
141,186,59196,2,0,L|153:135,1,51.999997813344,10|0,1:2|0:0,0:0:0:0:
54,60,59420,2,0,L|65:110,1,51.999997813344,2|2,0:0|0:0,0:0:0:0:
135,15,59644,5,2,1:2:0:0:
221,251,59871,1,2,0:0:0:0:
284,50,60098,1,10,1:2:0:0:
35,196,60321,1,2,0:0:0:0:
257,151,60545,1,2,1:2:0:0:
256,150,60657,6,0,L|385:172,1,111.999996582031,2|2,0:0|0:0,0:0:0:0:
506,197,61106,1,2,0:0:0:0:
263,335,61333,1,2,0:0:0:0:
256,192,74187,12,14,75337,0:0:0:0:
256,192,75780,5,6,1:2:0:0:
325,88,76002,1,2,0:0:0:0:
367,284,76224,1,10,1:2:0:0:
367,284,76335,1,2,0:0:0:0:
367,284,76446,2,0,L|373:356,1,47.9999985351563,2|2,0:0|0:0,0:0:0:0:
288,358,76668,6,0,P|257:364|234:358,1,51.999997619629,2|2,1:2|0:0,0:0:0:0:
178,293,76891,2,0,P|147:287|124:293,1,51.999997619629,2|0,0:0|0:0,0:0:0:0:
69,360,77115,1,10,1:2:0:0:
16,172,77339,1,2,0:0:0:0:
160,191,77563,6,0,L|255:178,1,95.9999970703126,2|2,1:2|0:0,0:0:0:0:
332,80,78010,1,10,1:2:0:0:
332,80,78122,1,2,0:0:0:0:
332,80,78234,2,0,P|389:63|444:111,1,95.9999970703126,2|0,0:0|1:0,0:0:0:0:
417,167,78570,1,0,0:0:0:0:
417,167,78682,2,0,L|437:285,1,103.999995239258,2|10,0:0|1:2,0:0:0:0:
346,382,79130,6,0,P|320:382|296:372,1,51.999997619629,2|2,0:0|0:0,0:0:0:0:
268,287,79354,2,0,P|217:269|152:287,1,95.9999970703126,0|2,1:0|0:0,0:0:0:0:
4,293,79798,6,0,L|-2:223,1,51.999997619629,10|2,1:2|0:0,0:0:0:0:
86,249,80021,2,0,L|90:300,1,51.999997619629,2|0,0:0|0:0,0:0:0:0:
50,167,80245,2,0,L|56:97,1,51.999997619629,2|2,1:2|0:0,0:0:0:0:
20,29,80469,2,0,P|71:44|130:7,1,103.999995239258,2|10,0:0|1:2,0:0:0:0:
205,31,80805,1,2,0:0:0:0:
204,30,80917,2,0,P|203:56|197:82,1,51.999997813344,2|4,0:0|0:3,0:0:0:0:
136,148,81134,1,2,1:2:0:0:
385,144,81357,5,0,0:0:0:0:
190,228,81580,1,8,1:2:0:0:
349,223,81803,1,0,0:0:0:0:
233,325,82026,1,2,1:2:0:0:
313,364,82249,1,2,0:0:0:0:
276,137,82472,5,10,1:2:0:0:
276,137,82585,1,2,0:0:0:0:
461,364,82926,6,0,P|487:309|471:252,1,103.999995239258,2|0,1:2|0:0,0:0:0:0:
382,192,83373,1,10,1:2:0:0:
313,364,83597,1,2,0:0:0:0:
313,364,83709,1,2,0:0:0:0:
313,364,83821,6,0,L|208:375,1,95.9999974279402,2|0,1:2|0:0,0:0:0:0:
243,281,84157,2,0,L|338:270,1,95.9999974279402,2|0,0:0|0:0,0:0:0:0:
382,192,84493,1,2,0:0:0:0:
382,192,84605,1,2,0:0:0:0:
382,192,84717,5,2,1:2:0:0:
134,127,84940,1,2,0:0:0:0:
327,28,85164,1,10,1:2:0:0:
169,210,85388,6,0,L|107:218,1,51.999997619629,2|0,0:0|0:0,0:0:0:0:
225,140,85612,2,0,L|263:190,1,51.999997619629,2|0,1:2|0:0,0:0:0:0:
134,127,85836,2,0,L|159:70,1,51.999997619629,2|2,0:0|0:0,0:0:0:0:
220,18,86060,2,0,P|272:36|327:28,1,111.999996582031,10|2,1:2|0:0,0:0:0:0:
401,88,86393,1,0,0:0:0:0:
401,88,86502,2,0,P|463:69|537:94,1,103.999995239258,0|2,1:0|0:0,0:0:0:0:
496,225,86949,1,10,1:2:0:0:
357,188,87173,1,2,0:0:0:0:
357,188,87285,1,2,0:0:0:0:
357,188,87397,6,0,L|240:198,1,95.9999970703126,2|2,1:2|0:0,0:0:0:0:
232,282,87735,2,0,L|136:273,1,95.9999970703126,2|0,0:0|0:0,0:0:0:0:
58,303,88073,1,0,0:0:0:0:
58,303,88177,1,0,0:0:0:0:
58,303,88282,2,0,P|51:338|68:366,1,51.999997619629,0|0,1:0|0:0,0:0:0:0:
142,378,88514,5,2,0:0:0:0:
197,177,88747,1,10,1:2:0:0:
232,282,88965,1,2,0:0:0:0:
96,162,89184,5,2,1:2:0:0:
298,148,89407,1,4,0:3:0:0:
298,148,89519,2,0,B|321:41,1,103.999995239258,2|0,0:0|0:0,0:0:0:0:
413,45,89855,1,8,0:3:0:0:
413,45,89967,1,8,0:3:0:0:
413,45,90079,6,0,B|434:146,1,95.9999970703126,6|0,1:2|0:0,0:0:0:0:
332,248,90540,2,0,P|293:257|257:243,1,80,10|2,1:2|0:0,0:0:0:0:
204,150,90986,1,2,1:2:0:0:
156,319,91209,1,2,0:0:0:0:
22,220,91432,2,0,L|102:214,1,80.000000298023,10|0,1:2|0:0,0:0:0:0:
119,128,91772,1,0,0:0:0:0:
119,128,91886,5,0,1:0:0:0:
156,319,92113,1,0,0:0:0:0:
257,243,92341,2,0,B|360:195|340:292|445:255,1,191.999994140625,10|0,1:2|1:0,0:0:0:0:
492,167,93010,1,0,0:0:0:0:
498,382,93233,1,8,1:2:0:0:
498,382,93340,1,0,0:0:0:0:
438,257,93664,5,2,1:2:0:0:
339,330,93887,2,0,L|292:324,1,47.9999985351563,2|2,0:0|0:0,0:0:0:0:
252,227,94111,2,0,L|348:241,1,95.9999970703126,10|2,1:2|0:0,0:0:0:0:
156,319,94565,2,0,L|60:332,1,95.9999970703126,2|0,1:2|0:0,0:0:0:0:
96,203,95020,1,10,1:2:0:0:
23,70,95243,1,2,0:0:0:0:
23,70,95349,1,0,0:3:0:0:
23,70,95455,5,2,1:2:0:0:
131,2,95687,1,0,0:0:0:0:
158,117,95920,2,0,L|358:89,1,191.999994140625,10|0,1:2|1:0,0:0:0:0:
470,75,96586,1,0,0:0:0:0:
383,244,96808,1,8,1:2:0:0:
383,244,96920,1,0,0:0:0:0:
295,13,97253,6,0,L|187:25,1,103.999995239258,2|0,1:2|0:0,0:0:0:0:
0,168,97700,2,0,L|103:179,1,103.999995239258,10|0,1:2|0:0,0:0:0:0:
295,323,98148,2,0,L|191:334,1,103.999995239258,2|2,1:2|0:0,0:0:0:0:
70,349,98596,1,10,1:2:0:0:
214,185,98820,1,2,0:0:0:0:
214,185,98932,1,0,0:0:0:0:
214,185,99044,5,2,1:2:0:0:
295,323,99273,2,0,L|304:262,1,51.999997619629
399,223,99502,2,0,L|381:339,1,103.999995239258,10|0,1:2|0:0,0:0:0:0:
512,384,99949,1,0,1:0:0:0:
457,149,100173,1,0,0:0:0:0:
383,325,100397,1,8,1:2:0:0:
421,25,100621,1,0,0:0:0:0:
421,25,100729,1,0,0:0:0:0:
421,25,100838,6,0,L|365:27,1,55.9999982910157,2|0,1:2|0:0,0:0:0:0:
251,96,101061,2,0,L|307:94,1,55.9999982910157
287,220,101509,6,0,L|343:218,1,55.9999982910157
457,149,101733,2,0,L|401:151,1,55.9999982910157,2|0,1:2|0:0,0:0:0:0:
136,161,102181,1,10,1:2:0:0:
136,161,102618,5,2,1:2:0:0:
401,150,102847,1,2,0:0:0:0:
173,247,103076,1,10,1:2:0:0:
365,239,103299,1,2,0:0:0:0:
242,331,103523,1,2,1:2:0:0:
324,364,103747,1,4,0:3:0:0:
469,324,103971,6,0,L|445:192,1,111.999996582031,8|8,1:2|0:3,0:0:0:0:
480,132,104307,1,8,0:3:0:0:
480,132,104419,1,6,1:2:0:0:
365,239,104642,5,2,0:0:0:0:
284,141,104866,2,0,L|265:46,1,95.9999970703126,10|2,1:2|0:0,0:0:0:0:
188,107,105202,2,0,L|93:88,1,95.9999970703126,2|0,0:0|0:0,0:0:0:0:
4,74,105538,1,2,0:0:0:0:
151,205,105762,6,0,P|209:209|239:257,1,95.9999970703126,10|0,1:2|0:0,0:0:0:0:
211,323,106095,1,0,0:0:0:0:
211,323,106204,1,0,1:0:0:0:
365,239,106427,5,2,0:0:0:0:
456,149,106651,2,0,L|436:54,1,95.9999970703126,10|2,1:2|0:0,0:0:0:0:
362,15,106987,1,0,0:0:0:0:
362,15,107099,1,0,1:0:0:0:
306,170,107328,2,0,P|257:185|195:148,1,95.9999970703126,2|8,0:0|1:2,0:0:0:0:
170,55,107775,1,0,0:0:0:0:
108,235,107994,1,0,1:0:0:0:
90,127,108226,5,2,0:0:0:0:
203,280,108459,2,0,L|179:397,1,95.9999970703126,10|2,1:2|0:0,0:0:0:0:
279,352,108792,2,0,L|298:257,1,95.9999970703126,2|0,0:0|0:0,0:0:0:0:
318,170,109125,1,2,0:0:0:0:
404,344,109347,1,10,1:2:0:0:
221,176,109570,1,0,0:0:0:0:
221,176,109681,1,0,0:0:0:0:
221,176,109792,1,0,1:0:0:0:
395,231,110015,5,2,0:0:0:0:
203,280,110239,2,0,L|183:374,1,95.9999970703126,10|2,1:2|0:0,0:0:0:0:
108,305,110575,2,0,L|13:285,1,95.9999970703126
6,194,110911,1,2,0:0:0:0:
73,36,111135,1,8,1:2:0:0:
170,162,111380,6,0,L|224:176,1,51.999997619629,2|0,0:0|0:0,0:0:0:0:
305,204,111556,1,0,1:0:0:0:
305,204,111678,1,8,0:0:0:0:
270,15,111924,1,8,0:0:0:0:
270,15,112020,1,8,1:2:0:0:
405,194,112250,6,0,L|382:266,1,69.3333301595054,8|8,0:3|0:3,0:0:0:0:
356,346,112481,1,10,1:2:0:0:
356,346,112592,1,10,0:0:0:0:
230,225,112816,1,6,1:3:0:0:
470,286,113031,1,6,1:3:0:0:
238,350,113261,1,10,0:0:0:0:
384,261,113492,5,10,0:3:0:0:
387,229,113599,1,2,0:0:0:0:
391,189,113706,2,0,L|413:50,1,111.999996582031,6|8,1:2|0:0,0:0:0:0:
334,28,114057,1,8,0:0:0:0:
512,175,114279,5,4,1:2:0:0:
256,192,127036,12,14,128349,1:2:0:0:
368,97,128583,6,0,L|230:80,1,120.000004577637,2|8,1:2|1:2,0:0:0:0:
125,71,129034,1,2,1:2:0:0:
203,244,129263,1,8,1:2:0:0:
272,0,129492,2,0,L|327:7,1,55.9999982910157,0|0,1:2|0:0,0:0:0:0:
417,21,129721,1,8,1:2:0:0:
417,169,129936,6,0,L|424:224,1,55.9999982910157,2|0,1:2|0:0,0:0:0:0:
503,265,130152,2,0,L|496:320,1,55.9999982910157,10|0,1:2|0:0,0:0:0:0:
427,375,130384,5,2,1:2:0:0:
427,375,130495,1,0,0:0:0:0:
427,375,130607,1,10,1:2:0:0:
321,212,130831,1,2,1:2:0:0:
511,161,131055,1,8,1:2:0:0:
330,332,131279,6,0,P|277:349|206:294,1,111.999996582031,2|8,1:2|1:2,0:0:0:0:
160,221,131727,2,0,P|107:204|36:259,1,111.999996582031,0|10,1:0|1:2,0:0:0:0:
244,158,132175,6,0,L|233:39,1,103.999995239258,2|10,1:2|1:2,0:0:0:0:
343,93,132629,1,2,1:2:0:0:
131,86,132856,1,10,1:2:0:0:
253,245,133084,2,0,L|357:232,1,103.999995239258,2|10,1:2|1:2,0:0:0:0:
427,155,133531,1,2,1:2:0:0:
451,356,133755,1,8,1:2:0:0:
351,213,133979,5,2,1:2:0:0:
181,195,134199,1,8,1:2:0:0:
162,365,134420,1,0,1:0:0:0:
333,384,134640,1,8,1:2:0:0:
382,190,134861,5,2,1:2:0:0:
91,215,135085,1,8,1:2:0:0:
250,347,135308,1,2,1:2:0:0:
223,58,135532,1,10,1:2:0:0:
29,162,135756,6,0,L|55:299,1,120.000004577637,6|8,1:2|1:2,0:0:0:0:
70,384,136207,1,2,1:2:0:0:
181,195,136432,1,8,1:2:0:0:
250,347,136658,2,0,P|311:367|375:304,1,111.999996582031,0|8,1:0|1:2,0:0:0:0:
444,81,137109,6,0,L|439:137,1,55.9999982910157,2|0,1:2|0:0,0:0:0:0:
502,202,137331,2,0,L|507:257,1,55.9999982910157,10|0,1:2|0:0,0:0:0:0:
426,291,137553,1,2,1:2:0:0:
339,95,137775,1,10,1:2:0:0:
308,223,137997,1,2,1:2:0:0:
308,223,138108,1,2,0:0:0:0:
444,81,138332,1,2,0:0:0:0:
444,81,138444,5,0,1:0:0:0:
296,7,138668,1,8,1:2:0:0:
200,99,138892,2,0,P|153:118|84:83,1,103.999995239258,0|0,1:0|0:0,0:0:0:0:
35,24,139340,5,14,1:2:0:0:
10,150,139567,1,2,1:2:0:0:
70,261,139794,1,2,1:2:0:0:
153,197,140014,5,14,1:2:0:0:
279,172,140235,1,2,1:2:0:0:
240,311,140458,1,2,1:2:0:0:
200,99,140682,1,14,1:2:0:0:
367,247,140906,1,0,0:0:0:0:
367,247,141018,1,0,0:0:0:0:
367,247,141130,6,0,L|357:371,1,111.999996999264,0|14,1:0|1:2,0:0:0:0:
279,172,141577,2,0,L|269:284,1,111.999996582031,0|0,1:0|1:0,0:0:0:0:
176,363,142025,5,14,1:2:0:0:
165,124,142255,1,0,1:0:0:0:
367,247,142486,1,0,1:0:0:0:
60,226,142708,1,0,0:0:0:0:
60,226,142819,1,6,1:3:0:0:
403,362,146541,6,0,P|422:313|409:267,1,95.9999970703126,4|2,1:2|0:0,0:0:0:0:
322,190,146982,2,0,P|303:141|316:95,1,95.9999970703126,8|2,1:2|0:0,0:0:0:0:
309,297,147436,2,0,P|259:316|214:303,1,95.9999970703126,0|2,1:0|0:0,0:0:0:0:
137,216,147891,2,0,P|88:197|42:209,1,95.9999970703126,8|0,1:2|0:0,0:0:0:0:
194,126,148338,6,0,L|181:30,1,95.9999974279402,0|2,1:0|0:0,0:0:0:0:
291,55,148796,2,0,L|386:67,1,95.9999974279402,8|2,1:2|0:0,0:0:0:0:
456,147,149237,2,0,L|468:242,1,95.9999974279402,0|2,1:0|0:0,0:0:0:0:
492,351,149684,2,0,L|396:338,1,95.9999974279402,8|0,1:2|0:0,0:0:0:0:
278,320,150109,5,4,1:3:0:0:
106,182,150460,5,2,0:0:0:0:
153,329,150700,1,2,0:0:0:0:
227,189,150905,1,2,0:0:0:0:
227,189,151038,1,2,0:0:0:0:
51,269,151256,5,2,0:0:0:0:
254,303,151475,1,2,0:0:0:0:
457,337,151705,1,2,0:0:0:0:
442,218,151903,5,8,0:0:0:0:
442,218,151948,1,0,0:0:0:0:
442,218,151993,2,0,P|381:200|332:286,1,160,8|8,0:3|0:0,0:0:0:0:
190,336,152559,22,1,B|54:406|-74:263|-9:118|95:101|175:165|122:251,1,447.532868447891,6|0,1:2|0:0,0:0:0:0:
