osu file format v14

[General]
AudioFilename: audio.mp3
AudioLeadIn: 0
PreviewTime: 114163
Countdown: 0
SampleSet: Soft
StackLeniency: 0.7
Mode: 0
LetterboxInBreaks: 0
EpilepsyWarning: 1
WidescreenStoryboard: 0

[Editor]
DistanceSpacing: 1.1
BeatDivisor: 4
GridSize: 32
TimelineZoom: 1.1

[Metadata]
Title:Wild Side
TitleUnicode:Wild Side
Artist:ALI
ArtistUnicode:ALI
Creator:Revolver
Version:Easy
Source:BEASTARS
Tags:ビースターズ anime opening op full version furry alien liberty international 2019 jazz rap hip hop studio orange netflix paru itagaki anime opening op full version japanese english french alien liberty international gouhin fieryrage venerablenyanta storyboard
BeatmapID:3416966
BeatmapSetID:1672763

[Difficulty]
HPDrainRate:2
CircleSize:2
OverallDifficulty:3
ApproachRate:3.8
SliderMultiplier:1
SliderTickRate:1

[Events]
//Background and Video events
0,0,"a2.png",0,0
//Break Periods
2,4363,9858
2,61647,74187
2,114479,124561
2,143170,145197
//Storyboard Layer 0 (Background)
//Storyboard Layer 1 (Fail)
//Storyboard Layer 2 (Pass)
//Storyboard Layer 3 (Foreground)
Sprite,Foreground,Centre,"sb\px.png",149,208 R,0,146541,,-0.247 C,0,146541,,209,209,201 V,0,146541,,2,620 P,0,146541,,A F,2,146541,147182,0.1
Sprite,Foreground,Centre,"sb\px.png",144,190 R,0,146541,,-0.289 C,0,146541,,209,209,201 V,0,146541,,2,620 P,0,146541,,A F,2,146541,147182,0.1
Sprite,Foreground,Centre,"sb\px.png",316,270 R,0,147436,,-0.205 C,0,147436,,209,209,201 V,0,147436,,2,620 P,0,147436,,A F,2,147436,148090,0.1
Sprite,Foreground,Centre,"sb\px.png",297,265 R,0,147436,,-0.307 C,0,147436,,209,209,201 V,0,147436,,2,620 P,0,147436,,A F,2,147436,148090,0.1
Sprite,Foreground,Centre,"sb\px.png",507,269 R,0,148338,,-0.204 C,0,148338,,209,209,201 V,0,148338,,2,620 P,0,148338,,A F,2,148338,148996,0.1
Sprite,Foreground,Centre,"sb\px.png",489,280 R,0,148338,,-0.201 C,0,148338,,209,209,201 V,0,148338,,2,620 P,0,148338,,A F,2,148338,148996,0.1
Sprite,Foreground,Centre,"sb\px.png",390,408 R,0,149237,,-0.237 C,0,149237,,209,209,201 V,0,149237,,2,620 P,0,149237,,A F,2,149237,149884,0.1
Sprite,Foreground,Centre,"sb\px.png",395,428 R,0,149237,,-0.394 C,0,149237,,209,209,201 V,0,149237,,2,620 P,0,149237,,A F,2,149237,149884,0.1
Sprite,Foreground,Centre,"sb\px.png",253,318 R,0,150109,,-0.214 C,0,150109,,209,209,201 V,0,150109,,2,620 P,0,150109,,A F,2,150109,150309,0.1
Sprite,Foreground,Centre,"sb\px.png",253,319 R,0,150109,,-0.384 C,0,150109,,209,209,201 V,0,150109,,2,620 P,0,150109,,A F,2,150109,150309,0.1
Sprite,Foreground,Centre,"sb\px.png",310,246 R,0,150460,,-0.341 C,0,150460,,209,209,201 V,0,150460,,2,620 P,0,150460,,A F,2,150460,152759,0.1
Sprite,Foreground,Centre,"sb\px.png",334,252 R,0,150460,,-0.248 C,0,150460,,209,209,201 V,0,150460,,2,620 P,0,150460,,A F,2,150460,152759,0.1
Sprite,Foreground,Centre,"sb\px.png",116,399 R,0,128583,,0.253 C,0,128583,,209,209,201 V,0,128583,,2,620 P,0,128583,,A F,2,128583,129234,0.1
Sprite,Foreground,Centre,"sb\px.png",111,381 R,0,128583,,0.211 C,0,128583,,209,209,201 V,0,128583,,2,620 P,0,128583,,A F,2,128583,129234,0.1
Sprite,Foreground,Centre,"sb\px.png",156,259 R,0,129263,,0.295 C,0,129263,,209,209,201 V,0,129263,,2,620 P,0,129263,,A F,2,129263,129463,0.1
Sprite,Foreground,Centre,"sb\px.png",137,254 R,0,129263,,0.193 C,0,129263,,209,209,201 V,0,129263,,2,620 P,0,129263,,A F,2,129263,129463,0.1
Sprite,Foreground,Centre,"sb\px.png",195,229 R,0,129492,,0.296 C,0,129492,,209,209,201 V,0,129492,,2,620 P,0,129492,,A F,2,129492,130137,0.1
Sprite,Foreground,Centre,"sb\px.png",177,240 R,0,129492,,0.299 C,0,129492,,209,209,201 V,0,129492,,2,620 P,0,129492,,A F,2,129492,130137,0.1
Sprite,Foreground,Centre,"sb\px.png",278,66 R,0,130384,,0.263 C,0,130384,,209,209,201 V,0,130384,,2,620 P,0,130384,,A F,2,130384,130584,0.1
Sprite,Foreground,Centre,"sb\px.png",283,86 R,0,130384,,0.106 C,0,130384,,209,209,201 V,0,130384,,2,620 P,0,130384,,A F,2,130384,130584,0.1
Sprite,Foreground,Centre,"sb\px.png",368,133 R,0,130831,,0.286 C,0,130831,,209,209,201 V,0,130831,,2,620 P,0,130831,,A F,2,130831,131254,0.1
Sprite,Foreground,Centre,"sb\px.png",368,134 R,0,130831,,0.116 C,0,130831,,209,209,201 V,0,130831,,2,620 P,0,130831,,A F,2,130831,131254,0.1
Sprite,Foreground,Centre,"sb\px.png",457,119 R,0,131279,,0.159 C,0,131279,,209,209,201 V,0,131279,,2,620 P,0,131279,,A F,2,131279,131926,0.1
Sprite,Foreground,Centre,"sb\px.png",481,125 R,0,131279,,0.252 C,0,131279,,209,209,201 V,0,131279,,2,620 P,0,131279,,A F,2,131279,131926,0.1
Sprite,Foreground,Centre,"sb\px.png",442,253 R,0,131951,,0.168 C,0,131951,,209,209,201 V,0,131951,,2,620 P,0,131951,,A F,2,131951,132151,0.1
Sprite,Foreground,Centre,"sb\px.png",470,257 R,0,131951,,0.243 C,0,131951,,209,209,201 V,0,131951,,2,620 P,0,131951,,A F,2,131951,132151,0.1
Sprite,Foreground,Centre,"sb\px.png",399,279 R,0,132175,,0.281 C,0,132175,,209,209,201 V,0,132175,,2,620 P,0,132175,,A F,2,132175,132829,0.1
Sprite,Foreground,Centre,"sb\px.png",419,281 R,0,132175,,0.191 C,0,132175,,209,209,201 V,0,132175,,2,620 P,0,132175,,A F,2,132175,132829,0.1
Sprite,Foreground,Centre,"sb\px.png",307,344 R,0,133084,,0.182 C,0,133084,,209,209,201 V,0,133084,,2,620 P,0,133084,,A F,2,133084,133731,0.1
Sprite,Foreground,Centre,"sb\px.png",324,356 R,0,133084,,0.197 C,0,133084,,209,209,201 V,0,133084,,2,620 P,0,133084,,A F,2,133084,133731,0.1
Sprite,Foreground,Centre,"sb\px.png",101,384 R,0,133979,,0.265 C,0,133979,,209,209,201 V,0,133979,,2,620 P,0,133979,,A F,2,133979,135061,0.1
Sprite,Foreground,Centre,"sb\px.png",118,383 R,0,133979,,0.235 C,0,133979,,209,209,201 V,0,133979,,2,620 P,0,133979,,A F,2,133979,135061,0.1
Sprite,Foreground,Centre,"sb\px.png",144,79 R,0,135308,,0.279 C,0,135308,,209,209,201 V,0,135308,,2,620 P,0,135308,,A F,2,135308,135731,0.1
Sprite,Foreground,Centre,"sb\px.png",152,75 R,0,135308,,0.267 C,0,135308,,209,209,201 V,0,135308,,2,620 P,0,135308,,A F,2,135308,135731,0.1
Sprite,Foreground,Centre,"sb\px.png",235,102 R,0,135756,,0.265 C,0,135756,,209,209,201 V,0,135756,,2,620 P,0,135756,,A F,2,135756,135956,0.1
Sprite,Foreground,Centre,"sb\px.png",236,112 R,0,135756,,0.196 C,0,135756,,209,209,201 V,0,135756,,2,620 P,0,135756,,A F,2,135756,135956,0.1
Sprite,Foreground,Centre,"sb\px.png",347,152 R,0,136207,,0.261 C,0,136207,,209,209,201 V,0,136207,,2,620 P,0,136207,,A F,2,136207,136407,0.1
Sprite,Foreground,Centre,"sb\px.png",331,152 R,0,136207,,0.243 C,0,136207,,209,209,201 V,0,136207,,2,620 P,0,136207,,A F,2,136207,136407,0.1
Sprite,Foreground,Centre,"sb\px.png",417,90 R,0,136658,,0.137 C,0,136658,,209,209,201 V,0,136658,,2,620 P,0,136658,,A F,2,136658,137309,0.1
Sprite,Foreground,Centre,"sb\px.png",428,79 R,0,136658,,0.165 C,0,136658,,209,209,201 V,0,136658,,2,620 P,0,136658,,A F,2,136658,137309,0.1
Sprite,Foreground,Centre,"sb\px.png",558,139 R,0,137331,,0.266 C,0,137331,,209,209,201 V,0,137331,,2,620 P,0,137331,,A F,2,137331,137531,0.1
Sprite,Foreground,Centre,"sb\px.png",562,148 R,0,137331,,0.252 C,0,137331,,209,209,201 V,0,137331,,2,620 P,0,137331,,A F,2,137331,137531,0.1
Sprite,Foreground,Centre,"sb\px.png",564,187 R,0,137553,,0.204 C,0,137553,,209,209,201 V,0,137553,,2,620 P,0,137553,,A F,2,137553,138197,0.1
Sprite,Foreground,Centre,"sb\px.png",555,188 R,0,137553,,0.157 C,0,137553,,209,209,201 V,0,137553,,2,620 P,0,137553,,A F,2,137553,138197,0.1
Sprite,Foreground,Centre,"sb\px.png",501,386 R,0,138444,,0.137 C,0,138444,,209,209,201 V,0,138444,,2,620 P,0,138444,,A F,2,138444,139091,0.1
Sprite,Foreground,Centre,"sb\px.png",479,398 R,0,138444,,0.238 C,0,138444,,209,209,201 V,0,138444,,2,620 P,0,138444,,A F,2,138444,139091,0.1
Sprite,Foreground,Centre,"sb\px.png",339,312 R,0,139340,,0.144 C,0,139340,,209,209,201 V,0,139340,,2,620 P,0,139340,,A F,2,139340,139994,0.1
Sprite,Foreground,Centre,"sb\px.png",348,286 R,0,139340,,0.28 C,0,139340,,209,209,201 V,0,139340,,2,620 P,0,139340,,A F,2,139340,139994,0.1
Sprite,Foreground,Centre,"sb\px.png",186,302 R,0,140014,,0.129 C,0,140014,,209,209,201 V,0,140014,,2,620 P,0,140014,,A F,2,140014,140214,0.1
Sprite,Foreground,Centre,"sb\px.png",169,318 R,0,140014,,0.29 C,0,140014,,209,209,201 V,0,140014,,2,620 P,0,140014,,A F,2,140014,140214,0.1
Sprite,Foreground,Centre,"sb\px.png",130,147 R,0,140682,,0.235 C,0,140682,,209,209,201 V,0,140682,,2,620 P,0,140682,,A F,2,140682,141329,0.1
Sprite,Foreground,Centre,"sb\px.png",133,149 R,0,140682,,0.223 C,0,140682,,209,209,201 V,0,140682,,2,620 P,0,140682,,A F,2,140682,141329,0.1
Sprite,Foreground,Centre,"sb\px.png",259,160 R,0,141353,,0.27 C,0,141353,,209,209,201 V,0,141353,,2,620 P,0,141353,,A F,2,141353,141553,0.1
Sprite,Foreground,Centre,"sb\px.png",260,158 R,0,141353,,0.24 C,0,141353,,209,209,201 V,0,141353,,2,620 P,0,141353,,A F,2,141353,141553,0.1
Sprite,Foreground,Centre,"sb\px.png",418,87 R,0,142025,,0.177 C,0,142025,,209,209,201 V,0,142025,,2,620 P,0,142025,,A F,2,142025,142225,0.1
Sprite,Foreground,Centre,"sb\px.png",405,66 R,0,142025,,0.201 C,0,142025,,209,209,201 V,0,142025,,2,620 P,0,142025,,A F,2,142025,142225,0.1
Sprite,Foreground,Centre,"sb\px.png",469,153 R,0,142486,,0.156 C,0,142486,,209,209,201 V,0,142486,,2,620 P,0,142486,,A F,2,142486,143019,0.1
Sprite,Foreground,Centre,"sb\px.png",468,177 R,0,142486,,0.222 C,0,142486,,209,209,201 V,0,142486,,2,620 P,0,142486,,A F,2,142486,143019,0.1
Sprite,Foreground,Centre,"sb\px.png",251,107 R,0,135756,,-0.747 C,0,135756,,209,209,201 V,0,135756,,2,620 P,0,135756,,A F,2,135756,135956,0.1
Sprite,Foreground,Centre,"sb\px.png",246,89 R,0,135756,,-0.789 C,0,135756,,209,209,201 V,0,135756,,2,620 P,0,135756,,A F,2,135756,135956,0.1
Sprite,Foreground,Centre,"sb\px.png",355,144 R,0,136207,,-0.705 C,0,136207,,209,209,201 V,0,136207,,2,620 P,0,136207,,A F,2,136207,136407,0.1
Sprite,Foreground,Centre,"sb\px.png",336,139 R,0,136207,,-0.807 C,0,136207,,209,209,201 V,0,136207,,2,620 P,0,136207,,A F,2,136207,136407,0.1
Sprite,Foreground,Centre,"sb\px.png",432,77 R,0,136658,,-0.704 C,0,136658,,209,209,201 V,0,136658,,2,620 P,0,136658,,A F,2,136658,137309,0.1
Sprite,Foreground,Centre,"sb\px.png",414,88 R,0,136658,,-0.701 C,0,136658,,209,209,201 V,0,136658,,2,620 P,0,136658,,A F,2,136658,137309,0.1
Sprite,Foreground,Centre,"sb\px.png",558,134 R,0,137331,,-0.737 C,0,137331,,209,209,201 V,0,137331,,2,620 P,0,137331,,A F,2,137331,137531,0.1
Sprite,Foreground,Centre,"sb\px.png",563,154 R,0,137331,,-0.894 C,0,137331,,209,209,201 V,0,137331,,2,620 P,0,137331,,A F,2,137331,137531,0.1
Sprite,Foreground,Centre,"sb\px.png",556,194 R,0,137553,,-0.714 C,0,137553,,209,209,201 V,0,137553,,2,620 P,0,137553,,A F,2,137553,138197,0.1
Sprite,Foreground,Centre,"sb\px.png",556,195 R,0,137553,,-0.884 C,0,137553,,209,209,201 V,0,137553,,2,620 P,0,137553,,A F,2,137553,138197,0.1
Sprite,Foreground,Centre,"sb\px.png",482,393 R,0,138444,,-0.841 C,0,138444,,209,209,201 V,0,138444,,2,620 P,0,138444,,A F,2,138444,139091,0.1
Sprite,Foreground,Centre,"sb\px.png",506,399 R,0,138444,,-0.748 C,0,138444,,209,209,201 V,0,138444,,2,620 P,0,138444,,A F,2,138444,139091,0.1
Sprite,Foreground,Centre,"sb\px.png",321,296 R,0,139340,,-0.832 C,0,139340,,209,209,201 V,0,139340,,2,620 P,0,139340,,A F,2,139340,139994,0.1
Sprite,Foreground,Centre,"sb\px.png",349,300 R,0,139340,,-0.757 C,0,139340,,209,209,201 V,0,139340,,2,620 P,0,139340,,A F,2,139340,139994,0.1
Sprite,Foreground,Centre,"sb\px.png",169,308 R,0,140014,,-0.719 C,0,140014,,209,209,201 V,0,140014,,2,620 P,0,140014,,A F,2,140014,140214,0.1
Sprite,Foreground,Centre,"sb\px.png",189,310 R,0,140014,,-0.809 C,0,140014,,209,209,201 V,0,140014,,2,620 P,0,140014,,A F,2,140014,140214,0.1
Sprite,Foreground,Centre,"sb\px.png",120,149 R,0,140682,,-0.818 C,0,140682,,209,209,201 V,0,140682,,2,620 P,0,140682,,A F,2,140682,141329,0.1
Sprite,Foreground,Centre,"sb\px.png",137,161 R,0,140682,,-0.803 C,0,140682,,209,209,201 V,0,140682,,2,620 P,0,140682,,A F,2,140682,141329,0.1
Sprite,Foreground,Centre,"sb\px.png",264,176 R,0,141353,,-0.735 C,0,141353,,209,209,201 V,0,141353,,2,620 P,0,141353,,A F,2,141353,141553,0.1
Sprite,Foreground,Centre,"sb\px.png",281,175 R,0,141353,,-0.765 C,0,141353,,209,209,201 V,0,141353,,2,620 P,0,141353,,A F,2,141353,141553,0.1
Sprite,Foreground,Centre,"sb\px.png",408,64 R,0,142025,,-0.721 C,0,142025,,209,209,201 V,0,142025,,2,620 P,0,142025,,A F,2,142025,142225,0.1
Sprite,Foreground,Centre,"sb\px.png",416,60 R,0,142025,,-0.733 C,0,142025,,209,209,201 V,0,142025,,2,620 P,0,142025,,A F,2,142025,142225,0.1
Sprite,Foreground,Centre,"sb\px.png",459,171 R,0,142486,,-0.735 C,0,142486,,209,209,201 V,0,142486,,2,620 P,0,142486,,A F,2,142486,143019,0.1
Sprite,Foreground,Centre,"sb\px.png",460,181 R,0,142486,,-0.804 C,0,142486,,209,209,201 V,0,142486,,2,620 P,0,142486,,A F,2,142486,143019,0.1
//Storyboard Layer 4 (Overlay)
//Storyboard Sound Samples

[TimingPoints]
3,447.761194029851,4,2,1,70,1,8
3,-100,4,2,1,70,0,8
562,491.803278688525,4,2,1,70,1,0
562,-100,4,2,1,70,0,0
685,458.015267175573,4,2,1,70,1,8
685,-100,4,2,1,70,0,8
914,434.782608695652,4,2,1,70,1,8
914,-100,4,2,1,70,0,8
1348,419.58041958042,4,2,1,70,1,8
1348,-100,4,2,1,70,0,8
1767,441.176470588235,4,2,1,70,1,8
1767,-100,4,2,1,70,0,8
2208,571.428571428571,4,2,1,70,1,8
2208,-100,4,2,1,70,0,8
2350,437.956204379562,4,2,1,70,1,0
2350,-100,4,2,1,70,0,0
2422,-100,4,2,1,60,0,0
2495,-100,4,2,1,50,0,0
2568,-100,4,2,1,60,0,0
2641,-100,4,2,1,70,0,0
3006,454.545454545455,4,2,1,70,1,8
3006,-100,4,2,1,70,0,8
3460,540.540540540541,4,2,1,70,1,8
3460,-100,4,2,1,70,0,8
3595,425.531914893617,4,2,1,70,1,8
3595,-100,4,2,1,70,0,8
4020,458.015267175573,4,2,1,70,1,8
4020,-100,4,2,1,70,0,8
4134,458.015267175573,4,2,1,70,1,0
4134,-100,4,2,1,70,0,0
4363,437.956204379562,4,2,5,50,1,8
4363,-100,4,2,5,50,0,8
4800,458.015267175573,4,2,5,50,1,8
4800,-100,4,2,5,50,0,8
5258,468.75,4,2,5,50,1,8
5258,-100,4,2,5,50,0,8
5609,447.761194029851,4,2,5,50,1,8
5609,-100,4,2,5,50,0,8
5832,408.163265306122,4,2,5,50,1,8
5832,-100,4,2,5,50,0,8
5934,408.163265306122,4,2,5,50,1,0
5934,-100,4,2,5,50,0,0
6138,454.545454545455,4,2,5,50,1,8
6138,-100,4,2,5,50,0,8
7615,441.176470588235,4,2,5,50,1,8
7615,-100,4,2,5,50,0,8
7725,441.176470588235,4,2,5,50,1,0
7725,-100,4,2,5,50,0,0
7945,447.761194029851,4,2,5,50,1,8
7945,-100,4,2,5,50,0,8
9512,447.761194029851,4,2,5,50,1,0
9512,-100,4,2,5,50,0,0
10631,487.80487804878,4,2,5,50,1,8
10631,-100,4,2,5,50,0,8
10996,402.684563758389,4,2,5,50,1,8
10996,-100,4,2,5,50,0,8
11298,454.545454545455,4,2,1,70,1,0
11298,-100,4,2,1,70,0,0
11752,447.761194029851,4,2,1,70,1,8
11752,-100,4,2,1,70,0,8
12647,437.956204379562,4,2,1,70,1,8
12647,-100,4,2,1,70,0,8
13084,458.015267175573,4,2,1,70,1,0
13084,-100,4,2,1,70,0,0
13542,434.782608695652,4,2,1,70,1,8
13542,-100,4,2,1,70,0,8
13976,447.761194029851,4,2,1,70,1,8
13976,-100,4,2,1,70,0,8
14423,437.956204379562,4,2,1,70,1,8
14423,-100,4,2,1,70,0,8
14860,461.538461538462,4,2,1,70,1,0
14860,-100,4,2,1,70,0,0
15321,447.761194029851,4,2,1,70,1,8
15321,-100,4,2,1,70,0,8
15992,431.654676258993,4,2,1,70,1,8
15992,-100,4,2,1,70,0,8
16207,447.761194029851,4,2,1,70,1,8
16207,-100,4,2,1,70,0,8
16654,447.761194029851,4,2,1,70,1,0
16654,-100,4,2,1,70,0,0
17102,437.956204379562,4,2,1,70,1,8
17102,-100,4,2,1,70,0,8
17539,465.116279069767,4,2,1,70,1,8
17539,-100,4,2,1,70,0,8
18004,447.761194029851,4,2,1,70,1,8
18004,-100,4,2,1,70,0,8
18451,447.761194029851,4,2,1,70,1,0
18451,-100,4,2,1,70,0,0
20242,441.176470588235,4,2,1,70,1,0
20242,-100,4,2,1,70,0,0
21124,458.015267175573,4,2,1,70,1,8
21124,-100,4,2,1,70,0,8
21582,447.761194029851,4,2,1,70,1,8
21582,-100,4,2,1,70,0,8
22029,447.761194029851,4,2,1,70,1,0
22029,-100,4,2,1,70,0,0
22476,454.545454545455,4,2,1,70,1,8
22476,-100,4,2,1,70,0,8
23385,447.761194029851,4,2,1,70,1,8
23385,-100,4,2,1,70,0,8
23608,416.666666666667,4,2,1,70,1,8
23608,-100,4,2,1,70,0,8
23816,458.015267175573,4,2,1,70,1,0
23816,-100,4,2,1,70,0,0
24274,444.444444444444,4,2,1,70,1,8
24274,-100,4,2,1,70,0,8
25162,476.190476190476,4,2,1,70,1,8
25162,-100,4,2,1,70,0,8
25400,413.793103448276,4,2,1,70,1,8
25400,-100,4,2,1,70,0,8
25606,447.761194029851,4,2,1,70,1,0
25606,-100,4,2,1,70,0,0
26501,461.538461538462,4,2,1,70,1,8
26501,-100,4,2,1,70,0,8
26962,447.761194029851,4,2,1,70,1,8
26962,-100,4,2,1,70,0,8
27409,447.761194029851,4,2,1,70,1,0
27409,-100,4,2,1,70,0,0
32334,441.176470588235,4,2,1,70,1,8
32334,-100,4,2,1,70,0,8
32775,447.761194029851,4,2,1,70,1,0
32775,-100,4,2,1,70,0,0
33222,454.545454545455,4,2,1,70,1,8
33222,-100,4,2,1,70,0,8
34131,446.096654275093,4,2,1,70,1,8
34131,-100,4,2,1,70,0,8
34577,446.096654275093,4,2,1,70,1,0
34577,-100,4,2,1,70,0,0
35023,447.761194029851,4,2,1,70,1,8
35023,-100,4,2,1,70,0,8
36366,444.444444444444,4,2,1,70,1,0
36366,-100,4,2,1,70,0,0
37254,451.127819548872,4,2,1,70,1,8
37254,-100,4,2,1,70,0,8
38156,446.096654275093,4,2,1,70,1,0
38156,-100,4,2,1,70,0,0
39048,447.761194029851,4,2,1,70,1,8
39048,-100,4,2,1,70,0,8
39719,416.666666666667,4,2,1,70,1,8
39719,-100,4,2,1,70,0,8
39927,454.545454545455,4,2,1,70,1,0
39927,-100,4,2,1,70,0,0
40836,447.761194029851,4,2,1,70,1,8
40836,-100,4,2,1,70,0,8
41731,451.127819548872,4,2,1,70,1,0
41731,-100,4,2,1,70,0,0
43535,447.761194029851,4,2,1,70,1,0
43535,-100,4,2,1,70,0,0
45102,425.531914893617,4,2,1,70,1,8
45102,-100,4,2,1,70,0,8
45314,458.015267175573,4,2,1,70,1,0
45314,-100,4,2,1,70,0,0
45772,441.176470588235,4,2,1,70,1,8
45772,-100,4,2,1,70,0,8
46654,447.761194029851,4,2,1,70,1,8
46654,-100,4,2,1,70,0,8
46877,416.666666666667,4,2,1,70,1,8
46877,-100,4,2,1,70,0,8
47085,451.127819548872,4,2,1,70,1,0
47085,-100,4,2,1,70,0,0
47987,458.015267175573,4,2,1,70,1,8
47987,-100,4,2,1,70,0,8
48445,447.761194029851,4,2,1,70,1,8
48445,-100,4,2,1,70,0,8
48892,454.545454545455,4,2,1,70,1,0
48892,-99.009900990099,4,2,1,70,0,0
49346,447.761194029851,4,2,1,70,1,8
49346,-100,4,2,1,70,0,8
50241,442.80442804428,4,2,1,70,1,8
50241,-100,4,2,1,70,0,8
50683,454.545454545455,4,2,1,70,1,0
50683,-100,4,2,1,70,0,0
51137,447.761194029851,4,2,1,70,1,8
51137,-100,4,2,1,70,0,8
52480,444.444444444444,4,2,1,70,1,0
52480,-100,4,2,1,70,0,0
53813,451.127819548872,4,2,1,70,1,8
53813,-100,4,2,1,70,0,8
54264,447.761194029851,4,2,1,70,1,0
54264,-100,4,2,1,70,0,0
56055,480,4,2,1,70,1,0
56055,-100,4,2,1,70,0,0
56295,447.761194029851,4,2,1,70,1,8
56295,-100,4,2,1,70,0,8
56742,441.176470588235,4,2,1,70,1,8
56742,-100,4,2,1,70,0,8
56962,-101.522842639594,4,2,1,70,0,8
57183,447.761194029851,4,2,1,70,1,8
57183,-100,4,2,1,70,0,8
57854,458.015267175573,4,2,1,70,1,0
57854,-100,4,2,1,70,0,0
58312,437.956204379562,4,2,1,70,1,8
58312,-100,4,2,1,70,0,8
58749,447.761194029851,4,2,1,70,1,8
58749,-100,4,2,1,70,0,8
59644,454.545454545455,4,2,1,70,1,0
59644,-100,4,2,1,70,0,0
60098,447.761194029851,4,2,1,70,1,8
60098,-100,4,2,1,70,0,8
60993,454.545454545455,4,2,1,70,1,8
60993,-100,4,2,1,70,0,8
61447,447.761194029851,4,2,5,50,1,0
61447,-100,4,2,5,50,0,0
63238,465.116279069767,4,2,5,50,1,0
63238,-100,4,2,5,50,0,0
63703,447.761194029851,4,2,5,50,1,8
63703,-100,4,2,5,50,0,8
64150,431.654676258993,4,2,5,50,1,8
64150,-100,4,2,5,50,0,8
64581,447.761194029851,4,2,5,50,1,8
64581,-100,4,2,5,50,0,8
65028,447.761194029851,4,2,5,50,1,0
65028,-100,4,2,5,50,0,0
68386,441.176470588235,4,2,5,50,1,8
68386,-100,4,2,5,50,0,8
68606,447.761194029851,4,2,5,60,1,0
68606,-100,4,2,5,60,0,0
71964,480,4,2,5,60,1,8
71964,-100,4,2,5,60,0,8
72204,425.531914893617,4,2,5,60,1,0
72204,-100,4,2,5,60,0,0
72629,444.444444444444,4,2,5,60,1,8
72629,-100,4,2,5,60,0,8
73517,447.761194029851,4,2,5,60,1,8
73517,-100,4,2,5,60,0,8
73964,447.427293064877,4,2,5,50,1,0
73964,-100,4,2,5,50,0,0
74415,491.803278688525,4,2,5,55,1,8
74415,-100,4,2,5,55,0,8
74660,447.761194029851,4,2,5,55,1,8
74660,-100,4,2,5,55,0,8
75107,461.538461538462,4,2,5,60,1,8
75107,-100,4,2,5,60,0,8
75337,491.803278688525,4,2,5,70,1,8
75337,-100,4,2,5,70,0,8
75582,397.350993377483,4,2,5,70,1,8
75582,-100,4,2,5,70,0,8
75780,444.444444444444,4,2,1,70,1,0
75780,-100,4,2,1,70,0,0
76668,447.761194029851,4,2,1,70,1,8
76668,-100,4,2,1,70,0,8
77563,447.761194029851,4,2,1,70,1,0
77563,-100,4,2,1,70,0,0
79354,444.444444444444,4,2,1,70,1,0
79354,-100,4,2,1,70,0,0
79798,447.761194029851,4,2,1,70,1,8
79798,-100,4,2,1,70,0,8
80917,434.782608695652,4,2,1,70,1,8
80917,-100,4,2,1,70,0,8
81134,446.096654275093,4,2,1,70,1,0
81134,-100,4,2,1,70,0,0
82472,454.545454545455,4,2,1,70,1,8
82472,-100,4,2,1,70,0,8
82926,447.761194029851,4,2,1,70,1,0
82926,-100,4,2,1,70,0,0
86284,437.956204379562,4,2,1,70,1,8
86284,-100,4,2,1,70,0,8
86502,447.761194029851,4,2,1,70,1,0
86502,-100,4,2,1,70,0,0
87397,451.127819548872,4,2,1,70,1,8
87397,-100,4,2,1,70,0,8
87848,-96.1538461538461,4,2,1,70,0,8
88073,419.58041958042,4,2,1,70,1,8
88073,-100,4,2,1,70,0,8
88282,465.116279069767,4,2,1,70,1,0
88282,-100,4,2,1,70,0,0
88747,437.956204379562,4,2,1,70,1,8
88747,-100,4,2,1,70,0,8
89184,447.761194029851,4,2,1,70,1,8
89184,-100,4,2,1,70,0,8
90079,461.538461538462,4,2,1,70,1,0
90079,-100,4,2,1,70,0,0
90540,446.096654275093,4,2,1,70,1,8
90540,-100,4,2,1,70,0,8
91432,454.545454545455,4,2,1,70,1,8
91432,-100,4,2,1,70,0,8
91886,454.545454545455,4,2,1,70,1,0
91886,-100,4,2,1,70,0,0
92341,446.096654275093,4,2,1,70,1,8
92341,-100,4,2,1,70,0,8
93233,431.654676258993,4,2,1,70,1,8
93233,-100,4,2,1,70,0,8
93664,447.761194029851,4,2,1,70,1,0
93664,-100,4,2,1,70,0,0
94111,454.545454545455,4,2,1,70,1,8
94111,-100,4,2,1,70,0,8
95020,447.761194029851,4,2,1,70,1,8
95020,-100,4,2,1,70,0,8
95243,425.531914893617,4,2,1,70,1,8
95243,-100,4,2,1,70,0,8
95455,465.116279069767,4,2,1,70,1,0
95455,-100,4,2,1,70,0,0
95920,444.444444444444,4,2,1,70,1,8
95920,-100,4,2,1,70,0,8
97253,447.761194029851,4,2,1,70,1,0
97253,-100,4,2,1,70,0,0
99044,458.015267175573,4,2,1,70,1,0
99044,-100,4,2,1,70,0,0
99502,447.761194029851,4,2,1,70,1,8
99502,-100,4,2,1,70,0,8
100621,434.782608695652,4,2,1,70,1,8
100621,-100,4,2,1,70,0,8
100838,447.761194029851,4,2,1,70,1,0
100838,-100,4,2,1,70,0,0
102181,437.956204379562,4,2,1,70,1,8
102181,-100,4,2,1,70,0,8
102618,458.015267175573,4,2,1,70,1,0
102618,-100,4,2,1,70,0,0
103076,447.761194029851,4,2,1,70,1,8
103076,-100,4,2,1,70,0,8
104419,447.761194029851,4,2,1,70,1,0
104419,-100,4,2,1,70,0,0
105986,437.956204379562,4,2,1,70,1,8
105986,-100,4,2,1,70,0,8
106204,447.761194029851,4,2,1,70,1,0
106204,-100,4,2,1,70,0,0
107099,458.015267175573,4,2,1,70,1,8
107099,-100,4,2,1,70,0,8
107557,437.956204379562,4,2,1,70,1,8
107557,-100,4,2,1,70,0,8
107994,465.116279069767,4,2,1,70,1,0
107994,-100,4,2,1,70,0,0
108459,444.444444444444,4,2,1,70,1,8
108459,-100,4,2,1,70,0,8
109792,447.761194029851,4,2,1,70,1,0
109792,-100,4,2,1,70,0,0
111135,491.803278688525,4,2,1,70,1,8
111135,-100,4,2,1,70,0,8
111380,352.941176470588,4,2,1,70,1,8
111380,-100,4,2,1,70,0,8
111556,491.803278688525,4,2,1,60,1,0
111556,-100,4,2,1,60,0,0
111924,387.096774193548,4,2,1,60,1,8
111924,-100,4,2,1,60,0,8
112020,461.538461538462,4,2,1,60,1,8
112020,-100,4,2,1,60,0,8
112250,-100,4,2,1,40,0,8
112327,-100,4,2,1,50,0,8
112404,-100,4,2,1,60,0,8
112481,447.761194029851,4,2,1,70,1,8
112481,-100,4,2,1,70,0,8
112816,431.654676258993,4,2,1,70,1,8
112816,-100,4,2,1,70,0,8
113031,461.538461538462,4,2,1,70,1,8
113031,-100,4,2,1,70,0,8
113492,428.571428571429,4,2,1,70,1,8
113492,-100,4,2,1,70,0,8
113706,480,4,2,1,70,1,8
113706,-100,4,2,1,70,0,8
113946,444.444444444444,4,2,1,70,1,8
113946,-100,4,2,1,70,0,8
114279,461.538461538462,4,2,1,70,1,0
114279,-100,4,2,1,70,0,0
114740,447.761194029851,4,2,5,70,1,8
114740,-100,4,2,5,70,0,8
115187,444.444444444444,4,2,5,70,1,8
115187,-100,4,2,5,70,0,8
116075,444.444444444444,4,2,5,70,1,0
116075,-100,4,2,5,70,0,0
118297,447.761194029851,4,2,5,70,1,8
118297,-100,4,2,5,70,0,8
119640,444.444444444444,4,2,5,70,1,0
119640,-100,4,2,5,70,0,0
120528,447.761194029851,4,2,5,70,1,8
120528,-100,4,2,5,70,0,8
121423,447.761194029851,4,2,5,70,1,0
121423,-100,4,2,5,70,0,0
122766,454.545454545455,4,2,5,70,1,8
122766,-100,4,2,5,70,0,8
123220,451.127819548872,4,2,5,70,1,0
123220,-100,4,2,5,70,0,0
124573,444.444444444444,4,2,5,70,1,8
124573,-100,4,2,5,70,0,8
125017,444.444444444444,4,2,5,70,1,0
125017,-100,4,2,5,70,0,0
125905,454.545454545455,4,2,5,70,1,8
125905,-100,4,2,5,70,0,8
126814,444.444444444444,4,2,5,70,1,0
126814,-100,4,2,5,70,0,0
127702,447.761194029851,4,2,5,70,1,8
127702,-100,4,2,5,70,0,8
127925,491.803278688525,4,2,5,70,1,8
127925,-100,4,2,5,70,0,8
128170,359.281437125748,4,2,1,70,1,8
128170,-100,4,2,1,70,0,8
128349,468.75,4,2,1,70,1,8
128349,-100,4,2,1,70,0,8
128583,451.127819548872,4,2,1,70,1,1
128583,-100,4,2,1,70,0,1
129034,458.015267175573,4,2,1,70,1,9
129034,-100,4,2,1,70,0,9
129492,-94.3396226415094,4,2,1,70,0,9
129721,431.654676258993,4,2,1,70,1,9
129721,-96.1538461538461,4,2,1,70,0,9
130152,465.116279069767,4,2,1,70,1,9
130152,-100,4,2,1,70,0,9
130384,447.761194029851,4,2,1,70,1,1
130384,-100,4,2,1,70,0,1
132175,454.545454545455,4,2,1,70,1,1
132175,-100,4,2,1,70,0,1
133084,447.761194029851,4,2,1,70,1,9
133084,-100,4,2,1,70,0,9
133979,441.176470588235,4,2,1,70,1,1
133979,-100,4,2,1,70,0,1
134861,447.761194029851,4,2,1,70,1,9
134861,-100,4,2,1,70,0,9
135756,451.127819548872,4,2,1,70,1,1
135756,-100,4,2,1,70,0,1
137109,444.444444444444,4,2,1,70,1,9
137109,-100,4,2,1,70,0,9
137553,444.444444444444,4,2,1,70,1,1
137553,-100,4,2,1,70,0,1
137997,447.761194029851,4,2,1,70,1,9
137997,-100,4,2,1,70,0,9
139340,454.545454545455,4,2,1,70,1,1
139340,-100,4,2,1,70,0,1
139794,441.176470588235,4,2,1,70,1,9
139794,-100,4,2,1,70,0,9
140235,447.761194029851,4,2,1,70,1,9
140235,-100,4,2,1,70,0,9
141130,447.761194029851,4,2,1,70,1,1
141130,-100,4,2,1,70,0,1
142025,461.538461538462,4,2,1,70,1,9
142025,-100,4,2,1,70,0,9
142486,444.444444444444,4,2,1,70,1,9
142486,-100,4,2,1,70,0,9
142819,468.75,4,2,5,70,1,9
142819,-100,4,2,5,70,0,9
142936,468.75,4,2,5,70,1,0
142936,-100,4,2,5,70,0,0
143170,447.761194029851,4,2,5,50,1,8
143170,-100,4,2,5,50,0,8
143617,454.545454545455,4,2,5,50,1,8
143617,-100,4,2,5,50,0,8
144750,447.761194029851,4,2,5,50,1,0
144750,-100,4,2,5,50,0,0
144974,447.761194029851,4,2,5,50,1,8
144974,-100,4,2,5,50,0,8
146541,441.176470588235,4,2,5,70,1,0
146541,-100,4,2,5,70,0,0
146982,454.545454545455,4,2,5,70,1,8
146982,-100,4,2,5,70,0,8
147891,447.761194029851,4,2,5,70,1,8
147891,-100,4,2,5,70,0,8
148338,458.015267175573,4,2,5,70,1,0
148338,-100,4,2,5,70,0,0
148796,441.176470588235,4,2,5,70,1,8
148796,-100,4,2,5,70,0,8
149237,447.761194029851,4,2,5,70,1,8
149237,-100,4,2,5,70,0,8
149684,425.531914893617,4,2,5,70,1,8
149684,-100,4,2,5,70,0,8
150109,468.75,4,2,1,70,1,0
150109,-100,4,2,1,70,0,0
150460,480,4,2,1,70,1,8
150460,-100,4,2,1,70,0,8
150700,410.958904109589,4,2,1,70,1,8
150700,-100,4,2,1,70,0,8
150905,535.714285714286,4,2,1,70,1,8
150905,-100,4,2,1,70,0,8
151038,437.956204379562,4,2,1,70,1,8
151038,-100,4,2,1,70,0,8
151475,461.538461538462,4,2,1,70,1,8
151475,-100,4,2,1,70,0,8
151705,397.350993377483,4,2,1,70,1,8
151705,-100,4,2,1,70,0,8
151903,361.44578313253,4,2,1,60,1,0
151903,-100,4,2,1,60,0,0
152083,292.682926829268,4,2,1,50,1,8
152083,-100,4,2,1,50,0,8
152229,259.74025974026,4,2,1,55,1,8
152229,-100,4,2,1,55,0,8
152358,402.684563758389,4,2,1,70,1,8
152358,-100,4,2,1,70,0,8
152559,447.761194029851,4,2,1,70,1,8
152559,-100,4,2,1,70,0,8

[Colours]
Combo1 : 113,128,126
Combo2 : 122,175,180
Combo3 : 220,208,105

[HitObjects]
256,192,562,12,6,3006,1:2:0:0:
464,350,11298,6,0,L|477:246,1,100,0|0,1:0|1:0,0:0:0:0:
444,145,12199,2,0,P|402:100|357:109,1,100,2|2,1:2|1:2,0:0:0:0:
283,165,13084,2,0,P|235:176|171:157,1,100,2|2,1:2|1:2,0:0:0:0:
108,89,13976,2,0,L|88:200,1,100,2|2,1:2|1:2,0:0:0:0:
73,290,14860,5,0,1:0:0:0:
162,358,15321,2,0,L|216:344,1,50,2|2,1:2|0:0,0:0:0:0:
262,327,15768,1,2,1:2:0:0:
363,292,16207,2,0,P|365:242|335:191,1,100,2|2,1:2|1:2,0:0:0:0:
353,86,17102,2,0,P|323:73|292:77,1,50,2|2,1:2|0:0,0:0:0:0:
261,99,17539,2,0,B|158:86,1,100,2|14,1:2|1:2,0:0:0:0:
60,44,18451,6,0,P|35:145|98:217,1,200,6|2,1:2|1:2,0:0:0:0:
201,214,19794,1,10,1:2:0:0:
266,304,20242,2,0,L|366:281,1,100,2|10,1:2|1:2,0:0:0:0:
450,221,21124,2,0,L|438:167,1,50,2|2,1:2|0:0,0:0:0:0:
422,118,21582,1,10,1:2:0:0:
338,46,22029,6,0,P|288:32|227:49,1,100,0|10,1:0|1:2,0:0:0:0:
159,114,22930,1,0,1:0:0:0:
234,196,23385,2,0,L|228:260,1,50,8|2,1:2|0:0,0:0:0:0:
223,295,23816,2,0,L|119:280,1,100,2|10,1:2|1:2,0:0:0:0:
83,243,24496,1,2,0:0:0:0:
66,190,24718,2,0,L|74:90,1,100,2|8,1:2|1:2,0:0:0:0:
92,29,25400,1,8,0:3:0:0:
139,12,25606,5,4,1:2:0:0:
240,47,26053,6,0,L|261:162,1,100,10|2,1:2|1:2,0:0:0:0:
279,256,26962,1,8,1:2:0:0:
357,178,27409,2,0,P|413:167|468:190,1,100,2|10,1:2|1:2,0:0:0:0:
487,284,28304,2,0,P|451:319|404:333,1,100,0|8,1:0|1:2,0:0:0:0:
297,357,29200,5,0,1:0:0:0:
208,293,29647,2,0,L|227:173,1,100,10|2,1:2|1:2,0:0:0:0:
288,104,30543,1,8,1:2:0:0:
391,140,30991,2,0,L|498:122,1,100,2|10,1:2|1:2,0:0:0:0:
467,15,31886,2,0,L|363:32,1,100,0|8,1:0|1:2,0:0:0:0:
288,104,32775,5,0,1:0:0:0:
198,43,33222,2,0,P|161:24|94:32,1,100,10|2,1:2|1:2,0:0:0:0:
32,113,34131,1,8,1:2:0:0:
119,179,34577,2,0,L|104:287,1,100,2|10,1:2|1:2,0:0:0:0:
187,352,35470,2,0,P|238:367|291:348,1,100,0|8,1:0|1:2,0:0:0:0:
381,305,36366,5,2,1:2:0:0:
385,88,37254,1,2,1:2:0:0:
169,30,38156,5,2,1:2:0:0:
90,106,38602,1,10,1:2:0:0:
16,187,39048,2,0,L|26:293,1,100,2|10,1:2|1:2,0:0:0:0:
67,328,39719,1,8,0:3:0:0:
111,352,39927,6,0,P|164:365|221:337,1,100,6|10,1:2|1:2,0:0:0:0:
273,261,40836,2,0,P|326:249|383:276,1,100,0|10,1:0|1:2,0:0:0:0:
436,348,41731,1,0,1:0:0:0:
496,256,42182,1,10,1:2:0:0:
443,159,42633,2,0,P|426:113|452:49,1,100,0|8,1:0|1:2,0:0:0:0:
331,37,43535,6,0,L|223:51,1,100,0|10,1:0|1:2,0:0:0:0:
122,64,44430,1,0,1:0:0:0:
52,149,44878,2,0,L|63:217,1,50,10|2,1:2|0:0,0:0:0:0:
70,248,45314,1,0,1:0:0:0:
155,323,45772,2,0,L|263:308,1,100,10|0,1:2|1:0,0:0:0:0:
298,277,46433,1,6,0:3:0:0:
350,290,46654,2,0,L|408:293,1,50,10|2,1:2|0:0,0:0:0:0:
450,294,47085,6,0,P|470:242|452:183,1,100,6|10,1:2|1:2,0:0:0:0:
387,121,47987,2,0,L|270:131,1,100,0|8,1:0|1:2,0:0:0:0:
232,131,48668,1,2,0:0:0:0:
177,138,48892,2,0,L|181:287,1,100.999997996521,2|8,1:2|1:2,0:0:0:0:
178,348,49793,1,0,1:0:0:0:
68,357,50241,1,10,1:2:0:0:
26,258,50683,6,0,L|41:150,1,100,2|8,1:2|1:2,0:0:0:0:
56,106,51360,1,2,0:0:0:0:
93,65,51584,2,0,P|144:53|206:71,1,100,0|8,1:0|1:2,0:0:0:0:
236,163,52480,1,0,1:0:0:0:
320,234,52924,2,0,L|427:212,2,100,10|2|10,1:2|1:2|1:2,0:0:0:0:
231,301,54264,6,0,B|136:348|136:253|41:301,1,200,2|2,1:2|1:2,0:0:0:0:
40,191,55607,2,0,L|54:123,1,50,8|0,1:2|0:0,0:0:0:0:
62,92,56055,1,0,1:0:0:0:
149,19,56518,1,8,1:2:0:0:
229,92,56962,1,2,1:2:0:0:
224,200,57406,1,10,1:2:0:0:
415,77,58312,5,10,1:2:0:0:
495,149,58749,2,0,L|473:249,1,100,2|10,1:2|1:2,0:0:0:0:
392,319,59644,2,0,P|364:315|339:303,1,50,2|2,1:2|0:0,0:0:0:0:
313,259,60098,1,10,1:2:0:0:
259,164,60545,2,0,L|266:54,1,100,2|8,1:2|1:2,0:0:0:0:
164,15,61447,5,0,0:0:0:0:
77,27,75780,6,0,P|97:74|81:130,1,100,6|10,1:2|1:2,0:0:0:0:
53,164,76446,1,2,0:0:0:0:
25,211,76668,2,0,L|48:318,1,100,2|10,1:2|1:2,0:0:0:0:
141,363,77563,2,0,P|187:340|247:354,1,100,2|10,1:2|1:2,0:0:0:0:
288,352,78234,1,2,0:0:0:0:
342,344,78458,2,0,L|462:350,1,100,0|10,1:0|1:2,0:0:0:0:
505,258,79354,5,0,1:0:0:0:
462,157,79798,1,10,1:2:0:0:
413,58,80245,2,0,P|370:41|308:45,1,100,2|10,1:2|1:2,0:0:0:0:
273,79,80917,1,2,0:0:0:0:
253,129,81134,6,0,L|271:232,1,100,2|8,1:2|1:2,0:0:0:0:
183,295,82026,1,2,1:2:0:0:
90,350,82472,2,0,L|41:343,1,50,10|0,1:2|0:0,0:0:0:0:
8,297,82926,5,2,1:2:0:0:
42,195,83373,2,0,P|48:133|25:94,1,100,10|2,1:2|1:2,0:0:0:0:
108,21,84269,2,0,L|158:17,1,50,8|2,1:2|0:0,0:0:0:0:
204,47,84717,2,0,L|304:42,1,100,2|10,1:2|1:2,0:0:0:0:
350,72,85388,1,2,0:0:0:0:
381,117,85612,2,0,L|370:240,1,100,2|10,1:2|1:2,0:0:0:0:
361,324,86502,5,0,1:0:0:0:
263,273,86949,2,0,L|152:284,1,100,10|2,1:2|1:2,0:0:0:0:
113,179,87848,2,0,L|123:79,1,100,8|0,1:2|1:0,0:0:0:0:
167,47,88514,1,2,0:0:0:0:
222,29,88747,2,0,P|271:26|320:46,1,100,10|2,1:2|1:2,0:0:0:0:
424,67,89631,1,8,1:2:0:0:
423,175,90079,6,0,L|431:279,1,100,6|10,1:2|1:2,0:0:0:0:
341,339,90986,2,0,P|292:351|237:332,1,100,2|10,1:2|1:2,0:0:0:0:
221,287,91659,1,0,0:0:0:0:
205,234,91886,2,0,L|231:127,1,100,0|10,1:0|1:2,0:0:0:0:
338,123,92787,2,0,L|321:24,1,100,0|8,1:0|1:2,0:0:0:0:
427,24,93664,5,2,1:2:0:0:
506,97,94111,2,0,L|491:167,1,50,10|2,1:2|0:0,0:0:0:0:
458,186,94565,2,0,P|439:239|445:290,1,100,2|10,1:2|1:2,0:0:0:0:
472,331,95243,1,2,0:0:0:0:
440,369,95455,2,0,L|324:350,1,100,2|10,1:2|1:2,0:0:0:0:
263,274,96364,2,0,L|158:288,1,100,0|8,1:0|1:2,0:0:0:0:
77,353,97253,5,2,1:2:0:0:
18,260,97700,1,10,1:2:0:0:
70,163,98148,2,0,L|54:48,1,100,2|10,1:2|1:2,0:0:0:0:
88,18,98820,1,2,0:0:0:0:
139,35,99044,2,0,P|193:53|262:30,1,100,2|10,1:2|1:2,0:0:0:0:
339,15,99949,1,0,1:0:0:0:
427,80,100397,1,8,1:2:0:0:
361,166,100838,6,0,L|366:274,1,100,2|10,1:2|1:2,0:0:0:0:
255,265,101733,2,0,L|252:156,1,100,2|10,1:2|1:2,0:0:0:0:
210,68,102618,5,2,1:2:0:0:
100,43,103076,1,10,1:2:0:0:
64,147,103523,1,2,1:2:0:0:
102,250,103971,1,8,1:2:0:0:
101,360,104419,6,0,P|156:365|207:345,1,100,6|10,1:2|1:2,0:0:0:0:
258,259,105314,2,0,P|308:248|357:261,1,100,0|10,1:0|1:2,0:0:0:0:
420,346,106204,1,0,1:0:0:0:
495,265,106651,1,10,1:2:0:0:
436,174,107099,2,0,L|424:68,1,100,0|8,1:0|1:2,0:0:0:0:
325,46,107994,6,0,P|281:32|210:57,1,100,0|10,1:0|1:2,0:0:0:0:
119,40,108903,2,0,L|144:146,1,100,0|10,1:0|1:2,0:0:0:0:
110,241,109792,1,0,1:0:0:0:
188,318,110239,1,10,1:2:0:0:
282,260,110687,2,0,L|406:273,1,100,0|8,1:0|1:2,0:0:0:0:
256,192,111556,12,4,114279,1:2:0:0:
256,192,125905,12,2,127258,0:0:0:0:
46,334,128583,6,0,P|31:283|41:227,1,100,2|2,1:2|1:2,0:0:0:0:
80,205,129263,1,8,1:2:0:0:
128,174,129492,2,0,L|117:65,1,102.99999913559,0|2,1:2|1:2,0:0:0:0:
209,16,130384,1,2,1:2:0:0:
299,77,130831,2,0,L|361:70,1,50,2|8,1:2|1:2,0:0:0:0:
403,65,131279,2,0,P|428:110|422:171,1,100,2|0,1:2|1:0,0:0:0:0:
393,201,131951,1,10,1:2:0:0:
347,230,132175,6,0,L|364:341,1,100,2|2,1:2|1:2,0:0:0:0:
254,297,133084,2,0,L|153:285,1,100,2|2,1:2|1:2,0:0:0:0:
47,317,133979,2,0,B|24:242|24:242|47:206|47:206|24:118,1,200,2|2,1:2|1:2,0:0:0:0:
77,32,135308,2,0,L|135:37,1,50,2|10,1:2|1:2,0:0:0:0:
181,42,135756,5,6,1:2:0:0:
279,90,136207,1,2,1:2:0:0:
365,22,136658,2,0,L|466:36,1,100,0|2,1:0|1:2,0:0:0:0:
489,84,137331,1,10,1:2:0:0:
487,138,137553,2,0,L|462:251,1,100,2|2,1:2|1:2,0:0:0:0:
428,339,138444,2,0,P|376:350|319:323,1,100,0|0,1:0|1:0,0:0:0:0:
272,244,139340,6,0,B|167:253,1,100,14|2,1:2|1:2,0:0:0:0:
117,259,140014,1,14,1:2:0:0:
67,102,140682,6,0,P|123:80|188:94,1,100,14|0,1:2|1:0,0:0:0:0:
210,109,141353,1,14,1:2:0:0:
341,17,142025,5,14,1:2:0:0:
405,111,142486,2,0,L|394:200,1,75,0|6,1:0|1:3,0:0:0:0:
79,143,146541,6,0,P|132:122|188:139,1,100,4|8,1:2|1:2,0:0:0:0:
240,216,147436,2,0,P|293:237|349:220,1,100,0|8,1:0|1:2,0:0:0:0:
440,214,148338,2,0,L|415:329,1,100,0|8,1:0|1:2,0:0:0:0:
321,358,149237,2,0,P|265:366|208:343,1,100,0|8,1:0|1:2,0:0:0:0:
184,262,150109,5,4,1:3:0:0:
256,192,150460,12,6,152559,1:2:0:0:
