osu file format v14

[General]
AudioFilename: audio.mp3
AudioLeadIn: 0
PreviewTime: 39214
Countdown: 0
SampleSet: None
StackLeniency: 0.7
Mode: 2
LetterboxInBreaks: 0
WidescreenStoryboard: 1

[Editor]
DistanceSpacing: 1.1
BeatDivisor: 4
GridSize: 4
TimelineZoom: 1.2

[Metadata]
Title:LOST IN PARADISE feat. AKLO (TV Size)
TitleUnicode:LOST IN PARADISE feat. AKLO (TV Size)
Artist:ALI
ArtistUnicode:ALI
Creator:rew0825
Version:Salad
Source:呪術廻戦
Tags:Alien Liberty International Jujutsu Kaisen Sorcery Fight anime ed ending japanese english jazz male vocal Syadow-
BeatmapID:2949128
BeatmapSetID:1284215

[Difficulty]
HPDrainRate:3
CircleSize:3
OverallDifficulty:6.8
ApproachRate:6.8
SliderMultiplier:1.78
SliderTickRate:2

[Events]
//Background and Video events
Video,0,"video.mp4"
0,0,"BG Salad.jpg",0,0
//Break Periods
//Storyboard Layer 0 (Background)
//Storyboard Layer 1 (Fail)
//Storyboard Layer 2 (Pass)
//Storyboard Layer 3 (Foreground)
//Storyboard Layer 4 (Overlay)
//Storyboard Sound Samples

[TimingPoints]
478,491.803278688525,4,2,1,75,1,0
478,-33.3583208395802,4,2,1,75,0,0
2445,-33.3583208395802,4,2,2,65,0,0
2691,-33.3583208395802,4,2,1,75,0,0
3428,-33.3583208395802,4,2,2,65,0,0
3674,-33.3583208395802,4,2,1,75,0,0
8346,-33.3583208395802,4,2,1,65,0,0
9330,-33.3583208395802,4,2,2,55,0,0
9576,-33.3583208395802,4,2,1,65,0,0
11789,-33.3583208395802,4,2,3,55,0,0
12035,-33.3583208395802,4,2,1,65,0,0
24084,-33.3583208395802,4,2,1,70,0,0
26051,-33.3583208395802,4,2,2,60,0,0
26297,-33.3583208395802,4,2,1,70,0,0
29986,-33.3583208395802,4,2,4,60,0,0
30232,-33.3583208395802,4,2,1,70,0,0
33920,-33.3583208395802,4,2,2,60,0,0
34166,-33.3583208395802,4,2,1,70,0,0
39822,-33.3583208395802,4,2,1,75,0,1
39945,-33.3583208395802,4,2,1,75,0,0
55559,-33.3583208395802,4,2,1,80,0,1
55682,-33.3583208395802,4,2,1,80,0,0
57527,-33.3583208395802,4,2,2,70,0,0
57773,-33.3583208395802,4,2,1,80,0,0
61461,-33.3583208395802,4,2,2,70,0,0
61707,-33.3583208395802,4,2,1,80,0,0
65396,-33.3583208395802,4,2,2,70,0,0
65642,-33.3583208395802,4,2,1,80,0,0
69330,-33.3583208395802,4,2,2,70,0,0
69576,-33.3583208395802,4,2,1,80,0,0
71297,-33.3583208395802,4,2,1,85,0,1
87035,-33.3583208395802,4,2,1,75,0,0
87773,-33.3583208395802,4,2,1,25,0,0

[Colours]
Combo1 : 194,180,143
Combo2 : 70,192,209
Combo3 : 255,222,53
Combo4 : 237,84,86

[HitObjects]
308,192,478,5,2,1:3:0:0:
204,192,723,1,2,0:3:0:0:
308,192,969,2,0,B|343:249|343:249|361:313|361:313|376:378|376:378|395:314|395:314|395:257|395:257|427:210|427:210|441:155|441:155|459:61|459:61,1,533.6,8|0,0:0|1:2,0:0:0:0:
260,104,1953,1,8,0:0:0:0:
148,104,2199,6,0,B|140:170|140:170|112:231|112:231|101:297|101:297|85:362|85:362|75:306|75:306|96:253|96:253|125:204|125:204|148:111|148:111,1,533.6,2|2,0:3|0:3,0:0:0:0:
252,184,2937,1,8,0:0:0:0:
356,184,3182,2,0,B|371:249|371:249|416:298|416:298|428:364|428:364|440:298|440:298|439:241|439:241|455:186|455:186|483:136|483:136|480:40|480:40,1,533.6,2|2,0:3|0:3,0:0:0:0:
380,184,3920,1,8,0:0:0:0:
32,184,4412,6,0,B|45:249|45:249|21:311|21:311|49:372|49:372|62:306|62:306|93:258|93:258|100:202|100:202|116:147|116:147|144:55|144:55,1,533.6,4|8,1:2|0:0,0:0:0:0:
248,256,5150,1,2,0:3:0:0:
144,256,5396,2,0,B|109:313|109:313|115:379|115:379|98:315|98:315|63:259|63:259|39:207|39:207|29:151|29:151|45:96|45:96|55:1|55:1,1,533.6,0|8,1:2|0:0,0:0:0:0:
152,156,6133,1,2,0:3:0:0:
376,160,6379,5,2,1:3:0:0:
424,160,6502,1,2,0:3:0:0:
328,160,6748,1,2,0:3:0:0:
330,64,6994,1,2,0:3:0:0:
438,60,7240,1,2,0:3:0:0:
328,104,7609,5,2,0:2:0:0:
312,144,7732,1,2,0:2:0:0:
344,184,7855,1,8,0:0:0:0:
448,184,8100,1,2,0:2:0:0:
224,184,8346,5,6,1:2:0:0:
128,184,8592,1,2,0:2:0:0:
224,184,8838,1,8,0:0:0:0:
328,184,9084,2,0,B|356:245|356:245|371:310|371:310|367:377|367:377|391:315|391:315|382:259|382:259|363:205|363:205|342:152|342:152|328:57|328:57,1,533.6,2|2,0:2|0:2,0:0:0:0:
224,104,9822,2,0,L|188:148|188:148|171:202|171:202|150:255|150:255|135:350|135:350,1,266.8,8|2,0:0|0:2,0:0:0:0:
248,104,10314,6,0,L|241:160|241:160|267:210|267:210|248:264|248:264|256:360|256:360,1,266.8,2|2,1:2|0:2,0:0:0:0:
152,192,10805,1,10,0:0:0:0:
256,192,11051,1,2,0:2:0:0:
304,192,11174,1,2,0:2:0:0:
160,192,11543,2,0,B|150:258|150:258|131:322|131:322|77:362|77:362|75:295|75:295|45:247|45:247|47:190|47:190|51:133|51:133|40:38|40:38,1,533.6,2|2,0:2|0:0,0:0:0:0:
264,112,12281,5,2,1:2:0:0:
360,112,12527,1,2,0:2:0:0:
264,112,12773,1,10,0:0:0:0:
160,112,13018,1,2,0:0:0:0:
264,112,13264,6,0,L|264:169|264:169|275:225|275:225|267:281|267:281|268:377|268:377,1,266.8,2|2,1:2|0:2,0:0:0:0:
160,200,13756,1,10,0:0:0:0:
112,208,13879,1,2,0:2:0:0:
88,248,14002,1,2,0:2:0:0:
312,248,14248,6,0,L|331:302|331:302|330:359|330:359|309:306|309:306|320:211|320:211,1,266.8,2|2,1:2|0:0,0:0:0:0:
220,160,14740,1,10,0:0:0:0:
212,112,14863,1,2,0:0:0:0:
360,104,15232,2,0,L|373:159|373:159|381:215|381:215|366:270|366:270|364:366|364:366,1,266.8,2|2,1:2|0:0,0:0:0:0:
464,104,15723,1,10,0:0:0:0:
416,104,15846,1,2,0:0:0:0:
148,104,16215,6,0,L|156:160|156:160|137:214|137:214|144:270|144:270|141:366|141:366,1,266.8,2|2,1:2|0:0,0:0:0:0:
244,192,16707,2,0,L|228:247|228:247|262:293|262:293|241:346|241:346|248:250|248:250,1,266.8,10|2,0:0|0:0,0:0:0:0:
140,280,17199,1,2,1:2:0:0:
264,280,17568,1,2,0:0:0:0:
268,232,17691,1,10,0:0:0:0:
164,232,17937,5,2,0:0:0:0:
160,184,18059,1,2,0:0:0:0:
264,184,18305,1,2,0:0:0:0:
312,184,18428,1,2,0:0:0:0:
208,184,18674,2,0,L|170:226|170:226|160:282|160:282|141:336|141:336|119:243|119:243,1,266.8,8|2,0:0|0:0,0:0:0:0:
224,184,19166,6,0,B|242:248|242:248|260:312|260:312|266:378|266:378|288:315|288:315|286:258|286:258|282:201|282:201|252:153|252:153|226:61|226:61,1,533.6,2|10,1:2|0:0,0:0:0:0:
120,264,19904,1,0,0:0:0:0:
344,264,20150,5,2,1:2:0:0:
448,264,20396,1,2,0:0:0:0:
344,264,20641,1,8,0:0:0:0:
192,264,21010,1,2,0:0:0:0:
144,264,21133,1,2,1:2:0:0:
248,264,21379,1,2,0:0:0:0:
144,264,21625,1,10,0:0:0:0:
64,184,21871,1,0,0:0:0:0:
288,184,22117,6,0,L|281:240|281:240|287:297|287:297|302:352|302:352|296:256|296:256,1,266.8,2|0,1:1|0:0,0:0:0:0:
192,96,22609,2,0,L|199:152|199:152|182:206|182:206|173:262|173:262|184:358|184:358,1,266.799989570807,10|0,0:1|0:0,0:0:0:0:
288,184,23100,1,2,1:2:0:0:
184,184,23346,1,10,0:0:0:0:
80,184,23592,2,0,L|71:240|71:240|65:297|65:297|73:353|73:353|72:257|72:257,1,266.8,2|0,1:1|0:0,0:0:0:0:
296,272,24084,6,0,B|335:326|335:326|355:262|355:262|358:195|358:195|380:132|380:132|399:78|399:78|400:21|400:21|410:77|410:77|408:173|408:173,1,533.6,6|10,1:2|0:0,0:0:0:0:
192,192,25068,2,0,B|153:246|153:246|165:312|165:312|123:364|123:364|129:298|129:298|126:241|126:241|133:185|133:185|169:141|169:141|192:48|192:48,1,533.6,2|10,1:2|0:0,0:0:0:0:
304,112,25805,6,0,B|332:173|332:173|347:238|347:238|356:304|356:304|367:370|367:370|355:314|355:314|341:259|341:259|342:202|342:202|304:114|304:114,1,533.6,2|2,0:0|0:0,0:0:0:0:
200,192,26543,1,8,0:0:0:0:
304,192,26789,2,0,L|302:249|302:249|295:306|295:306|313:360|313:360|312:264|312:264,1,266.8,2|0,0:3|1:2,0:0:0:0:
208,280,27281,1,2,0:3:0:0:
312,280,27527,2,0,L|330:334|330:334|362:381|362:381|366:324|366:324|401:235|401:235,1,266.8,10|2,0:0|0:3,0:0:0:0:
176,280,28018,6,0,B|136:333|136:333|135:266|135:266|111:204|111:204|92:140|92:140|92:83|92:83|69:31|69:31|46:83|46:83|64:177|64:177,1,533.6,2|10,1:2|0:0,0:0:0:0:
264,192,29002,1,2,1:2:0:0:
360,192,29248,1,2,0:0:0:0:
264,192,29494,1,10,0:0:0:0:
152,192,29740,6,0,B|118:250|118:250|98:314|98:314|95:381|95:381|89:315|89:315|101:259|101:259|89:203|89:203|133:167|133:167|152:73|152:73,1,533.6,2|2,0:0|0:0,0:0:0:0:
256,112,30478,1,10,0:1:0:0:
360,112,30723,1,0,0:0:0:0:
256,112,30969,2,0,L|264:168|264:168|249:223|249:223|262:278|262:278|248:373|248:373,1,266.8,2|2,1:2|0:0,0:0:0:0:
352,200,31461,2,0,L|338:255|338:255|366:304|366:304|357:360|357:360|360:264|360:264,1,266.8,10|2,0:1|0:0,0:0:0:0:
136,288,31953,6,0,B|126:354|126:354|98:293|98:293|85:228|85:228|73:162|73:162|81:106|81:106|92:50|92:50|91:107|91:107|136:192|136:192,1,533.6,0|10,1:2|0:0,0:0:0:0:
336,208,32937,2,0,B|336:275|336:275|345:341|345:341|334:275|334:275|306:214|306:214|292:159|292:159|268:108|268:108|270:51|270:51|224:135|224:135,1,533.6,0|10,1:2|0:0,0:0:0:0:
104,136,33674,6,0,L|126:199|126:199|136:265|136:265|173:321|173:321|193:385|193:385|220:335|220:335|241:282|241:282|263:229|263:229|282:135|282:135,1,533.6,2|2,0:0|0:0,0:0:0:0:
392,136,34412,1,8,0:0:0:0:
288,136,34658,2,0,L|251:179|251:179|240:235|240:235|212:285|212:285|199:380|199:380,1,266.8,2|0,0:3|1:2,0:0:0:0:
304,136,35150,2,0,L|319:191|319:191|307:247|307:247|295:303|295:303|300:207|300:207,1,266.8,2|8,0:3|0:0,0:0:0:0:
196,224,35641,1,2,0:3:0:0:
416,224,35887,6,0,B|426:290|426:290|471:340|471:340|487:275|487:275|480:209|480:209|473:152|473:152|478:95|478:95|443:50|443:50|418:143|418:143,1,533.6,2|10,1:2|0:0,0:0:0:0:
224,144,36871,1,2,1:2:0:0:
128,144,37117,1,2,0:0:0:0:
224,144,37363,1,8,0:0:0:0:
448,144,37609,5,12,0:0:0:0:
256,144,38100,1,8,0:0:0:0:
152,144,38346,1,8,0:0:0:0:
256,144,38592,1,8,0:0:0:0:
360,144,38838,1,8,0:0:0:0:
352,240,39084,1,0,1:2:0:0:
128,240,39330,2,0,L|113:295|113:295|134:348|134:348|129:291|129:291|120:195|120:195,1,266.8,12|0,0:0|0:0,0:0:0:0:
344,328,39822,6,0,B|356:262|356:262|375:198|375:198|386:132|386:132|392:66|392:66|377:11|377:11|373:68|373:68|355:122|355:122|320:211|320:211,1,533.6,6|12,1:2|0:3,0:0:0:0:
108,248,40805,2,0,B|67:301|67:301|69:368|69:368|50:304|50:304|45:237|45:237|64:183|64:183|43:130|43:130|74:82|74:82|108:172|108:172,1,533.6,2|10,1:2|0:0,0:0:0:0:
456,168,41789,6,0,L|461:225|461:225|451:281|451:281|461:337|461:337|464:241|464:241,1,266.8,2|2,1:2|0:0,0:0:0:0:
360,256,42281,1,10,0:0:0:0:
464,256,42527,1,2,0:0:0:0:
352,256,42773,2,0,L|335:310|335:310|360:361|360:361|362:304|362:304|344:210|344:210,1,266.8,2|2,1:2|0:0,0:0:0:0:
448,168,43264,2,0,L|456:224|456:224|468:280|468:280|456:336|456:336|456:240|456:240,1,266.8,10|0,0:0|0:0,0:0:0:0:
232,80,43756,5,2,1:2:0:0:
136,80,44002,1,2,0:3:0:0:
276,80,44371,1,2,0:3:0:0:
136,80,44740,1,2,1:3:0:0:
40,80,44986,1,2,0:3:0:0:
136,80,45232,1,10,0:0:0:0:
416,80,45600,6,0,B|432:145|432:145|451:209|451:209|459:275|459:275|452:341|452:341|416:213|416:213,1,400.2,2|2,0:3|0:3,0:0:0:0:
316,168,46215,1,10,0:0:0:0:
268,168,46338,1,2,0:3:0:0:
132,164,46707,1,2,1:3:0:0:
152,212,46830,1,2,0:3:0:0:
196,228,46953,1,2,0:0:0:0:
304,228,47199,2,0,L|325:281|325:281|328:338|328:338|373:373|373:373|393:279|393:279,1,266.8,10|2,0:0|0:3,0:0:0:0:
168,228,47691,6,0,B|146:291|146:291|137:357|137:357|108:297|108:297|105:230|105:230|112:173|112:173|138:122|138:122|131:65|131:65|166:154|166:154,1,533.6,4|12,1:2|0:3,0:0:0:0:
380,316,48674,2,0,B|397:380|397:380|424:319|424:319|459:262|459:262|456:195|456:195|474:141|474:141|457:87|457:87|469:31|469:31|448:125|448:125,1,533.6,2|10,1:2|0:0,0:0:0:0:
92,228,49658,6,0,L|74:282|74:282|75:339|75:339|93:285|93:285|84:189|84:189,1,266.8,2|2,1:2|0:0,0:0:0:0:
184,140,50150,2,0,L|204:193|204:193|204:250|204:250|175:299|175:299|191:204|191:204,1,266.8,10|2,0:0|0:0,0:0:0:0:
84,228,50641,1,2,1:2:0:0:
183,228,50887,1,2,0:0:0:0:
84,228,51133,2,0,L|82:285|82:285|78:342|78:342|83:285|83:285|80:189|80:189,1,266.8,10|0,0:0|0:0,0:0:0:0:
304,316,51625,5,2,1:2:0:0:
400,316,51871,1,2,0:3:0:0:
260,316,52240,1,2,0:3:0:0:
400,316,52609,1,2,1:3:0:0:
496,316,52855,1,2,0:0:0:0:
400,316,53100,1,10,0:0:0:0:
44,316,53592,6,0,L|56:382|56:382|43:317|43:317|33:251|33:251|42:185|42:185|45:128|45:128|57:72|57:72|30:22|30:22|40:117|40:117,1,533.6,2|10,1:2|0:0,0:0:0:0:
144,136,54330,1,2,0:0:0:0:
364,136,54576,1,0,1:2:0:0:
460,136,54822,1,8,0:0:0:0:
464,40,55068,1,8,0:2:0:0:
108,40,55559,6,0,B|118:106|118:106|81:162|81:162|95:227|95:227|116:290|116:290|131:345|131:345|136:288|136:288|165:239|165:239|198:149|198:149,1,533.6,6|10,1:2|0:0,0:0:0:0:
408,136,56543,1,2,1:2:0:0:
304,136,56789,1,2,0:0:0:0:
200,136,57035,1,10,0:0:0:0:
424,136,57281,6,0,B|445:199|445:199|479:257|479:257|479:324|479:324|488:258|488:258|490:201|490:201|491:144|491:144|455:100|455:100|426:9|426:9,1,533.6,2|2,0:0|0:3,0:0:0:0:
320,216,58018,1,8,0:0:0:0:
324,272,58141,1,2,0:3:0:0:
428,272,58387,1,2,0:3:0:0:
284,272,58756,1,0,0:0:0:0:
380,272,59002,1,8,0:0:0:0:
476,272,59248,1,2,0:3:0:0:
256,272,59494,6,0,L|238:336|238:336|230:270|230:270|203:209|203:209|167:153|167:153|149:99|149:99|134:44|134:44|122:100|122:100|78:185|78:185,1,533.6,6|10,1:2|0:0,0:0:0:0:
296,272,60478,1,2,1:2:0:0:
400,272,60723,1,2,0:0:0:0:
296,272,60969,1,10,0:0:0:0:
72,272,61215,6,0,B|59:337|59:337|40:273|40:273|35:206|35:206|24:140|24:140|43:86|43:86|40:29|40:29|42:86|42:86|88:170|88:170,1,533.6,2|2,0:0|0:3,0:0:0:0:
200,160,61953,2,0,B|231:219|231:219|249:283|249:283|248:350|248:350|284:294|284:294|282:237|282:237|289:180|289:180|329:139|329:139|313:44|313:44,1,533.6,8|2,0:0|1:2,0:0:0:0:
208,48,62691,1,2,0:3:0:0:
312,48,62937,2,0,L|329:102|329:102|303:153|303:153|305:210|305:210|319:305|319:305,1,266.8,10|2,0:3|0:0,0:0:0:0:
96,136,63428,6,0,B|59:192|59:192|62:259|62:259|56:325|56:325|40:260|40:260|32:204|32:204|57:153|57:153|73:98|73:98|104:7|104:7,1,533.6,6|8,1:2|0:0,0:0:0:0:
320,232,64412,1,2,1:2:0:0:
424,232,64658,1,2,0:0:0:0:
320,232,64904,1,10,0:0:0:0:
96,232,65150,6,0,B|84:298|84:298|51:356|51:356|55:289|55:289|69:224|69:224|64:167|64:167|110:134|110:134|113:77|113:77|145:168|145:168,1,533.6,2|2,0:0|0:3,0:0:0:0:
248,128,65887,1,8,0:0:0:0:
244,72,66010,1,2,0:3:0:0:
140,72,66256,1,2,0:3:0:0:
284,72,66625,1,2,0:3:0:0:
188,72,66871,1,8,0:0:0:0:
92,72,67117,1,2,0:3:0:0:
312,72,67363,6,0,B|349:128|349:128|366:192|366:192|388:255|388:255|396:321|396:321|407:377|407:377|429:325|429:325|408:272|408:272|424:177|424:177,1,533.6,6|10,1:2|0:0,0:0:0:0:
208,160,68346,1,2,1:2:0:0:
104,160,68592,1,2,0:0:0:0:
208,160,68838,1,10,0:0:0:0:
432,160,69084,6,0,B|445:226|445:226|480:283|480:283|467:348|467:348|484:283|484:283|488:226|488:226|479:170|479:170|460:116|460:116|419:29|419:29,1,533.6,2|0,0:3|0:0,0:0:0:0:
312,264,69822,2,0,L|308:321|308:321|316:377|316:377|289:327|289:327|305:232|305:232,1,266.8,10|0,0:3|0:0,0:0:0:0:
408,176,70314,5,0,1:2:0:0:
304,176,70559,1,8,0:0:0:0:
416,176,70805,1,2,1:3:0:0:
448,136,70928,1,10,0:3:0:0:
416,96,71051,1,8,0:0:0:0:
192,96,71297,6,0,B|164:157|164:157|135:217|135:217|132:284|132:284|134:351|134:351|154:298|154:298|138:243|138:243|159:190|159:190|198:102|198:102,1,533.6,6|10,1:2|0:0,0:0:0:0:
408,192,72281,1,2,1:2:0:0:
304,192,72527,1,2,0:0:0:0:
408,192,72773,2,0,L|427:246|427:246|407:299|407:299|412:356|412:356|416:260|416:260,1,266.8,10|0,0:3|0:0,0:0:0:0:
192,280,73264,5,2,1:3:0:0:
88,280,73510,1,2,0:0:0:0:
192,280,73756,2,0,L|206:345|206:345|250:295|250:295|262:229|262:229|281:165|281:165|293:109|293:109|330:66|330:66|331:9|331:9|370:97|370:97,1,533.6,10|2,0:0|1:3,0:0:0:0:
264,280,74494,1,2,0:0:0:0:
160,280,74740,2,0,L|159:337|159:337|157:280|157:280|161:223|161:223|152:127|152:127,1,266.8,10|0,0:0|0:0,0:0:0:0:
376,192,75232,5,2,1:2:0:0:
480,192,75478,1,2,0:0:0:0:
376,192,75723,1,10,0:0:0:0:
176,192,76215,2,0,L|196:245|196:245|199:302|199:302|216:356|216:356|265:273|265:273,1,266.8,2|2,1:3|0:0,0:0:0:0:
372,192,76707,2,0,L|368:249|368:249|351:303|351:303|303:334|303:334|283:240|283:240,1,266.8,10|0,0:3|0:0,0:0:0:0:
64,192,77199,6,0,B|39:254|39:254|54:319|54:319|32:382|32:382|37:316|37:316|66:267|66:267|59:210|59:210|79:157|79:157|113:67|113:67,1,533.6,2|10,1:3|0:0,0:0:0:0:
224,88,77937,1,0,0:0:0:0:
328,88,78182,6,0,L|313:143|313:143|320:199|320:199|331:255|331:255|336:351|336:351,1,266.8,2|2,1:2|0:0,0:0:0:0:
232,176,78674,1,10,0:3:0:0:
184,184,78797,1,2,0:3:0:0:
152,224,78920,1,2,0:3:0:0:
376,232,79166,6,0,B|390:297|390:297|422:355|422:355|428:289|428:289|432:222|432:222|446:167|446:167|436:111|436:111|399:68|399:68|370:160|370:160,1,533.6,4|10,1:2|0:0,0:0:0:0:
160,128,80150,1,2,1:3:0:0:
264,128,80396,1,2,0:0:0:0:
160,128,80641,2,0,L|158:185|158:185|147:241|147:241|172:292|172:292|153:198|153:198,1,266.8,10|0,0:0|0:0,0:0:0:0:
376,224,81133,5,2,1:3:0:0:
480,224,81379,1,2,0:0:0:0:
376,224,81625,2,0,L|356:288|356:288|336:352|336:352|307:292|307:292|287:228|287:228|257:180|257:180|253:123|253:123|242:67|242:67|198:152|198:152,1,533.6,10|2,0:0|1:3,0:0:0:0:
304,224,82363,1,2,0:3:0:0:
408,224,82609,2,0,L|401:280|401:280|409:336|409:336|416:279|416:279|415:183|415:183,1,266.8,10|0,0:0|0:0,0:0:0:0:
192,136,83100,6,0,B|176:201|176:201|137:255|137:255|136:322|136:322|107:382|107:382|105:325|105:325|83:272|83:272|61:219|61:219|71:124|71:124,1,533.6,2|10,1:3|0:0,0:0:0:0:
288,224,84084,1,2,1:3:0:0:
184,224,84330,1,2,0:0:0:0:
80,224,84576,2,0,L|73:281|73:281|86:337|86:337|69:283|69:283|72:187|72:187,1,266.8,10|0,0:0|0:0,0:0:0:0:
296,312,85068,5,2,1:2:0:0:
392,312,85314,1,0,0:0:0:0:
288,312,85559,1,10,0:3:0:0:
192,312,85805,1,0,0:0:0:0:
416,312,86051,5,2,1:3:0:0:
464,296,86174,1,8,0:0:0:0:
480,248,86297,1,8,0:0:0:0:
456,208,86420,1,10,0:3:0:0:
408,200,86543,1,2,1:3:0:0:
292,200,86789,1,10,0:3:0:0:
68,200,87035,6,0,B|48:264|48:264|55:330|55:330|27:270|27:270|28:203|28:203|17:137|17:137|50:79|50:79|69:15|69:15|79:81|79:81|115:125|115:125|129:180|129:180|127:237|127:237|161:327|161:327,1,800.4,4|0,1:2|0:0,0:0:0:0:
