osu file format v14

[General]
AudioFilename: audio.mp3
AudioLeadIn: 0
PreviewTime: 39214
Countdown: 0
SampleSet: None
StackLeniency: 0.7
Mode: 2
LetterboxInBreaks: 0
WidescreenStoryboard: 1

[Editor]
DistanceSpacing: 3
BeatDivisor: 4
GridSize: 4
TimelineZoom: 1.1

[Metadata]
Title:LOST IN PARADISE feat. AKLO (TV Size)
TitleUnicode:LOST IN PARADISE feat. AKLO (TV Size)
Artist:ALI
ArtistUnicode:ALI
Creator:rew0825
Version:Rain
Source:呪術廻戦
Tags:Alien Liberty International Jujutsu Kaisen Sorcery Fight anime ed ending japanese english jazz male vocal Syadow-
BeatmapID:2949127
BeatmapSetID:1284215

[Difficulty]
HPDrainRate:5
CircleSize:4
OverallDifficulty:8.8
ApproachRate:8.8
SliderMultiplier:2.44
SliderTickRate:2

[Events]
//Background and Video events
Video,0,"video.mp4"
0,0,"BG Rain.jpg",0,0
//Break Periods
//Storyboard Layer 0 (Background)
//Storyboard Layer 1 (Fail)
//Storyboard Layer 2 (Pass)
//Storyboard Layer 3 (Foreground)
//Storyboard Layer 4 (Overlay)
//Storyboard Sound Samples

[TimingPoints]
478,491.803278688525,4,2,1,75,1,0
478,-39.8172323759791,4,2,1,75,0,0
8346,-39.8172323759791,4,2,1,65,0,0
24084,-39.8172323759791,4,2,1,70,0,0
26051,-39.8172323759791,4,2,2,60,0,0
26174,-39.8172323759791,4,2,1,70,0,0
33920,-39.8172323759791,4,2,2,60,0,0
34043,-39.8172323759791,4,2,1,70,0,0
39822,-39.8172323759791,4,2,1,75,0,1
39945,-39.8172323759791,4,2,1,75,0,0
55559,-39.8172323759791,4,2,1,80,0,1
55682,-39.8172323759791,4,2,1,80,0,0
71297,-39.8172323759791,4,2,1,85,0,1
87035,-39.8172323759791,4,2,1,75,0,0
87773,-39.8172323759791,4,2,1,25,0,0

[Colours]
Combo1 : 194,180,143
Combo2 : 70,192,209
Combo3 : 255,222,53
Combo4 : 237,84,86

[HitObjects]
144,264,478,5,2,1:3:0:0:
72,264,600,1,2,0:3:0:0:
144,264,723,1,2,0:3:0:0:
224,264,846,1,2,0:3:0:0:
408,264,969,6,0,L|396:328|396:328|366:270|366:270|332:214|332:214|286:114|286:114,1,306.4,8|0,0:0|0:0,0:0:0:0:
88,264,1461,2,0,L|99:328|99:328|123:267|123:267|165:217|165:217|210:116|210:116,1,306.4,0|0,1:2|0:0,0:0:0:0:
408,264,1953,1,8,0:0:0:0:
104,264,2199,6,0,L|102:329|102:329|115:265|115:265|106:200|106:200|96:90|96:90,1,306.4,2|0,0:3|1:2,0:0:0:0:
296,144,2691,2,0,L|281:208|281:208|247:264|247:264|204:313|204:313|174:207|174:207,1,306.4,2|8,0:3|0:0,0:0:0:0:
368,144,3182,2,0,L|366:209|366:209|379:273|379:273|368:337|368:337|376:227|376:227,1,306.4,2|0,0:3|1:2,0:0:0:0:
192,24,3674,1,2,0:3:0:0:
376,24,3920,2,0,L|420:72|420:72|436:135|436:135|436:200|436:200|496:296|496:296,1,306.399987200428,8|0,0:0|0:0,0:0:0:0:
128,24,4412,6,0,B|81:84|81:84|58:157|58:157|59:234|59:234|45:309|45:309|37:374|37:374|67:316|67:316|80:252|80:252|127:152|127:152,1,612.8,4|8,1:2|0:0,0:0:0:0:
320,160,5150,1,2,0:3:0:0:
128,160,5396,2,0,L|172:222|172:222|192:296|192:296|220:367|220:367|250:297|250:297|290:245|290:245|320:187|320:187|343:126|343:126|372:20|372:20,1,612.8,0|8,1:2|0:0,0:0:0:0:
176,160,6133,1,2,0:3:0:0:
480,160,6379,5,2,1:3:0:0:
400,160,6502,1,2,0:3:0:0:
228,160,6748,1,2,0:3:0:0:
308,160,6871,1,8,0:0:0:0:
388,160,6994,1,2,0:3:0:0:
80,160,7240,2,0,B|46:216|46:216|32:280|32:280|51:343|51:343|80:237|80:237,1,306.4,2|0,0:3|0:0,0:0:0:0:
160,256,7609,5,2,0:2:0:0:
80,256,7732,1,2,0:2:0:0:
200,256,7855,2,0,L|208:103|208:103,1,153.2,8|2,0:0|0:2,0:0:0:0:
88,320,8100,2,0,L|80:167|80:167,1,153.2,2|2,0:2|0:2,0:0:0:0:
328,256,8346,5,6,1:2:0:0:
400,256,8469,1,2,0:2:0:0:
328,256,8592,1,2,0:2:0:0:
208,256,8715,1,2,0:2:0:0:
136,256,8838,1,8,0:0:0:0:
328,256,9084,6,0,L|360:313|360:313|380:375|380:375|387:310|387:310|450:220|450:220,1,306.4,2|0,0:2|1:2,0:0:0:0:
256,256,9576,2,0,L|248:103|248:103,1,153.2,2|2,0:2|0:2,0:0:0:0:
368,192,9822,2,0,B|393:252|393:252|394:317|394:317|385:382|385:382|371:273|371:273,1,306.4,8|2,0:0|0:2,0:0:0:0:
296,96,10191,1,2,0:2:0:0:
112,96,10314,6,0,B|74:149|74:149|64:214|64:214|68:279|68:279|113:379|113:379,1,306.4,2|2,1:2|0:2,0:0:0:0:
184,192,10682,1,2,0:2:0:0:
304,192,10805,1,10,0:0:0:0:
376,192,10928,1,2,0:2:0:0:
304,192,11051,1,2,0:2:0:0:
184,192,11174,1,2,0:2:0:0:
112,192,11297,1,0,1:2:0:0:
304,192,11543,6,0,B|300:257|300:257|312:321|312:321|333:383|333:383|292:281|292:281,1,306.4,2|8,0:2|0:0,0:0:0:0:
96,296,12035,1,2,0:0:0:0:
400,296,12281,5,2,1:2:0:0:
472,296,12404,1,2,0:2:0:0:
400,296,12527,1,2,0:2:0:0:
216,296,12773,1,10,0:0:0:0:
400,296,13018,1,2,0:0:0:0:
208,296,13264,5,2,1:2:0:0:
136,296,13387,1,2,0:2:0:0:
144,224,13510,1,2,0:2:0:0:
216,224,13633,1,2,0:2:0:0:
336,224,13756,1,10,0:0:0:0:
264,224,13879,1,2,0:2:0:0:
144,224,14002,1,2,0:2:0:0:
448,224,14248,5,2,1:2:0:0:
480,160,14371,1,2,0:0:0:0:
448,96,14494,1,2,0:0:0:0:
376,88,14617,1,2,0:0:0:0:
280,88,14740,1,10,0:0:0:0:
184,88,14863,2,0,L|205:150|205:150|247:200|247:200|276:259|276:259|306:365|306:365,1,306.4,2|2,0:0|0:0,0:0:0:0:
432,88,15232,6,0,B|435:153|435:153|470:208|470:208|445:268|445:268|432:377|432:377,1,306.4,2|2,1:2|0:0,0:0:0:0:
360,184,15600,1,2,0:0:0:0:
256,184,15723,1,10,0:0:0:0:
360,184,15846,2,0,L|383:245|383:245|421:298|421:298|437:361|437:361|482:260|482:260,1,306.4,2|2,0:0|0:0,0:0:0:0:
256,184,16215,5,2,1:2:0:0:
184,184,16338,1,2,0:0:0:0:
192,256,16461,1,2,0:0:0:0:
264,256,16584,1,2,0:0:0:0:
384,256,16707,1,10,0:0:0:0:
456,256,16830,1,2,0:0:0:0:
384,256,16953,1,2,0:0:0:0:
184,256,17199,6,0,L|167:319|167:319|132:374|132:374|123:309|123:309|62:217|62:217,1,306.4,2|0,1:2|0:0,0:0:0:0:
136,256,17568,1,2,0:0:0:0:
256,256,17691,2,0,L|297:307|297:307|300:372|300:372|346:326|346:326|378:221|378:221,1,306.4,10|2,0:0|0:0,0:0:0:0:
192,256,18059,6,0,B|190:321|190:321|164:381|164:381|173:316|173:316|193:208|193:208,1,306.4,2|2,0:0|0:0,0:0:0:0:
312,160,18428,2,0,B|325:224|325:224|345:286|345:286|325:348|325:348|313:238|313:238,1,306.4,2|8,0:0|0:0,0:0:0:0:
232,64,18797,1,2,0:0:0:0:
312,64,18920,1,2,0:0:0:0:
416,64,19043,1,2,0:0:0:0:
312,64,19166,6,0,L|302:129|302:129|255:174|255:174|215:226|215:226|190:333|190:333,1,306.4,2|0,1:2|0:0,0:0:0:0:
288,64,19535,1,2,0:0:0:0:
384,64,19658,2,0,B|400:127|400:127|421:189|421:189|439:252|439:252|432:362|432:362,1,306.4,10|0,0:0|0:0,0:0:0:0:
120,136,20150,6,0,L|112:289|112:289,1,153.2,2|2,1:2|0:0,0:0:0:0:
232,200,20396,2,0,L|240:353|240:353,1,153.2,2|2,0:0|0:0,0:0:0:0:
120,136,20641,2,0,B|87:193|87:193|53:249|53:249|63:314|63:314|32:208|32:208,1,306.4,8|0,0:0|0:0,0:0:0:0:
128,200,21010,1,2,0:0:0:0:
224,200,21133,6,0,L|252:259|252:259|285:315|285:315|297:379|297:379|346:280|346:280,1,306.4,2|2,1:2|0:0,0:0:0:0:
248,200,21502,1,2,0:0:0:0:
344,200,21625,2,0,B|356:264|356:264|372:327|372:327|383:263|383:263|344:160|344:160,1,306.4,10|0,0:0|0:0,0:0:0:0:
248,296,21994,1,2,0:0:0:0:
64,296,22117,6,0,B|52:360|52:360|25:300|25:300|20:235|20:235|63:133|63:133,1,306.4,2|0,1:1|0:0,0:0:0:0:
160,200,22486,1,2,0:0:0:0:
256,200,22609,2,0,L|275:263|275:263|296:325|296:325|332:380|332:380|378:280|378:280,1,306.4,10|0,0:1|0:0,0:0:0:0:
280,200,22978,1,10,0:0:0:0:
96,200,23100,5,2,1:2:0:0:
280,200,23346,1,10,0:0:0:0:
96,200,23592,1,2,1:1:0:0:
24,200,23715,1,8,0:0:0:0:
96,200,23838,1,0,0:0:0:0:
464,200,24084,6,0,L|484:262|484:262|483:327|483:327|466:264|466:264|472:154|472:154,1,306.4,6|0,1:2|0:0,0:0:0:0:
272,80,24576,2,0,L|290:143|290:143|330:195|330:195|347:258|347:258|394:358|394:358,1,306.4,10|0,0:0|0:0,0:0:0:0:
200,80,25068,2,0,L|199:145|199:145|180:207|180:207|211:265|211:265|192:374|192:374,1,306.4,2|0,1:2|0:0,0:0:0:0:
384,200,25559,1,10,0:0:0:0:
80,200,25805,6,0,L|100:274|100:274|159:323|159:323|164:247|164:247|202:180|202:180|236:124|236:124|260:63|260:63|280:1|280:1|324:102|324:102,1,612.8,2|2,0:0|0:0,0:0:0:0:
144,200,26543,1,8,0:0:0:0:
328,200,26789,2,0,L|324:265|324:265|345:327|345:327|325:265|325:265|336:155|336:155,1,306.4,2|0,0:3|1:2,0:0:0:0:
152,80,27281,1,2,0:3:0:0:
336,80,27527,2,0,L|351:144|351:144|395:192|395:192|410:256|410:256|458:355|458:355,1,306.4,10|2,0:0|0:3,0:0:0:0:
152,80,28018,6,0,B|110:144|110:144|103:220|103:220|89:295|89:295|98:371|98:371|150:227|150:227,1,459.6,2|2,1:2|0:0,0:0:0:0:
272,184,28510,2,0,B|298:256|298:256|312:331|312:331|359:271|359:271|375:196|375:196|377:43|377:43,1,459.6,10|2,0:0|0:0,0:0:0:0:
256,280,29002,2,0,B|252:345|252:345|238:281|238:281|227:217|227:217|257:111|257:111,1,306.4,2|2,1:2|0:0,0:0:0:0:
456,184,29494,1,10,0:0:0:0:
152,176,29740,5,2,0:0:0:0:
280,176,29986,1,2,1:1:0:0:
152,176,30232,1,2,0:0:0:0:
360,48,30478,2,0,L|345:112|345:112|351:177|351:177|354:242|354:242|368:351|368:351,1,306.4,10|0,0:1|0:0,0:0:0:0:
64,168,30969,2,0,L|63:233|63:233|44:295|44:295|67:356|67:356|56:246|56:246,1,306.4,2|2,1:2|0:0,0:0:0:0:
240,288,31461,1,10,0:1:0:0:
56,288,31707,1,2,0:0:0:0:
424,288,31953,6,0,L|383:339|383:339|384:274|384:274|356:215|356:215|302:119|302:119,1,306.4,0|0,1:2|0:0,0:0:0:0:
104,288,32445,2,0,L|98:353|98:353|112:289|112:289|83:230|83:230|96:121|96:121,1,306.4,10|0,0:0|0:0,0:0:0:0:
296,168,32937,2,0,L|309:232|309:232|299:297|299:297|313:361|313:361|304:251|304:251,1,306.4,0|0,1:2|0:0,0:0:0:0:
112,48,33428,1,10,0:0:0:0:
416,48,33674,6,0,B|435:122|435:122|440:198|440:198|433:274|433:274|408:346|408:346|391:283|391:283|349:233|349:233|334:169|334:169|297:65|297:65,1,612.8,2|2,0:0|0:0,0:0:0:0:
104,168,34412,1,8,0:0:0:0:
408,168,34658,2,0,L|393:232|393:232|367:292|367:292|344:353|344:353|286:259|286:259,1,306.4,2|0,0:3|1:2,0:0:0:0:
88,168,35150,2,0,L|117:227|117:227|137:289|137:289|184:334|184:334|210:227|210:227,1,306.4,2|8,0:3|0:0,0:0:0:0:
408,168,35641,1,2,0:3:0:0:
104,168,35887,6,0,B|75:239|75:239|41:308|41:308|50:384|50:384|59:308|59:308|114:165|114:165,1,459.6,2|2,1:2|0:0,0:0:0:0:
240,272,36379,2,0,B|277:339|277:339|300:266|300:266|309:190|309:190|287:117|287:117|234:261|234:261,1,459.6,10|2,0:0|0:0,0:0:0:0:
112,160,36871,2,0,L|128:223|128:223|145:286|145:286|206:309|206:309|234:202|234:202,1,306.4,2|2,1:2|0:0,0:0:0:0:
40,160,37363,1,8,0:0:0:0:
344,160,37609,6,0,B|379:228|379:228|396:303|396:303|409:379|409:379|426:304|426:304|432:239|432:239|421:175|421:175|377:127|377:127|337:24|337:24,1,612.8,12|8,0:0|0:0,0:0:0:0:
152,272,38346,1,8,0:0:0:0:
336,272,38592,1,8,0:0:0:0:
240,272,38715,1,0,0:0:0:0:
144,272,38838,2,0,L|155:336|155:336|135:274|135:274|126:209|126:209|136:99|136:99,1,306.4,8|0,0:0|1:2,0:0:0:0:
448,152,39330,2,0,L|459:217|459:217|457:282|457:282|443:346|443:346|456:236|456:236,1,306.4,12|0,0:0|0:0,0:0:0:0:
144,32,39822,6,0,B|109:87|109:87|87:148|87:148|74:212|74:212|56:321|56:321,1,306.4,6|0,1:2|0:0,0:0:0:0:
424,104,40314,2,0,L|420:169|420:169|432:233|432:233|435:298|435:298|432:188|432:188,1,306.4,12|0,0:3|0:0,0:0:0:0:
240,224,40805,2,0,L|195:271|195:271|192:336|192:336|162:278|162:278|118:177|118:177,1,306.4,2|0,1:2|0:0,0:0:0:0:
304,272,41297,2,0,L|315:336|315:336|371:370|371:370|365:305|365:305|426:213|426:213,1,306.4,10|0,0:0|0:0,0:0:0:0:
56,272,41789,6,0,L|51:337|51:337|56:272|56:272|43:208|43:208|48:98|48:98,1,306.4,2|2,1:2|0:0,0:0:0:0:
232,152,42281,1,10,0:0:0:0:
48,152,42527,1,2,0:0:0:0:
352,152,42773,1,2,1:2:0:0:
168,152,43018,1,2,0:0:0:0:
352,152,43264,2,0,B|382:223|382:223|397:298|397:298|450:354|450:354|459:278|459:278|472:125|472:125,1,459.6,10|0,0:0|0:0,0:0:0:0:
248,56,43756,5,2,1:2:0:0:
64,56,44002,2,0,B|49:120|49:120|49:185|49:185|39:250|39:250|70:356|70:356,1,306.4,2|8,0:3|0:0,0:0:0:0:
192,144,44371,2,0,L|213:206|213:206|243:264|243:264|271:323|271:323|314:221|314:221,1,306.4,2|0,0:3|0:0,0:0:0:0:
128,144,44740,6,0,L|120:297|120:297,1,153.2,2|0,1:3|0:0,0:0:0:0:
240,208,44986,2,0,L|247:361|247:361,1,153.2,2|2,0:3|0:3,0:0:0:0:
64,144,45232,2,0,B|27:198|27:198|34:263|34:263|21:327|21:327|65:226|65:226,1,306.4,10|2,0:0|0:3,0:0:0:0:
280,56,45600,1,2,0:3:0:0:
348,56,45723,5,0,1:2:0:0:
152,56,45969,2,0,B|141:120|141:120|117:181|117:181|132:245|132:245|156:352|156:352,1,306.4,2|10,0:3|0:0,0:0:0:0:
280,136,46338,2,0,B|302:197|302:197|321:260|321:260|356:315|356:315|376:207|376:207,1,306.4,2|0,0:3|0:0,0:0:0:0:
180,136,46707,5,2,1:3:0:0:
112,136,46830,1,2,0:3:0:0:
68,180,46953,1,2,0:0:0:0:
60,240,47076,1,2,0:3:0:0:
256,244,47199,1,10,0:0:0:0:
316,244,47322,1,0,0:0:0:0:
192,244,47445,1,2,0:3:0:0:
132,244,47568,1,0,0:0:0:0:
324,336,47691,5,4,1:2:0:0:
496,336,47937,1,2,0:0:0:0:
160,336,48182,2,0,L|153:271|153:271|104:228|104:228|77:168|77:168|38:65|38:65,1,306.4,12|0,0:3|0:0,0:0:0:0:
248,160,48674,2,0,L|248:225|248:225|265:288|265:288|266:353|266:353|248:244|248:244,1,306.4,2|0,1:2|0:0,0:0:0:0:
40,40,49166,2,0,L|48:105|48:105|28:167|28:167|41:231|41:231|32:341|32:341,1,306.4,10|0,0:0|0:0,0:0:0:0:
400,160,49658,6,0,L|386:224|386:224|389:289|389:289|411:351|411:351|408:241|408:241,1,306.4,2|2,1:2|0:0,0:0:0:0:
224,280,50150,1,10,0:0:0:0:
408,280,50396,1,2,0:0:0:0:
104,280,50641,1,2,1:2:0:0:
288,280,50887,1,2,0:0:0:0:
104,280,51133,2,0,B|93:356|93:356|71:283|71:283|34:216|34:216|58:143|58:143|111:287|111:287,1,459.6,10|0,0:0|0:0,0:0:0:0:
296,168,51625,5,2,1:2:0:0:
168,168,51871,2,0,B|143:228|143:228|138:293|138:293|153:357|153:357|175:249|175:249,1,306.4,2|8,0:3|0:0,0:0:0:0:
296,256,52240,2,0,L|322:316|322:316|338:379|338:379|391:341|391:341|418:234|418:234,1,306.4,2|0,0:3|0:0,0:0:0:0:
232,256,52609,6,0,L|224:103|224:103,1,153.2,2|0,1:3|0:0,0:0:0:0:
344,192,52855,2,0,L|351:345|351:345,1,153.2,2|0,0:0|0:0,0:0:0:0:
168,128,53100,2,0,L|145:189|145:189|132:253|132:253|79:291|79:291|46:186|46:186,1,306.4,10|0,0:0|0:0,0:0:0:0:
392,128,53592,6,0,B|431:180|431:180|407:241|407:241|413:306|413:306|392:198|392:198,1,306.4,2|0,1:2|0:0,0:0:0:0:
208,224,54084,1,10,0:0:0:0:
392,224,54330,2,0,L|400:377|400:377,1,153.2,2|8,0:0|0:0,0:0:0:0:
216,280,54576,1,0,1:2:0:0:
400,280,54822,1,8,0:0:0:0:
88,276,55068,2,0,B|59:347|59:347|39:273|39:273|22:198|22:198|47:126|47:126|103:269|103:269,1,459.6,8|0,0:2|0:0,0:0:0:0:
320,176,55559,6,0,L|321:241|321:241|335:305|335:305|322:369|322:369|327:259|327:259,1,306.4,6|0,1:2|0:0,0:0:0:0:
128,56,56051,2,0,L|137:121|137:121|131:186|131:186|141:251|141:251|120:359|120:359,1,306.4,10|0,0:0|0:0,0:0:0:0:
432,176,56543,1,2,1:2:0:0:
248,176,56789,1,2,0:0:0:0:
432,176,57035,1,10,0:0:0:0:
64,176,57281,6,0,L|60:241|60:241|65:306|65:306|77:370|77:370|56:262|56:262,1,306.4,2|0,0:0|1:2,0:0:0:0:
240,296,57773,1,2,0:3:0:0:
56,296,58018,1,8,0:0:0:0:
136,296,58141,1,2,0:3:0:0:
440,296,58387,2,0,L|455:360|455:360|436:298|436:298|444:233|444:233|444:123|444:123,1,306.4,2|2,0:3|0:3,0:0:0:0:
256,172,58756,5,0,0:0:0:0:
176,172,58879,1,2,0:3:0:0:
184,104,59002,1,8,0:0:0:0:
264,104,59125,1,0,0:0:0:0:
444,104,59248,1,2,0:3:0:0:
376,104,59371,1,2,0:3:0:0:
160,232,59494,6,0,L|163:297|163:297|169:362|169:362|163:297|163:297|153:187|153:187,1,306.4,6|0,1:2|0:0,0:0:0:0:
352,112,59986,2,0,L|359:177|359:177|365:242|365:242|357:307|357:307|360:197|360:197,1,306.4,10|0,0:0|0:0,0:0:0:0:
40,232,60478,1,2,1:2:0:0:
224,232,60723,1,2,0:0:0:0:
40,232,60969,1,10,0:0:0:0:
416,232,61215,6,0,B|450:288|450:288|447:353|447:353|431:290|431:290|417:181|417:181,1,306.4,2|2,0:0|1:2,0:0:0:0:
224,136,61707,2,0,L|163:277|163:277,1,153.2,2|0,0:3|0:0,0:0:0:0:
344,136,61953,1,8,0:0:0:0:
424,136,62076,2,0,L|420:289|420:289,1,153.2,2|0,0:3|0:0,0:0:0:0:
340,200,62322,1,2,0:3:0:0:
152,200,62445,5,2,1:2:0:0:
280,200,62691,2,0,L|287:353|287:353,1,153.2,2|2,0:3|0:3,0:0:0:0:
104,136,62937,1,10,0:3:0:0:
32,136,63059,1,2,0:3:0:0:
104,136,63182,1,2,0:0:0:0:
408,320,63428,6,0,L|392:383|392:383|361:325|361:325|313:281|313:281|286:174|286:174,1,306.4,6|0,1:2|0:0,0:0:0:0:
88,320,63920,2,0,L|104:383|104:383|70:327|70:327|65:262|65:262|80:153|80:153,1,306.4,8|0,0:0|0:0,0:0:0:0:
392,192,64412,1,2,1:2:0:0:
208,192,64658,1,2,0:0:0:0:
24,192,64904,1,10,0:0:0:0:
392,192,65150,6,0,L|410:255|410:255|410:320|410:320|385:380|385:380|400:271|400:271,1,306.4,2|2,0:0|1:2,0:0:0:0:
216,72,65641,2,0,L|155:213|155:213,1,153.2,2|0,0:3|0:0,0:0:0:0:
256,72,65887,1,8,0:0:0:0:
352,72,66010,2,0,L|360:225|360:225,1,153.2,2|0,0:3|0:0,0:0:0:0:
176,136,66256,6,0,B|142:192|142:192|128:256|128:256|154:316|154:316|180:209|180:209,1,306.4,2|0,0:3|0:0,0:0:0:0:
304,224,66625,2,0,L|365:365|365:365,1,153.2,2|2,0:3|0:3,0:0:0:0:
184,224,66871,2,0,L|171:288|171:288|135:343|135:343|93:293|93:293|62:187|62:187,1,306.4,8|2,0:0|0:3,0:0:0:0:
152,224,67240,1,2,0:3:0:0:
368,224,67363,6,0,L|394:284|394:284|420:344|420:344|452:287|452:287|490:184|490:184,1,306.4,6|0,1:2|0:0,0:0:0:0:
296,224,67855,2,0,L|306:289|306:289|339:345|339:345|380:294|380:294|418:191|418:191,1,306.4,10|0,0:0|0:0,0:0:0:0:
112,224,68346,1,2,1:2:0:0:
296,224,68592,1,2,0:0:0:0:
480,224,68838,2,0,L|419:365|419:365,1,153.2,10|0,0:0|0:0,0:0:0:0:
232,224,69084,2,0,L|171:365|171:365,1,153.2,2|2,0:3|0:3,0:0:0:0:
384,224,69330,6,0,B|394:289|394:289|449:325|449:325|453:260|453:260|471:151|471:151,1,306.4,2|0,1:2|0:0,0:0:0:0:
272,160,69822,2,0,L|262:225|262:225|231:283|231:283|205:343|205:343|150:247|150:247,1,306.4,10|0,0:3|0:0,0:0:0:0:
224,160,70191,1,10,0:3:0:0:
408,160,70314,6,0,B|436:219|436:219|438:284|438:284|448:349|448:349|408:246|408:246,1,306.4,0|8,1:2|0:0,0:0:0:0:
336,256,70682,1,8,0:0:0:0:
152,256,70805,2,0,L|144:103|144:103,1,153.2,2|10,1:3|0:3,0:0:0:0:
264,192,71051,2,0,L|272:345|272:345,1,153.2,8|0,0:0|0:0,0:0:0:0:
56,128,71297,6,0,L|37:191|37:191|44:256|44:256|60:319|60:319|48:209|48:209,1,306.4,6|0,1:2|0:0,0:0:0:0:
248,248,71789,2,0,L|207:299|207:299|204:364|204:364|180:303|180:303|126:207|126:207,1,306.4,10|0,0:0|0:0,0:0:0:0:
312,248,72281,1,2,1:2:0:0:
128,248,72527,1,2,0:0:0:0:
432,248,72773,2,0,L|446:312|446:312|444:377|444:377|435:312|435:312|440:202|440:202,1,306.4,10|0,0:3|0:0,0:0:0:0:
72,128,73264,5,2,1:3:0:0:
256,128,73510,1,2,0:0:0:0:
72,128,73756,2,0,L|77:193|77:193|51:253|51:253|61:318|61:318|64:208|64:208,1,306.4,10|0,0:0|0:0,0:0:0:0:
248,248,74248,1,2,1:3:0:0:
64,248,74494,1,2,0:0:0:0:
368,248,74740,2,0,L|379:312|379:312|415:367|415:367|461:321|461:321|490:215|490:215,1,306.4,10|0,0:0|0:0,0:0:0:0:
120,248,75232,5,2,1:2:0:0:
304,248,75478,1,2,0:0:0:0:
120,248,75723,2,0,L|134:312|134:312|105:370|105:370|108:305|108:305|112:195|112:195,1,306.4,10|0,0:0|0:0,0:0:0:0:
296,128,76215,1,2,1:3:0:0:
480,128,76461,1,2,0:0:0:0:
176,128,76707,2,0,L|167:193|167:193|120:238|120:238|97:299|97:299|54:197|54:197,1,306.4,10|0,0:3|0:0,0:0:0:0:
472,128,77199,5,2,1:3:0:0:
280,128,77445,1,2,0:0:0:0:
472,128,77691,2,0,L|466:193|466:193|489:254|489:254|480:319|480:319|480:209|480:209,1,306.4,10|0,0:0|0:0,0:0:0:0:
176,248,78182,2,0,B|166:313|166:313|163:378|163:378|197:322|197:322|228:216|228:216,1,306.4,2|2,1:2|0:0,0:0:0:0:
296,172,78551,1,2,0:3:0:0:
112,172,78674,1,10,0:3:0:0:
44,160,78797,1,2,0:3:0:0:
36,92,78920,1,2,0:3:0:0:
360,152,79166,6,0,L|355:217|355:217|364:282|364:282|365:347|365:347|368:237|368:237,1,306.4,4|0,1:2|0:0,0:0:0:0:
168,272,79658,2,0,L|172:337|172:337|166:272|166:272|148:209|148:209|160:99|160:99,1,306.4,10|0,0:0|0:0,0:0:0:0:
472,152,80150,1,2,1:3:0:0:
280,152,80396,2,0,L|272:305|272:305,1,153.2,2|0,0:0|0:0,0:0:0:0:
456,216,80641,2,0,L|441:280|441:280|474:336|474:336|478:271|478:271|464:162|464:162,1,306.4,10|0,0:0|0:0,0:0:0:0:
96,336,81133,5,2,1:3:0:0:
288,336,81379,1,2,0:0:0:0:
96,336,81625,2,0,B|63:280|63:280|57:215|57:215|85:156|85:156|96:46|96:46,1,306.4,10|0,0:0|0:0,0:0:0:0:
176,240,81994,1,0,0:0:0:0:
360,240,82117,1,2,1:3:0:0:
176,240,82363,2,0,L|169:87|169:87,1,153.2,2|0,0:3|0:0,0:0:0:0:
352,176,82609,2,0,L|378:236|378:236|418:288|418:288|448:346|448:346|474:239|474:239,1,306.4,10|0,0:0|0:0,0:0:0:0:
104,176,83100,6,0,L|98:241|98:241|99:306|99:306|82:369|82:369|96:260|96:260,1,306.4,2|0,1:3|0:0,0:0:0:0:
296,296,83592,2,0,L|311:360|311:360|346:305|346:305|366:243|366:243|418:146|418:146,1,306.4,10|0,0:0|0:0,0:0:0:0:
112,296,84084,1,2,1:3:0:0:
304,296,84330,2,0,L|311:143|311:143,1,153.2,2|0,0:0|0:0,0:0:0:0:
128,240,84576,2,0,B|108:302|108:302|79:361|79:361|79:296|79:296|56:188|56:188,1,306.4,10|0,0:0|0:0,0:0:0:0:
424,160,85068,6,0,L|444:222|444:222|446:287|446:287|426:349|426:349|432:239|432:239,1,306.4,2|0,1:2|0:0,0:0:0:0:
128,288,85559,2,0,L|126:353|126:353|115:289|115:289|140:229|140:229|120:120|120:120,1,306.399987200428,10|0,0:3|0:0,0:0:0:0:
192,160,85928,1,8,0:0:0:0:
376,160,86051,5,2,1:3:0:0:
456,168,86174,1,8,0:0:0:0:
448,240,86297,1,8,0:0:0:0:
368,248,86420,1,10,0:3:0:0:
184,248,86543,1,2,1:3:0:0:
116,248,86666,1,0,1:2:0:0:
316,248,86789,1,10,0:3:0:0:
384,248,86912,1,10,0:3:0:0:
168,248,87035,6,0,B|141:320|141:320|114:248|114:248|79:180|79:180|60:106|60:106|37:33|37:33|52:108|52:108|71:182|71:182|79:258|79:258|100:320|100:320|130:378|130:378|159:319|159:319|189:213|189:213,1,919.2,4|0,1:2|0:0,0:0:0:0:
