osu file format v14

[General]
AudioFilename: audio.mp3
AudioLeadIn: 0
PreviewTime: 39214
Countdown: 0
SampleSet: Soft
StackLeniency: 0.7
Mode: 2
LetterboxInBreaks: 0
WidescreenStoryboard: 1

[Editor]
DistanceSpacing: 1.1
BeatDivisor: 4
GridSize: 4
TimelineZoom: 0.9

[Metadata]
Title:LOST IN PARADISE feat. AKLO (TV Size)
TitleUnicode:LOST IN PARADISE feat. AKLO (TV Size)
Artist:ALI
ArtistUnicode:ALI
Creator:rew0825
Version:Platter
Source:呪術廻戦
Tags:Alien Liberty International Jujutsu Kaisen Sorcery Fight anime ed ending japanese english jazz male vocal Syadow-
BeatmapID:2949109
BeatmapSetID:1284215

[Difficulty]
HPDrainRate:4
CircleSize:3.5
OverallDifficulty:7.8
ApproachRate:7.8
SliderMultiplier:2.08
SliderTickRate:2

[Events]
//Background and Video events
Video,0,"video.mp4"
0,0,"BG Platter.jpg",0,0
//Break Periods
//Storyboard Layer 0 (Background)
//Storyboard Layer 1 (Fail)
//Storyboard Layer 2 (Pass)
//Storyboard Layer 3 (Foreground)
//Storyboard Layer 4 (Overlay)
//Storyboard Sound Samples

[TimingPoints]
478,491.803278688525,4,2,1,75,1,0
478,-36.5168539325843,4,2,1,75,0,0
2445,-36.5168539325843,4,2,2,65,0,0
2691,-36.5168539325843,4,2,1,75,0,0
3428,-36.5168539325843,4,2,2,65,0,0
3674,-36.5168539325843,4,2,1,75,0,0
8346,-36.5168539325843,4,2,1,65,0,0
9330,-36.5168539325843,4,2,2,55,0,0
9576,-36.5168539325843,4,2,1,65,0,0
11789,-36.5168539325843,4,2,3,55,0,0
12035,-36.5168539325843,4,2,1,65,0,0
24084,-36.5168539325843,4,2,1,70,0,0
26051,-36.5168539325843,4,2,2,60,0,0
26297,-36.5168539325843,4,2,1,70,0,0
33920,-36.5168539325843,4,2,2,60,0,0
34166,-36.5168539325843,4,2,1,70,0,0
39822,-36.5168539325843,4,2,1,75,0,1
39945,-36.5168539325843,4,2,1,75,0,0
44248,-36.5168539325843,4,2,3,65,0,0
44371,-36.5168539325843,4,2,1,75,0,0
52117,-36.5168539325843,4,2,3,65,0,0
52240,-36.5168539325843,4,2,1,75,0,0
55559,-36.5168539325843,4,2,1,80,0,1
55682,-36.5168539325843,4,2,1,80,0,0
57527,-36.5168539325843,4,2,2,70,0,0
57773,-36.5168539325843,4,2,1,80,0,0
61461,-36.5168539325843,4,2,2,70,0,0
61707,-36.5168539325843,4,2,1,80,0,0
65396,-36.5168539325843,4,2,2,70,0,0
65642,-36.5168539325843,4,2,1,80,0,0
69330,-36.5168539325843,4,2,2,70,0,0
69576,-36.5168539325843,4,2,1,80,0,0
71297,-36.5168539325843,4,2,1,85,0,1
87035,-36.5168539325843,4,2,1,75,0,0
87773,-36.5168539325843,4,2,1,25,0,0

[Colours]
Combo1 : 194,180,143
Combo2 : 70,192,209
Combo3 : 255,222,53
Combo4 : 237,84,86

[HitObjects]
196,280,478,5,2,1:3:0:0:
144,280,600,1,2,0:3:0:0:
92,280,723,1,2,0:3:0:0:
308,280,969,2,0,L|324:339|324:339|321:278|321:278|315:218|315:218|316:116|316:116,1,284.8,8|0,0:0|0:0,0:0:0:0:
200,176,1461,1,0,1:2:0:0:
92,176,1707,1,0,0:0:0:0:
200,176,1953,1,8,0:0:0:0:
420,176,2199,6,0,B|431:246|431:246|452:314|452:314|485:377|485:377|492:306|492:306|502:246|502:246|482:189|482:189|467:130|467:130|419:39|419:39,1,569.6,2|2,0:3|0:3,0:0:0:0:
304,280,2937,1,8,0:0:0:0:
88,280,3182,2,0,B|86:351|86:351|72:281|72:281|94:213|94:213|116:145|116:145|130:86|130:86|175:45|175:45|187:105|187:105|213:204|213:204,1,569.6,2|2,0:3|0:3,0:0:0:0:
328,192,3920,2,0,L|312:251|312:251|314:312|314:312|320:372|320:372|336:271|336:271,1,284.8,8|0,0:0|0:0,0:0:0:0:
24,88,4412,6,0,B|26:159|26:159|38:229|38:229|21:298|21:298|52:362|52:362|68:303|68:303|107:256|107:256|118:196|118:196|149:98|149:98,1,569.6,4|8,1:2|0:0,0:0:0:0:
264,176,5150,1,2,0:3:0:0:
48,176,5396,2,0,L|74:242|74:242|86:312|86:312|140:358|140:358|152:288|152:288|189:240|189:240|183:179|183:179|202:121|202:121|256:34|256:34,1,569.6,0|8,1:2|0:0,0:0:0:0:
144,176,6133,1,2,0:3:0:0:
360,176,6379,5,2,1:3:0:0:
368,232,6502,1,2,0:3:0:0:
256,232,6748,1,2,0:3:0:0:
372,232,6994,1,2,0:3:0:0:
64,232,7240,2,0,B|44:300|44:300|39:371|39:371|34:300|34:300|47:230|47:230|94:96|94:96,1,427.2,2|2,0:3|0:2,0:0:0:0:
152,128,7732,1,2,0:2:0:0:
212,128,7855,2,0,L|195:186|195:186|163:237|163:237|132:290|132:290|108:190|108:190,1,284.8,8|2,0:0|0:2,0:0:0:0:
424,128,8346,5,6,1:2:0:0:
456,128,8469,1,2,0:2:0:0:
424,128,8592,1,2,0:2:0:0:
312,128,8838,1,8,0:0:0:0:
96,128,9084,2,0,B|53:185|53:185|30:252|30:252|15:322|15:322|24:251|24:251|19:190|19:190|57:143|57:143|55:82|55:82|97:176|97:176,1,569.6,2|2,0:2|0:2,0:0:0:0:
208,232,9822,1,8,0:0:0:0:
96,232,10068,1,2,0:2:0:0:
312,232,10314,6,0,L|325:291|325:291|329:352|329:352|299:299|299:299|319:199|319:199,1,284.8,2|2,1:2|0:2,0:0:0:0:
200,128,10805,1,10,0:0:0:0:
152,120,10928,1,2,0:2:0:0:
128,72,11051,1,2,0:2:0:0:
240,72,11297,1,0,1:2:0:0:
456,72,11543,2,0,B|480:139|480:139|466:209|466:209|479:279|479:279|474:350|474:350|459:291|459:291|451:231|451:231|421:178|421:178|384:82|384:82,1,569.6,2|2,0:2|0:0,0:0:0:0:
72,200,12281,6,0,L|87:259|87:259|84:320|84:320|59:375|59:375|64:273|64:273,1,284.8,2|2,1:2|0:2,0:0:0:0:
180,304,12773,1,10,0:0:0:0:
64,303,13018,1,2,0:0:0:0:
280,304,13264,5,2,1:2:0:0:
320,256,13387,1,2,0:2:0:0:
280,208,13510,1,2,0:2:0:0:
168,208,13756,1,10,0:0:0:0:
128,160,13879,1,2,0:2:0:0:
168,112,14002,1,2,0:2:0:0:
384,120,14248,6,0,L|398:179|398:179|406:239|406:239|393:298|393:298|392:193|392:193,1,284.800004679988,2|2,1:2|0:0,0:0:0:0:
176,224,14740,1,10,0:0:0:0:
168,280,14863,1,2,0:0:0:0:
280,280,15109,1,2,0:0:0:0:
272,336,15232,1,2,1:2:0:0:
160,336,15478,1,2,0:0:0:0:
48,336,15723,1,10,0:0:0:0:
40,280,15846,1,2,0:0:0:0:
480,280,16215,5,2,1:2:0:0:
464,224,16338,1,2,0:0:0:0:
408,208,16461,1,2,0:0:0:0:
296,208,16707,1,10,0:0:0:0:
240,192,16830,1,2,0:0:0:0:
224,136,16953,1,2,0:0:0:0:
440,136,17199,1,2,1:2:0:0:
272,136,17568,1,2,0:0:0:0:
264,192,17691,1,10,0:0:0:0:
376,192,17937,5,2,0:0:0:0:
384,248,18059,1,2,0:0:0:0:
164,248,18305,1,2,0:0:0:0:
108,248,18428,2,0,B|101:308|101:308|75:363|75:363|85:303|85:303|108:203|108:203,1,284.8,2|8,0:0|0:0,0:0:0:0:
224,328,18920,1,2,0:0:0:0:
280,328,19043,1,2,0:0:0:0:
340,328,19166,6,0,L|325:269|325:269|359:219|359:219|340:161|340:161|348:59|348:59,1,284.8,2|0,1:2|0:0,0:0:0:0:
128,224,19658,2,0,L|88:269|88:269|75:328|75:328|54:385|54:385|28:284|28:284,1,284.800004679988,10|0,0:0|0:0,0:0:0:0:
340,228,20150,5,2,1:2:0:0:
456,228,20396,1,2,0:0:0:0:
468,176,20518,1,2,0:0:0:0:
412,168,20641,2,0,L|386:223|386:223|361:278|361:278|329:330|329:330|308:230|308:230,1,284.8,8|0,0:0|0:0,0:0:0:0:
84,172,21133,5,2,1:2:0:0:
200,172,21379,1,2,0:0:0:0:
144,172,21502,1,2,0:0:0:0:
84,172,21625,2,0,L|97:231|97:231|84:290|84:290|91:350|91:350|80:248|80:248,1,284.8,10|0,0:0|0:0,0:0:0:0:
396,140,22117,6,0,L|393:201|393:201|390:262|390:262|397:322|397:322|403:220|403:220,1,284.8,2|0,1:1|0:0,0:0:0:0:
180,244,22609,2,0,L|187:304|187:304|186:365|186:365|168:307|168:307|173:205|173:205,1,284.8,10|0,0:1|0:0,0:0:0:0:
388,340,23100,1,2,1:2:0:0:
272,340,23346,1,10,0:0:0:0:
388,340,23592,1,2,1:1:0:0:
444,332,23715,1,8,0:0:0:0:
468,276,23838,1,0,0:0:0:0:
116,272,24084,6,0,B|76:331|76:331|60:262|60:262|38:194|38:194|44:123|44:123|67:67|67:67|77:7|77:7|77:68|77:68|116:163|116:163,1,569.6,6|10,1:2|0:0,0:0:0:0:
232,168,24822,1,0,0:0:0:0:
448,168,25068,2,0,B|439:239|439:239|445:310|445:310|423:378|423:378|407:309|407:309|371:260|371:260|383:200|383:200|334:164|334:164|308:65|308:65,1,569.6,2|10,1:2|0:0,0:0:0:0:
88,272,25805,6,0,L|132:328|132:328|133:257|133:257|155:189|155:189|192:128|192:128|220:74|220:74|236:15|236:15|253:73|253:73|296:166|296:166,1,569.6,2|2,0:0|0:0,0:0:0:0:
184,272,26543,1,8,0:0:0:0:
400,272,26789,2,0,L|416:331|416:331|395:274|395:274|394:213|394:213|407:111|407:111,1,284.8,2|0,0:3|1:2,0:0:0:0:
296,168,27281,1,2,0:3:0:0:
80,168,27527,2,0,L|85:229|85:229|73:288|73:288|63:348|63:348|72:246|72:246,1,284.8,10|2,0:0|0:3,0:0:0:0:
384,272,28018,6,0,B|413:337|413:337|429:268|429:268|456:202|456:202|448:131|448:131|424:75|424:75|433:15|433:15|413:73|413:73|377:169|377:169,1,569.6,2|10,1:2|0:0,0:0:0:0:
264,144,28756,1,0,0:0:0:0:
48,144,29002,1,2,1:2:0:0:
160,144,29248,1,2,0:0:0:0:
48,144,29494,1,10,0:0:0:0:
264,144,29740,6,0,L|283:202|283:202|280:263|280:263|269:323|269:323|272:221|272:221,1,284.8,2|2,0:0|1:1,0:0:0:0:
156,248,30232,1,2,0:0:0:0:
272,248,30478,2,0,L|277:309|277:309|304:363|304:363|328:307|328:307|376:216|376:216,1,284.8,10|0,0:1|0:0,0:0:0:0:
160,248,30969,2,0,L|159:309|159:309|140:367|140:367|163:311|163:311|152:209|152:209,1,284.8,2|2,1:2|0:0,0:0:0:0:
268,144,31461,1,10,0:1:0:0:
152,144,31707,1,2,0:0:0:0:
464,144,31953,6,0,B|466:215|466:215|502:277|502:277|498:348|498:348|478:280|478:280|474:219|474:219|427:180|427:180|432:119|432:119|386:28|386:28,1,569.6,0|10,1:2|0:0,0:0:0:0:
272,256,32691,1,0,0:0:0:0:
56,256,32937,2,0,B|40:325|40:325|44:254|44:254|38:183|38:183|42:112|42:112|64:55|64:55|78:114|78:114|99:171|99:171|132:268|132:268,1,569.6,0|10,1:2|0:0,0:0:0:0:
352,128,33674,6,0,B|363:198|363:198|400:259|400:259|438:319|438:319|446:248|446:248|472:193|472:193|467:132|467:132|460:72|460:72|449:174|449:174,1,569.6,2|2,0:0|0:0,0:0:0:0:
336,248,34412,1,8,0:0:0:0:
120,248,34658,2,0,L|136:307|136:307|117:365|117:365|102:306|102:306|112:204|112:204,1,284.8,2|0,0:3|1:2,0:0:0:0:
228,144,35150,1,2,0:3:0:0:
112,144,35396,2,0,L|92:201|92:201|52:246|52:246|53:307|53:307|8:215|8:215,1,284.8,8|2,0:0|0:3,0:0:0:0:
320,144,35887,6,0,B|356:206|356:206|380:273|380:273|363:342|363:342|384:274|384:274|358:219|358:219|379:162|379:162|349:109|349:109|307:16|307:16,1,569.6,2|10,1:2|0:0,0:0:0:0:
192,256,36625,1,0,0:0:0:0:
408,256,36871,1,2,1:2:0:0:
296,256,37117,1,2,0:0:0:0:
408,256,37363,1,8,0:0:0:0:
96,256,37609,6,0,B|64:320|64:320|37:386|37:386|47:315|47:315|31:246|31:246|54:190|54:190|45:130|45:130|79:80|79:80|103:180|103:180,1,569.6,12|8,0:0|0:0,0:0:0:0:
216,136,38346,1,8,0:0:0:0:
100,136,38592,1,8,0:0:0:0:
312,136,38838,1,8,0:0:0:0:
424,136,39084,1,0,1:2:0:0:
112,136,39330,2,0,L|104:196|104:196|96:256|96:256|116:313|116:313|105:211|105:211,1,284.8,12|0,0:0|0:0,0:0:0:0:
416,240,39822,6,0,L|424:300|424:300|409:359|409:359|412:298|412:298|424:196|424:196,1,284.8,6|0,1:2|0:0,0:0:0:0:
208,136,40314,2,0,L|179:189|179:189|165:248|165:248|135:301|135:301|104:203|104:203,1,284.8,12|0,0:3|0:0,0:0:0:0:
320,136,40805,2,0,B|350:201|350:201|377:267|377:267|377:338|377:338|419:280|419:280|435:221|435:221|432:160|432:160|470:113|470:113|458:11|458:11,1,569.6,2|10,1:2|0:0,0:0:0:0:
344,240,41543,1,0,0:0:0:0:
32,240,41789,6,0,L|13:298|13:298|26:357|26:357|30:296|30:296|25:194|25:194,1,284.8,2|2,1:2|0:0,0:0:0:0:
140,136,42281,1,10,0:0:0:0:
24,136,42527,1,2,0:0:0:0:
240,136,42773,2,0,L|234:196|234:196|243:256|243:256|230:315|230:315|248:214|248:214,1,284.8,2|2,1:2|0:0,0:0:0:0:
32,240,43264,2,0,L|65:291|65:291|91:346|91:346|105:287|105:287|136:189|136:189,1,284.8,10|0,0:0|0:0,0:0:0:0:
448,240,43756,5,2,1:2:0:0:
336,240,44002,2,0,B|361:307|361:307|361:378|361:378|374:308|374:308|403:243|403:243|454:110|454:110,1,427.2,2|2,0:3|0:3,0:0:0:0:
160,176,44740,2,0,L|159:237|159:237|141:295|141:295|157:354|157:354|153:252|153:252,1,284.8,2|2,1:3|0:3,0:0:0:0:
368,280,45232,2,0,L|356:340|356:340|383:286|383:286|373:226|373:226|376:124|376:124,1,284.8,10|2,0:0|0:3,0:0:0:0:
244,176,45600,6,0,B|229:246|229:246|190:306|190:306|161:371|161:371|155:300|155:300|148:158|148:158,1,427.2,2|2,0:3|0:3,0:0:0:0:
264,80,46215,1,10,0:0:0:0:
268,144,46338,1,2,0:3:0:0:
148,144,46584,5,0,0:0:0:0:
92,144,46707,1,2,1:3:0:0:
100,88,46830,1,2,0:3:0:0:
156,88,46953,1,2,0:0:0:0:
372,80,47199,2,0,L|393:137|393:137|371:194|371:194|372:255|372:255|380:357|380:357,1,284.8,10|2,0:0|0:3,0:0:0:0:
56,176,47691,6,0,L|54:237|54:237|70:296|70:296|69:357|69:357|48:257|48:257,1,284.8,4|2,1:2|0:0,0:0:0:0:
264,288,48182,2,0,L|296:340|296:340|299:279|299:279|337:231|337:231|368:133|368:133,1,284.8,12|0,0:3|0:0,0:0:0:0:
152,288,48674,2,0,B|110:346|110:346|87:279|87:279|84:208|84:208|60:141|60:141|66:80|66:80|28:33|28:33|39:93|39:93|48:195|48:195,1,569.6,2|10,1:2|0:0,0:0:0:0:
160,152,49412,1,0,0:0:0:0:
472,160,49658,6,0,L|470:221|470:221|477:281|477:281|489:341|489:341|479:239|479:239,1,284.8,2|2,1:2|0:0,0:0:0:0:
364,264,50150,1,10,0:0:0:0:
480,264,50396,1,2,0:0:0:0:
264,264,50641,2,0,L|262:325|262:325|251:385|251:385|276:330|276:330|257:229|257:229,1,284.8,2|2,1:2|0:0,0:0:0:0:
472,160,51133,2,0,L|453:218|453:218|444:278|444:278|394:313|394:313|368:214|368:214,1,284.8,10|0,0:0|0:0,0:0:0:0:
56,160,51625,5,2,1:2:0:0:
172,160,51871,2,0,L|164:231|164:231|103:268|103:268|85:337|85:337|68:268|68:268|16:135|16:135,1,427.2,2|2,0:3|0:3,0:0:0:0:
332,232,52609,1,2,1:3:0:0:
220,232,52855,1,2,0:0:0:0:
440,232,53100,2,0,L|442:293|442:293|431:353|431:353|443:293|443:293|448:191|448:191,1,284.8,10|0,0:0|0:0,0:0:0:0:
136,128,53592,6,0,B|109:194|109:194|99:264|99:264|67:328|67:328|64:257|64:257|74:197|74:197|98:141|98:141|95:80|95:80|134:175|134:175,1,569.6,2|10,1:2|0:0,0:0:0:0:
360,240,54330,1,2,0:0:0:0:
416,232,54453,1,8,0:0:0:0:
448,184,54576,1,0,1:2:0:0:
336,184,54822,1,8,0:0:0:0:
120,184,55068,2,0,L|122:245|122:245|135:304|135:304|129:364|129:364|112:263|112:263,1,284.8,8|0,0:2|0:0,0:0:0:0:
424,296,55559,6,0,B|442:365|442:365|468:299|468:299|483:229|483:229|479:158|479:158|480:97|480:97|463:39|463:39|449:98|449:98|402:189|402:189,1,569.6,6|10,1:2|0:0,0:0:0:0:
280,168,56297,1,0,0:0:0:0:
64,168,56543,1,2,1:2:0:0:
180,168,56789,1,2,0:0:0:0:
64,168,57035,1,10,0:0:0:0:
376,168,57281,6,0,B|401:235|401:235|433:298|433:298|430:369|430:369|430:298|430:298|431:237|431:237|411:180|411:180|369:137|369:137|349:37|349:37,1,569.6,2|2,0:0|0:3,0:0:0:0:
232,288,58018,1,8,0:0:0:0:
224,232,58141,1,2,0:3:0:0:
440,232,58387,2,0,B|479:291|479:291|458:359|458:359|456:288|456:288|462:217|462:217|415:82|415:82,1,427.2,2|0,0:3|0:0,0:0:0:0:
300,128,59002,1,8,0:0:0:0:
416,128,59248,1,2,0:3:0:0:
104,128,59494,6,0,B|94:198|94:198|42:247|42:247|24:316|24:316|30:245|30:245|41:185|41:185|59:127|59:127|68:67|68:67|102:164|102:164,1,569.6,6|10,1:2|0:0,0:0:0:0:
216,184,60232,1,0,0:0:0:0:
432,184,60478,1,2,1:2:0:0:
316,184,60723,1,2,0:0:0:0:
432,184,60969,1,10,0:0:0:0:
120,184,61215,6,0,B|81:244|81:244|71:314|71:314|54:383|54:383|48:312|48:312|35:253|35:253|54:195|54:195|86:143|86:143|116:45|116:45,1,569.6,2|2,0:0|0:3,0:0:0:0:
240,72,61953,2,0,B|244:133|244:133|290:173|290:173|280:233|280:233|265:334|265:334,1,284.8,8|0,0:0|0:0,0:0:0:0:
208,152,62322,1,2,0:3:0:0:
80,72,62445,2,0,B|80:133|80:133|68:192|68:192|69:253|69:253|79:355|79:355,1,284.8,2|2,1:2|0:3,0:0:0:0:
192,160,62937,1,10,0:3:0:0:
136,160,63059,1,2,0:3:0:0:
80,160,63182,1,2,0:0:0:0:
392,160,63428,6,0,B|425:223|425:223|437:293|437:293|463:359|463:359|457:288|457:288|441:229|441:229|446:168|446:168|402:126|402:126|381:26|381:26,1,569.6,6|8,1:2|0:0,0:0:0:0:
260,272,64166,1,0,0:0:0:0:
40,272,64412,1,2,1:2:0:0:
156,272,64658,1,2,0:0:0:0:
40,272,64904,1,10,0:0:0:0:
352,272,65150,6,0,B|385:335|385:335|408:267|408:267|421:197|421:197|410:127|410:127|400:67|400:67|393:7|393:7|348:48|348:48|330:149|330:149,1,569.6,2|2,0:0|0:3,0:0:0:0:
216,160,65887,1,8,0:0:0:0:
160,144,66010,1,2,0:3:0:0:
376,144,66256,2,0,B|395:213|395:213|404:284|404:284|420:353|420:353|417:282|417:282|373:147|373:147,1,427.2,2|2,0:3|0:3,0:0:0:0:
316,240,66748,1,2,0:3:0:0:
260,240,66871,1,8,0:0:0:0:
144,240,67117,1,2,0:3:0:0:
456,240,67363,6,0,B|469:310|469:310|431:370|431:370|420:300|420:300|407:230|407:230|382:174|382:174|364:116|364:116|334:63|334:63|307:162|307:162,1,569.6,6|10,1:2|0:0,0:0:0:0:
424,64,68100,1,0,0:0:0:0:
208,64,68346,1,2,1:2:0:0:
92,64,68592,1,2,0:0:0:0:
208,64,68838,1,10,0:0:0:0:
424,64,69084,6,0,B|459:126|459:126|462:197|462:197|464:268|464:268|460:339|460:339|460:278|460:278|426:228|426:228|414:168|414:168|376:73|376:73,1,569.6,2|0,0:3|0:0,0:0:0:0:
160,192,69822,2,0,B|135:259|135:259|122:329|122:329|110:259|110:259|116:188|116:188|160:52|160:52,1,427.2,10|10,0:3|0:3,0:0:0:0:
220,288,70314,2,0,L|225:349|225:349|279:376|279:376|304:320|304:320|324:219|324:219,1,284.8,0|8,1:2|0:0,0:0:0:0:
108,288,70805,1,2,1:3:0:0:
76,240,70928,1,10,0:3:0:0:
116,200,71051,1,8,0:0:0:0:
432,200,71297,6,0,B|444:270|444:270|467:337|467:337|502:275|502:275|482:207|482:207|486:146|486:146|475:86|475:86|432:43|432:43|400:140|400:140,1,569.6,6|10,1:2|0:0,0:0:0:0:
288,80,72035,1,0,0:0:0:0:
68,80,72281,1,2,1:2:0:0:
184,80,72527,1,2,0:0:0:0:
68,80,72773,2,0,L|65:141|65:141|49:200|49:200|55:261|55:261|64:363|64:363,1,284.8,10|0,0:3|0:0,0:0:0:0:
376,184,73264,5,2,1:3:0:0:
248,184,73510,1,2,0:0:0:0:
376,184,73756,2,0,L|376:245|376:245|371:306|371:306|387:365|387:365|384:263|384:263,1,284.8,10|0,0:0|0:0,0:0:0:0:
256,288,74248,1,2,1:3:0:0:
384,288,74494,1,2,0:0:0:0:
168,288,74740,2,0,L|145:344|145:344|139:284|139:284|119:226|119:226|64:140|64:140,1,284.8,10|0,0:0|0:0,0:0:0:0:
376,288,75232,5,2,1:2:0:0:
260,288,75478,1,2,0:0:0:0:
148,288,75723,2,0,L|165:346|165:346|142:290|142:290|143:229|143:229|141:127|141:127,1,284.8,10|0,0:0|0:0,0:0:0:0:
256,184,76215,1,2,1:3:0:0:
140,184,76461,1,2,0:0:0:0:
360,184,76707,2,0,L|352:244|352:244|380:298|380:298|367:357|367:357|368:255|368:255,1,284.8,10|0,0:3|0:0,0:0:0:0:
56,80,77199,5,2,1:3:0:0:
172,80,77445,1,2,0:0:0:0:
56,80,77691,2,0,L|60:141|60:141|51:201|51:201|35:260|35:260|49:362|49:362,1,284.8,10|0,0:0|0:0,0:0:0:0:
268,188,78182,2,0,L|277:248|277:248|312:297|312:297|341:351|341:351|363:251|363:251,1,284.8,2|2,1:2|0:0,0:0:0:0:
140,184,78674,1,10,0:3:0:0:
84,196,78797,1,2,0:3:0:0:
48,248,78920,1,2,0:3:0:0:
360,248,79166,6,0,B|371:318|371:318|390:249|390:249|399:178|399:178|391:107|391:107|368:51|368:51|372:112|372:112|323:149|323:149|305:250|305:250,1,569.6,4|10,1:2|0:0,0:0:0:0:
188,112,79904,1,0,0:0:0:0:
408,112,80150,1,2,1:3:0:0:
292,112,80396,1,2,0:0:0:0:
408,112,80641,2,0,L|422:171|422:171|412:231|412:231|399:290|399:290|416:189|416:189,1,284.8,10|0,0:0|0:0,0:0:0:0:
104,216,81133,5,2,1:3:0:0:
220,216,81379,1,2,0:0:0:0:
104,216,81625,2,0,L|97:276|97:276|110:335|110:335|93:277|93:277|97:173|97:173,1,284.800004679988,10|0,0:0|0:0,0:0:0:0:
212,320,82117,1,2,1:3:0:0:
96,320,82363,1,2,0:3:0:0:
312,320,82609,2,0,L|332:377|332:377|374:333|374:333|376:272|376:272|416:178|416:178,1,284.8,10|0,0:0|0:0,0:0:0:0:
104,320,83100,6,0,L|97:380|97:380|85:321|85:321|105:264|105:264|96:161|96:161,1,284.800004679988,2|0,1:3|0:0,0:0:0:0:
312,216,83592,2,0,L|323:276|323:276|308:335|308:335|334:280|334:280|320:178|320:178,1,284.8,10|0,0:0|0:0,0:0:0:0:
204,112,84084,1,2,1:3:0:0:
320,112,84330,1,2,0:0:0:0:
104,112,84576,2,0,L|114:172|114:172|93:229|93:229|91:290|91:290|96:188|96:188,1,284.8,10|0,0:0|0:0,0:0:0:0:
416,112,85068,6,0,L|409:172|409:172|419:232|419:232|438:290|438:290|424:188|424:188,1,284.8,2|0,1:2|0:0,0:0:0:0:
308,8,85559,1,10,0:3:0:0:
424,8,85805,1,0,0:0:0:0:
208,8,86051,5,2,1:3:0:0:
152,24,86174,1,8,0:0:0:0:
156,80,86297,1,8,0:0:0:0:
212,96,86420,1,10,0:3:0:0:
340,96,86543,1,2,1:3:0:0:
396,112,86666,1,0,1:2:0:0:
412,168,86789,1,10,0:3:0:0:
100,168,87035,6,0,B|63:229|63:229|57:300|57:300|48:371|48:371|45:300|45:300|31:230|31:230|46:160|46:160|66:92|66:92|96:27|96:27|131:77|131:77|134:138|134:138|150:197|150:197|194:290|194:290,1,854.4,4|0,1:2|0:0,0:0:0:0:
