osu file format v14

[General]
AudioFilename: audio.mp3
AudioLeadIn: 0
PreviewTime: 39822
Countdown: 0
SampleSet: Soft
StackLeniency: 0.7
Mode: 0
LetterboxInBreaks: 0
WidescreenStoryboard: 1

[Editor]
Bookmarks: 24084,39822,55559,71297,79166
DistanceSpacing: 1.3
BeatDivisor: 4
GridSize: 8
TimelineZoom: 1

[Metadata]
Title:LOST IN PARADISE feat. AKLO (TV Size)
TitleUnicode:LOST IN PARADISE feat. AKLO (TV Size)
Artist:ALI
ArtistUnicode:ALI
Creator:HeTo
Version:HARD
Source:呪術廻戦
Tags:japanese english ed ending anime pop jpop j-pop Jujutsu Kaisen Sorcery Fight Alien Liberty International Funk Soul Jazz Hip Hop Band
BeatmapID:2681945
BeatmapSetID:1291596

[Difficulty]
HPDrainRate:4.5
CircleSize:3.5
OverallDifficulty:6
ApproachRate:7.3
SliderMultiplier:1.6
SliderTickRate:1

[Events]
//Background and Video events
Video,0,"ed.mp4"
0,0,"b3.jpg",0,0
//Break Periods
//Storyboard Layer 0 (Background)
//Storyboard Layer 1 (Fail)
//Storyboard Layer 2 (Pass)
//Storyboard Layer 3 (Foreground)
//Storyboard Layer 4 (Overlay)
//Storyboard Sound Samples

[TimingPoints]
478,491.803278688525,4,2,1,55,1,0
478,-83.3333333333333,4,2,1,55,0,0
8346,-90.9090909090909,4,2,1,55,0,0
37609,-71.4285714285714,4,2,1,55,0,0
39330,-66.6666666666667,4,2,1,55,0,1
39822,-66.6666666666667,4,2,1,65,0,0
55068,-66.6666666666667,4,2,1,65,0,1
55559,-66.6666666666667,4,2,1,65,0,0
71297,-66.6666666666667,4,2,1,75,0,0
79166,-66.6666666666667,4,2,1,65,0,0
87035,-83.3333333333333,4,2,1,65,0,0
87773,-83.3333333333333,4,2,1,5,0,0

[Colours]
Combo1 : 192,192,192
Combo2 : 255,102,102

[HitObjects]
369,21,478,6,0,L|286:36,1,47.9999985351563,6|2,1:2|0:0,0:0:0:0:
280,69,723,2,0,L|189:50,1,47.9999985351563,2|2,0:0|0:0,0:0:0:0:
189,20,969,2,0,B|56:6|129:91|-6:85,1,191.999994140625,10|2,0:0|1:2,0:0:0:0:
5,106,1584,2,0,P|16:168|23:238,1,95.9999970703126,2|0,0:0|0:0,0:0:0:0:
26,258,1953,1,10,0:0:0:0:
86,356,2199,6,0,B|135:359|135:359|142:366|142:366|200:369,1,95.9999970703126,2|0,0:0|1:2,0:0:0:0:
214,257,2691,2,0,P|257:237|320:274,1,95.9999970703126,2|10,0:0|0:0,0:0:0:0:
350,354,3182,2,0,P|393:374|456:337,1,95.9999970703126,2|0,0:0|1:2,0:0:0:0:
501,264,3674,2,0,L|504:194,1,47.9999985351563,2|0,0:0|0:0,0:0:0:0:
500,158,3920,2,0,B|402:163|453:105|342:116,1,143.999995605469,8|2,0:0|0:0,0:0:0:0:
344,125,4412,6,0,P|324:172|349:231,1,95.9999970703126,2|0,1:2|0:0,0:0:0:0:
363,325,4904,1,10,0:0:0:0:
253,361,5150,2,0,L|194:353,1,47.9999985351563,2|0,0:0|0:0,0:0:0:0:
155,325,5396,2,0,B|111:335|111:335|106:343|106:343|37:355,1,95.9999970703126,2|0,1:2|0:0,0:0:0:0:
5,267,5887,1,10,0:0:0:0:
73,185,6133,2,0,L|77:131,1,47.9999985351563,2|0,0:0|0:0,0:0:0:0:
90,85,6379,5,2,1:2:0:0:
89,84,6502,2,0,P|54:52|8:58,2,95.9999970703126,2|2|2,0:0|0:0|0:0,0:0:0:0:
174,147,7240,2,0,B|266:148|214:102|327:110,1,143.999995605469,2|2,0:0|0:0,0:0:0:0:
409,76,7855,1,10,0:0:0:0:
409,76,7978,1,2,0:0:0:0:
409,76,8100,2,0,L|472:86,1,47.9999985351563,2|2,0:0|0:0,0:0:0:0:
500,104,8346,6,0,B|520:147|520:147|498:207,1,88.000002685547,6|2,1:2|0:0,0:0:0:0:
501,233,8715,1,2,0:0:0:0:
501,233,8838,1,10,0:0:0:0:
496,329,9084,2,0,B|378:346|436:280|312:293,1,176.000005371094,2|2,0:0|0:1,0:0:0:0:
239,255,9822,2,0,P|224:208|251:157,1,88.000002685547,10|2,0:0|0:0,0:0:0:0:
316,119,10314,6,0,P|331:72|304:21,1,88.000002685547,2|2,1:2|0:1,0:0:0:0:
276,14,10682,1,2,0:0:0:0:
276,14,10805,2,0,B|234:18|234:18|228:26|228:26|158:31,1,88.000002685547,10|2,0:0|0:0,0:0:0:0:
151,54,11174,1,2,0:0:0:0:
151,54,11297,1,0,1:2:0:0:
60,20,11543,2,0,B|45:139|96:67|80:202,1,176.000005371094,2|2,0:1|0:0,0:0:0:0:
26,271,12281,6,0,P|78:281|118:259,1,88.000002685547,2|2,1:2|0:1,0:0:0:0:
147,238,12650,1,2,0:0:0:0:
147,238,12773,1,10,0:0:0:0:
234,278,13018,1,2,0:0:0:0:
305,213,13264,2,0,P|294:139|290:111,1,88.000002685547,2|2,0:0|0:1,0:0:0:0:
296,77,13633,1,2,0:0:0:0:
296,77,13756,2,0,P|347:53|390:71,1,88.000002685547,10|2,0:0|0:0,0:0:0:0:
448,124,14248,5,2,1:2:0:0:
390,201,14494,1,2,0:1:0:0:
436,286,14740,2,0,P|489:297|519:263,1,88.000002685547,10|2,0:0|0:0,0:0:0:0:
390,201,15232,2,0,P|323:213|299:218,1,88.000002685547,2|2,1:2|0:1,0:0:0:0:
255,223,15600,1,2,0:0:0:0:
255,223,15723,2,0,P|231:170|253:135,1,88.000002685547,10|0,0:0|0:0,0:0:0:0:
219,51,16215,6,0,B|180:46|180:46|169:40|169:40|100:36,1,88.000002685547,2|2,1:2|0:1,0:0:0:0:
86,53,16584,1,0,0:0:0:0:
86,53,16707,2,0,P|77:84|90:105,1,44.0000013427735,10|2,0:0|0:0,0:0:0:0:
103,137,16953,1,2,0:0:0:0:
155,218,17199,2,0,B|97:228|97:228|89:244|89:244|27:257,1,132.00000402832,2|2,1:2|0:0,0:0:0:0:
1,287,17691,1,10,0:0:0:0:
55,366,17937,1,2,0:0:0:0:
55,366,18059,6,0,B|109:354|109:354|117:338|117:338|175:328,1,132.00000402832,2|2,0:0|0:1,0:0:0:0:
254,272,18674,2,0,P|274:228|245:180,1,88.000002685547,10|2,0:0|0:0,0:0:0:0:
172,153,19166,2,0,P|169:89|231:52,1,132.00000402832,2|0,1:2|0:0,0:0:0:0:
238,42,19658,2,0,B|280:49|280:49|288:58|288:58|352:70,1,88.000002685547,10|0,0:0|0:0,0:0:0:0:
402,10,20150,6,0,P|442:-5|504:21,1,88.000002685547,2|2,1:2|0:0,0:0:0:0:
510,46,20518,1,2,0:0:0:0:
510,46,20641,2,0,P|506:106|504:147,1,88.000002685547,10|0,0:0|0:0,0:0:0:0:
497,230,21133,2,0,P|430:244|415:267,1,88.000002685547,2|2,1:2|0:1,0:0:0:0:
404,300,21502,1,2,0:0:0:0:
404,300,21625,2,0,P|360:300|327:273,1,88.000002685547,10|0,0:0|0:0,0:0:0:0:
249,188,22117,6,0,P|253:120|260:25,1,132.00000402832,2|0,1:2|0:0,0:0:0:0:
244,35,22609,2,0,P|198:8|146:38,1,88.000002685547,10|0,0:0|0:0,0:0:0:0:
127,44,22978,1,8,0:0:0:0:
127,44,23100,1,10,0:0:0:0:
58,111,23346,1,10,0:0:0:0:
122,184,23592,2,0,L|118:241,1,44.0000013427735,2|8,1:2|0:0,0:0:0:0:
109,275,23838,1,0,1:2:0:0:
84,368,24084,6,0,B|198:367|120:305|264:318,1,176.000005371094,6|10,1:2|0:0,0:0:0:0:
308,254,24822,1,0,0:0:0:0:
308,254,25068,2,0,P|310:191|317:117,1,132.00000402832,2|0,1:2|0:0,0:0:0:0:
324,79,25559,1,10,0:0:0:0:
246,37,25805,1,2,0:0:0:0:
180,96,26051,6,0,B|181:135|181:135|186:139|186:139|188:210,1,88.000002685547,0|2,1:2|0:0,0:0:0:0:
168,267,26543,1,8,0:0:0:0:
245,351,26789,2,0,B|325:347|289:315|368:313,1,132.00000402832,2|0,0:0|0:0,0:0:0:0:
412,319,27281,1,2,0:0:0:0:
472,255,27527,1,10,0:0:0:0:
421,182,27773,1,2,0:0:0:0:
499,142,28018,6,0,P|456:100|374:107,1,132.00000402832,2|2,1:2|0:0,0:0:0:0:
371,115,28510,2,0,P|368:173|363:216,1,88.000002685547,10|0,0:0|0:0,0:0:0:0:
340,244,28879,1,2,0:0:0:0:
340,244,29002,2,0,P|280:261|241:233,1,88.000002685547,2|2,1:2|0:0,0:0:0:0:
218,163,29494,1,10,0:0:0:0:
275,84,29740,1,2,0:0:0:0:
201,0,29986,6,0,B|143:9|143:9|136:18|136:18|43:34,1,132.00000402832,2|0,1:2|0:0,0:0:0:0:
56,40,30478,2,0,P|32:86|49:125,1,88.000002685547,10|0,0:0|0:0,0:0:0:0:
115,181,30969,2,0,P|182:168|221:162,1,88.000002685547,2|2,1:2|0:0,0:0:0:0:
278,105,31461,1,10,0:0:0:0:
344,175,31707,1,2,0:0:0:0:
405,112,31953,6,0,P|466:104|508:182,1,132.00000402832,2|0,1:2|0:0,0:0:0:0:
508,176,32445,2,0,P|500:249|498:276,1,88.000002685547,10|0,0:0|0:0,0:0:0:0:
496,360,32937,2,0,P|445:376|405:351,1,88.000002685547,2|0,1:2|0:1,0:0:0:0:
346,294,33428,1,10,0:0:0:0:
398,212,33674,1,2,0:0:0:0:
338,135,33920,6,0,B|300:114|300:114|245:141,1,88.000002685547,0|2,1:2|0:1,0:0:0:0:
204,213,34412,1,8,0:0:0:0:
218,318,34658,2,0,B|124:310|178:272|58:265,1,132.00000402832,2|0,0:0|0:0,0:0:0:0:
75,272,35150,2,0,P|79:229|66:175,1,88.000002685547,2|8,0:0|0:0,0:0:0:0:
43,92,35641,1,2,0:0:0:0:
101,14,35887,6,0,B|162:20|162:20|171:28|171:28|244:35,1,132.00000402832,2|2,1:2|0:0,0:0:0:0:
243,50,36379,2,0,P|254:118|258:160,1,88.000002685547,10|0,0:0|0:0,0:0:0:0:
284,229,36871,2,0,B|324:234|324:234|330:242|330:242|370:249,1,88.000002685547,2|2,1:2|0:0,0:0:0:0:
458,238,37363,1,8,0:0:0:0:
504,125,37609,2,0,B|517:98|517:98|497:64,1,55.9999982910157,10|0,0:0|0:0,0:0:0:0:
461,8,37855,5,0,1:2:0:0:
324,58,38100,2,0,L|265:45,1,55.9999982910157,10|0,0:0|0:0,0:0:0:0:
199,8,38346,2,0,P|181:42|198:87,1,55.9999982910157,10|0,1:2|0:0,0:0:0:0:
234,125,38592,2,0,P|252:159|235:204,1,55.9999982910157,10|0,1:2|0:0,0:0:0:0:
221,255,38838,2,0,B|180:261|180:261|158:276|158:276|96:285,1,111.999996582031,10|0,1:2|1:2,0:0:0:0:
2,158,39330,2,0,P|14:100|123:80,1,180.000006866455,14|0,0:0|0:0,0:0:0:0:
172,135,39822,6,0,B|231:123|231:123|237:114|237:114|304:103,1,120.000004577637,6|2,1:2|0:1,0:0:0:0:
419,25,40314,2,0,P|379:69|394:139,1,120.000004577637,10|2,0:0|0:1,0:0:0:0:
499,231,40805,2,0,L|493:304,1,60.0000022888184,2|0,1:2|0:0,0:0:0:0:
476,367,41051,1,2,0:1:0:0:
363,260,41297,2,0,B|273:257|333:308|230:310,1,120.000004577637,10|2,0:0|0:1,0:0:0:0:
143,188,41789,6,0,P|137:124|195:85,1,120.000004577637,2|2,1:2|0:1,0:0:0:0:
259,105,42158,1,0,0:0:0:0:
259,105,42281,2,0,P|249:182|245:229,1,120.000004577637,10|2,0:0|0:1,0:0:0:0:
134,353,42773,2,0,B|102:364|102:364|61:347,1,60.0000022888184,2|0,1:2|0:0,0:0:0:0:
48,281,43018,1,2,0:1:0:0:
235,233,43264,2,0,B|357:232|273:291|425:299,1,180.000006866455,10|0,0:0|0:0,0:0:0:0:
468,264,43756,6,0,P|471:203|476:127,1,120.000004577637,2|2,1:2|0:1,0:0:0:0:
380,18,44248,1,8,0:0:0:0:
380,18,44371,2,0,B|330:23|330:23|318:39|318:39|232:53,1,120.000004577637,2|0,0:0|0:0,0:0:0:0:
190,57,44740,2,0,P|159:107|192:163,1,120.000004577637,2|2,1:2|0:1,0:0:0:0:
286,275,45232,2,0,B|341:268|341:268|351:256|351:256|410:252,1,120.000004577637,10|2,0:0|0:1,0:0:0:0:
450,193,45600,6,0,B|474:215|482:244|482:244|463:320,1,120.000004577637,2|0,0:0|0:0,0:0:0:0:
405,354,45969,2,0,L|283:360,1,120.000004577637,2|8,0:1|0:0,0:0:0:0:
212,328,46338,2,0,P|201:293|217:255,1,60.0000022888184,2|0,0:0|0:0,0:0:0:0:
304,149,46707,1,0,1:2:0:0:
304,149,46830,1,0,0:0:0:0:
304,149,46953,2,0,L|309:71,1,60.0000022888184,2|0,0:1|0:0,0:0:0:0:
254,31,47199,2,0,P|196:7|145:39,1,120.000004577637,10|2,0:0|0:1,0:0:0:0:
6,96,47691,6,0,P|19:171|30:240,1,120.000004577637,6|2,1:2|0:1,0:0:0:0:
4,368,48182,2,0,B|52:356|52:356|68:333|68:333|137:316,1,120.000004577637,10|2,0:0|0:1,0:0:0:0:
215,207,48674,2,0,L|212:138,1,60.0000022888184,2|0,1:2|0:0,0:0:0:0:
204,68,48920,1,2,0:1:0:0:
352,20,49166,2,0,P|420:19|455:71,1,120.000004577637,10|2,0:0|0:1,0:0:0:0:
492,206,49658,6,0,P|429:192|370:182,1,120.000004577637,2|2,1:2|0:1,0:0:0:0:
298,204,50027,1,0,0:0:0:0:
298,204,50150,2,0,B|294:154|294:154|310:133|310:133|301:55,1,120.000004577637,8|2,0:0|0:1,0:0:0:0:
166,18,50641,2,0,B|136:8|136:8|81:24,1,60.0000022888184,2|0,1:2|0:0,0:0:0:0:
46,64,50887,1,2,0:1:0:0:
48,255,51133,2,0,B|170:256|86:197|238:189,1,180.000006866455,10|0,0:0|0:0,0:0:0:0:
273,236,51625,6,0,P|299:289|268:351,1,120.000004577637,2|2,1:2|0:1,0:0:0:0:
140,266,52117,1,10,0:0:0:0:
140,266,52240,2,0,P|134:200|129:144,1,120.000004577637,2|2,0:0|0:0,0:0:0:0:
150,70,52609,2,0,B|194:65|194:65|220:40|220:40|288:37,1,120.000004577637,2|2,1:2|0:1,0:0:0:0:
312,184,53100,2,0,P|378:170|400:122,1,120.000004577637,10|2,0:0|0:1,0:0:0:0:
259,38,53592,6,0,L|128:21,1,120.000004577637,2|2,1:2|0:1,0:0:0:0:
21,124,54084,2,0,P|28:188|32:247,1,120.000004577637,10|2,0:0|0:1,0:0:0:0:
51,319,54453,1,8,0:0:0:0:
51,319,54576,2,0,B|98:320|98:320|117:346|117:346|193:355,1,120.000004577637,2|10,1:2|0:0,0:0:0:0:
284,259,55068,2,0,P|278:188|157:185,1,180.000006866455,2|0,1:2|0:0,0:0:0:0:
186,240,55559,6,0,P|196:317|204:393,1,120.000004577637,2|2,1:2|0:1,0:0:0:0:
357,366,56051,2,0,P|363:306|371:246,1,120.000004577637,10|2,0:0|0:1,0:0:0:0:
437,104,56543,2,0,P|414:84|378:88,1,60.0000022888184,2|0,1:2|0:0,0:0:0:0:
316,122,56789,1,2,0:1:0:0:
182,41,57035,1,10,0:0:0:0:
42,110,57281,6,0,P|49:178|55:245,1,120.000004577637,2|0,0:1|1:2,0:0:0:0:
134,363,57773,2,0,P|167:368|205:347,1,60.0000022888184,2|0,0:1|0:0,0:0:0:0:
233,293,58018,1,10,0:0:0:0:
233,293,58141,2,0,P|239:233|247:173,2,120.000004577637,2|2|2,0:0|0:0|0:0,0:0:0:0:
278,357,58756,1,2,0:1:0:0:
434,355,59002,2,0,P|488:343|486:278,1,120.000004577637,10|2,0:0|0:1,0:0:0:0:
496,207,59371,1,2,0:0:0:0:
496,207,59494,6,0,P|490:147|484:87,1,120.000004577637,2|2,1:2|0:1,0:0:0:0:
327,85,59986,2,0,P|320:144|315:204,1,120.000004577637,10|2,0:0|0:1,0:0:0:0:
220,329,60478,2,0,P|185:339|139:312,1,60.0000022888184,2|0,1:2|0:0,0:0:0:0:
85,342,60723,1,2,0:1:0:0:
24,198,60969,1,10,0:0:0:0:
152,109,61215,6,0,P|140:192|131:271,1,120.000004577637,2|0,0:1|1:2,0:0:0:0:
31,110,61707,2,0,P|23:50|18:12,1,60.0000022888184,2|0,0:1|0:0,0:0:0:0:
96,22,61953,1,10,0:0:0:0:
95,21,62076,2,0,P|176:16|212:73,1,120.000004577637,2|2,0:0|0:0,0:0:0:0:
244,103,62445,2,0,B|297:102|297:102|320:124|320:124|390:122,1,120.000004577637,2|2,1:2|0:1,0:0:0:0:
512,136,62937,1,10,0:0:0:0:
512,136,63059,2,0,P|485:86|405:101,1,120.000004577637,2|0,0:0|0:0,0:0:0:0:
355,122,63428,6,0,P|365:197|376:269,1,120.000004577637,6|2,1:2|0:1,0:0:0:0:
492,342,63920,2,0,P|500:282|508:223,1,120.000004577637,10|2,0:0|0:1,0:0:0:0:
400,337,64412,2,0,P|365:330|333:326,1,60.0000022888184,2|0,1:2|0:0,0:0:0:0:
263,339,64658,1,2,0:1:0:0:
165,217,64904,1,10,0:0:0:0:
267,98,65150,6,0,P|341:118|409:126,1,120.000004577637,2|0,0:1|1:2,0:0:0:0:
297,253,65641,2,0,P|237:262|202:273,1,60.0000022888184,2|0,0:1|0:0,0:0:0:0:
159,251,65887,1,10,0:0:0:0:
159,251,66010,2,0,P|139:182|171:135,1,120.000004577637,2|2,0:0|0:0,0:0:0:0:
172,65,66379,2,0,B|123:55|123:55|103:33|103:33|30:21,1,120.000004577637,0|2,1:2|0:1,0:0:0:0:
5,172,66871,2,0,P|15:246|24:304,1,120.000004577637,10|2,0:0|0:0,0:0:0:0:
18,369,67240,1,2,0:0:0:0:
18,369,67363,6,0,P|79:360|110:302,1,120.000004577637,2|0,1:2|0:0,0:0:0:0:
189,179,67855,2,0,B|276:177|227:227|331:217,1,120.000004577637,10|2,0:0|0:1,0:0:0:0:
392,342,68346,2,0,P|424:345|458:319,1,60.0000022888184,2|0,1:2|0:0,0:0:0:0:
495,269,68592,1,2,0:1:0:0:
391,151,68838,1,10,0:0:0:0:
498,38,69084,6,0,B|452:40|452:40|424:64|424:64|362:69,1,120.000004577637,2|0,0:1|1:2,0:0:0:0:
236,24,69576,2,0,P|216:55|222:93,1,60.0000022888184,2|0,0:1|0:0,0:0:0:0:
269,135,69822,2,0,P|292:212|273:246,1,120.000004577637,10|0,0:0|0:0,0:0:0:0:
237,312,70191,1,8,0:0:0:0:
237,312,70314,1,2,1:2:0:0:
91,366,70559,1,10,0:0:0:0:
91,366,70682,1,10,0:0:0:0:
91,366,70805,2,0,B|80:334|80:334|98:304,1,60.0000022888184,2|2,1:2|0:0,0:0:0:0:
261,147,71297,6,0,B|379:140|314:202|457:195,1,180.000006866455,2|0,1:2|0:0,0:0:0:0:
445,201,71789,2,0,P|487:146|453:82,1,120.000004577637,10|2,0:0|0:1,0:0:0:0:
341,18,72281,2,0,L|266:31,1,60.0000022888184,2|0,1:2|0:0,0:0:0:0:
204,43,72527,1,2,0:1:0:0:
50,15,72773,2,0,B|57:65|57:65|48:84|48:84|57:142,1,120.000004577637,10|2,0:0|0:1,0:0:0:0:
72,287,73264,6,0,B|148:280|103:243|207:238,1,120.000004577637,2|2,1:2|0:1,0:0:0:0:
268,109,73756,2,0,P|309:164|275:228,1,120.000004577637,10|2,0:0|0:1,0:0:0:0:
337,360,74248,2,0,L|412:347,1,60.0000022888184,2|0,1:2|0:0,0:0:0:0:
474,345,74494,1,2,0:1:0:0:
509,193,74740,2,0,B|502:144|502:144|489:129|489:129|481:79,1,120.000004577637,10|2,0:0|0:1,0:0:0:0:
340,11,75232,6,0,P|267:35|270:96,1,120.000004577637,2|2,1:2|0:1,0:0:0:0:
293,222,75723,2,0,B|367:221|329:263|431:255,1,120.000004577637,10|2,0:0|0:1,0:0:0:0:
462,110,76215,2,0,P|423:86|390:89,1,60.0000022888184,2|0,1:2|0:0,0:0:0:0:
340,122,76461,1,2,0:1:0:0:
208,37,76707,2,0,B|212:85|212:85|225:101|225:101|231:151,1,120.000004577637,10|2,0:0|0:1,0:0:0:0:
136,276,77199,6,0,P|66:285|28:234,1,120.000004577637,0|2,1:2|0:1,0:0:0:0:
8,99,77691,1,10,0:0:0:0:
8,99,77814,2,0,B|57:102|57:102|76:116|76:116|146:125,1,120.000004577637,0|0,0:0|0:0,0:0:0:0:
185,75,78182,2,0,B|252:70|212:34|294:30,1,120.000004577637,2|2,1:2|0:1,0:0:0:0:
443,70,78674,2,0,L|439:136,1,60.0000022888184,10|2,0:0|0:0,0:0:0:0:
467,203,78920,1,2,0:1:0:0:
382,334,79166,6,0,B|264:341|329:279|186:286,1,180.000006866455,2|0,1:2|0:0,0:0:0:0:
194,292,79658,2,0,P|161:239|197:180,1,120.000004577637,10|2,0:0|0:1,0:0:0:0:
337,209,80150,2,0,P|372:209|419:195,1,60.0000022888184,2|0,1:2|0:0,0:0:0:0:
468,172,80396,1,2,0:1:0:0:
495,18,80641,2,0,P|418:33|420:90,1,120.000004577637,10|2,0:0|0:1,0:0:0:0:
279,149,81133,6,0,B|202:152|248:104|129:102,1,120.000004577637,2|2,1:2|0:0,0:0:0:0:
44,13,81625,2,0,P|5:56|19:112,1,120.000004577637,10|0,0:0|0:1,0:0:0:0:
8,272,82117,2,0,P|44:258|76:253,1,60.0000022888184,2|0,1:2|0:0,0:0:0:0:
143,261,82363,1,2,0:1:0:0:
178,108,82609,2,0,P|247:123|253:180,1,120.000004577637,10|0,0:0|0:1,0:0:0:0:
321,306,83100,6,0,B|374:296|374:296|393:277|393:277|465:266,1,120.000004577637,2|2,1:2|0:1,0:0:0:0:
488,326,83469,1,0,0:0:0:0:
488,326,83592,2,0,P|512:261|474:208,1,120.000004577637,10|2,0:0|0:1,0:0:0:0:
394,95,84084,2,0,P|351:96|321:119,1,60.0000022888184,2|0,1:2|0:0,0:0:0:0:
282,160,84330,1,2,0:0:0:0:
206,296,84576,2,0,B|121:300|170:253|63:258,1,120.000004577637,10|2,0:0|0:1,0:0:0:0:
5,130,85068,6,0,P|23:67|82:57,1,120.000004577637,2|2,1:2|0:1,0:0:0:0:
138,92,85437,1,0,0:0:0:0:
138,92,85559,2,0,B|190:86|190:86|209:68|209:68|258:64,1,120.000004577637,10|2,0:0|0:1,0:0:0:0:
333,80,85928,1,8,0:0:0:0:
333,80,86051,6,0,L|343:10,1,60.0000022888184,10|8,0:0|0:0,0:0:0:0:
424,38,86297,2,0,L|414:108,1,60.0000022888184,10|8,0:0|0:0,0:0:0:0:
360,161,86543,1,10,0:0:0:0:
431,312,86789,1,8,0:3:0:0:
431,312,86912,1,6,0:3:0:0:
431,312,87035,6,0,B|239:314|365:210|133:216,1,287.999991210938,10|0,0:0|0:0,0:0:0:0:
