osu file format v14

[General]
AudioFilename: audio.mp3
AudioLeadIn: 0
PreviewTime: 39822
Countdown: 0
SampleSet: Soft
StackLeniency: 0.7
Mode: 0
LetterboxInBreaks: 0
WidescreenStoryboard: 0

[Editor]
Bookmarks: 24084,39822,55559,71297,79166
DistanceSpacing: 1
BeatDivisor: 4
GridSize: 8
TimelineZoom: 1

[Metadata]
Title:LOST IN PARADISE feat. AKLO (TV Size)
TitleUnicode:LOST IN PARADISE feat. AKLO (TV Size)
Artist:ALI
ArtistUnicode:ALI
Creator:HeTo
Version:FEELING
Source:呪術廻戦
Tags:japanese english ed ending anime pop jpop j-pop Jujutsu Kaisen Sorcery Fight Alien Liberty International Funk Soul Jazz Hip Hop Band
BeatmapID:2680865
BeatmapSetID:1291596

[Difficulty]
HPDrainRate:5.5
CircleSize:4.2
OverallDifficulty:8.4
ApproachRate:9.2
SliderMultiplier:1.8
SliderTickRate:1

[Events]
//Background and Video events
Video,0,"ed.mp4"
0,0,"b.jpg",0,0
//Break Periods
//Storyboard Layer 0 (Background)
//Storyboard Layer 1 (Fail)
//Storyboard Layer 2 (Pass)
//Storyboard Layer 3 (Foreground)
//Storyboard Layer 4 (Overlay)
//Storyboard Sound Samples

[TimingPoints]
478,491.803278688525,4,2,1,55,1,0
478,-76.9230769230769,4,2,1,55,0,0
6379,-66.6666666666667,4,2,1,55,0,0
8346,-76.9230769230769,4,2,1,55,0,0
24576,-83.3333333333333,4,2,1,55,0,0
26789,-71.4285714285714,4,2,1,55,0,0
27527,-83.3333333333333,4,2,1,55,0,0
34658,-71.4285714285714,4,2,1,55,0,0
35887,-83.3333333333333,4,2,1,55,0,0
37609,-71.4285714285714,4,2,1,55,0,0
37855,-66.6666666666667,4,2,1,55,0,0
39330,-52.6315789473684,4,2,1,55,0,1
39822,-54.9450549450549,4,2,1,65,0,0
42957,-54.9450549450549,4,2,1,5,0,0
43018,-54.9450549450549,4,2,1,65,0,0
50826,-54.9450549450549,4,2,1,5,0,0
50887,-54.9450549450549,4,2,1,65,0,0
55068,-47.1698113207547,4,2,1,65,0,1
55559,-192.307692307692,4,2,1,65,0,0
56051,-54.9450549450549,4,2,1,65,0,0
56543,-49.5049504950495,4,2,1,65,0,0
57281,-54.9450549450549,4,2,1,65,0,0
59494,-192.307692307692,4,2,1,65,0,0
59986,-54.9450549450549,4,2,1,65,0,0
60478,-49.5049504950495,4,2,1,65,0,0
61215,-54.9450549450549,4,2,1,65,0,0
63428,-192.307692307692,4,2,1,65,0,0
63920,-54.9450549450549,4,2,1,65,0,0
64412,-49.5049504950495,4,2,1,65,0,0
65150,-54.9450549450549,4,2,1,65,0,0
67363,-192.307692307692,4,2,1,65,0,0
67855,-54.9450549450549,4,2,1,65,0,0
68346,-49.5049504950495,4,2,1,65,0,0
69084,-54.9450549450549,4,2,1,65,0,0
71297,-54.9450549450549,4,2,1,75,0,0
79166,-58.1395348837209,4,2,1,65,0,0
87035,-75.7575757575758,4,2,1,65,0,0
87773,-75.7575757575758,4,2,1,5,0,0

[Colours]
Combo1 : 192,192,192
Combo2 : 255,128,0

[HitObjects]
424,130,478,5,6,1:2:0:0:
407,122,600,1,2,0:0:0:0:
487,198,723,5,2,0:0:0:0:
504,190,845,1,2,0:0:0:0:
421,279,969,6,0,B|355:272|355:272|324:241|324:241|245:232,1,175.499991966248,10|0,0:0|0:0,0:0:0:0:
122,153,1461,1,2,1:2:0:0:
181,102,1584,2,0,P|170:177|164:239,1,116.999994644165,2|0,0:0|0:0,0:0:0:0:
54,275,1953,2,0,P|60:240|59:203,1,58.4999973220826,10|0,0:0|0:0,0:0:0:0:
0,73,2199,1,2,0:0:0:0:
46,137,2322,1,2,0:0:0:0:
156,31,2445,1,0,1:2:0:0:
156,31,2691,6,0,P|128:20|101:9,1,58.4999973220826,2|0,0:0|0:0,0:0:0:0:
216,134,2937,1,10,0:0:0:0:
216,134,3182,6,0,P|243:123|270:112,1,58.4999973220826,2|0,0:0|0:0,0:0:0:0:
168,230,3428,1,0,1:2:0:0:
168,230,3674,6,0,P|141:219|114:208,1,58.4999973220826,2|0,0:0|0:0,0:0:0:0:
284,194,3920,2,0,P|276:246|264:328,1,116.999994644165,8|0,0:0|0:0,0:0:0:0:
297,380,4289,1,2,0:0:0:0:
510,257,4412,6,0,P|492:199|375:207,1,175.499991966248,2|0,1:2|0:0,0:0:0:0:
360,311,4904,2,0,P|369:346|376:380,1,58.4999973220826,10|0,0:0|0:0,0:0:0:0:
464,197,5150,2,0,P|456:168|450:140,1,58.4999973220826,2|0,0:0|0:0,0:0:0:0:
321,35,5396,6,0,B|199:37|285:92|146:100,1,175.499991966248,2|0,1:2|0:0,0:0:0:0:
116,3,5887,2,0,P|154:5|184:35,1,58.4999973220826,10|0,0:0|0:0,0:0:0:0:
308,134,6133,2,0,P|276:145|231:165,1,58.4999973220826,2|0,0:0|0:0,0:0:0:0:
116,246,6379,5,2,1:2:0:0:
188,314,6502,2,0,P|194:274|205:235,1,67.5000025749208,2|0,0:0|0:0,0:0:0:0:
69,128,6748,2,0,P|63:168|52:210,1,67.5000025749208,2|8,0:0|0:0,0:0:0:0:
295,292,6994,2,0,P|289:252|280:216,1,67.5000025749208,2|0,0:0|0:0,0:0:0:0:
96,340,7240,2,0,P|165:349|223:389,1,135.000005149842,2|0,0:0|0:0,0:0:0:0:
354,198,7609,5,2,0:0:0:0:
293,151,7732,1,2,0:0:0:0:
370,114,7855,5,8,0:0:0:0:
388,101,7978,1,2,0:0:0:0:
333,37,8100,5,2,0:0:0:0:
315,24,8223,1,2,0:0:0:0:
483,126,8346,6,0,P|478:155|473:195,1,58.4999973220826,6|2,1:2|0:0,0:0:0:0:
350,280,8592,2,0,P|355:251|360:211,1,58.4999973220826,2|2,0:0|0:0,0:0:0:0:
501,331,8838,1,8,0:0:0:0:
501,331,9084,2,0,B|425:333|471:371|365:371,1,116.999994644165,2|0,0:0|1:2,0:0:0:0:
234,237,9576,1,2,0:1:0:0:
234,237,9699,1,2,0:0:0:0:
234,237,9822,2,0,P|264:214|306:212,1,58.4999973220826,10|0,0:0|0:0,0:0:0:0:
276,368,10068,2,0,P|248:359|226:340,1,58.4999973220826,2|2,0:0|0:0,0:0:0:0:
101,250,10314,6,0,P|110:189|118:108,1,116.999994644165,2|2,1:2|0:1,0:0:0:0:
153,63,10682,1,2,0:0:0:0:
64,19,10805,2,0,P|26:31|-7:33,1,58.4999973220826,10|0,0:0|0:0,0:0:0:0:
191,133,11051,2,0,P|229:121|262:119,1,58.4999973220826,2|2,0:0|0:0,0:0:0:0:
366,14,11297,1,0,1:2:0:0:
366,14,11543,2,0,B|444:13|396:54|502:54,1,116.999994644165,2|8,0:1|0:0,0:0:0:0:
362,198,12035,2,0,P|355:166|346:129,1,58.4999973220826,2|0,0:0|0:0,0:0:0:0:
490,220,12281,5,2,1:2:0:0:
471,229,12404,1,2,0:0:0:0:
470,311,12527,5,2,0:1:0:0:
489,320,12650,1,2,0:0:0:0:
398,273,12773,5,10,0:0:0:0:
398,273,13018,2,0,P|364:283|308:301,1,58.4999973220826,2|0,0:0|0:0,0:0:0:0:
181,214,13264,5,2,0:0:0:0:
200,205,13387,1,2,0:0:0:0:
199,123,13510,5,2,0:1:0:0:
180,114,13633,1,2,0:0:0:0:
272,167,13756,6,0,P|309:160|362:139,1,58.4999973220826,10|0,0:0|0:0,0:0:0:0:
217,315,14002,2,0,P|188:306|160:301,1,58.4999973220826,2|0,0:0|0:0,0:0:0:0:
28,170,14248,6,0,P|36:140|42:97,1,58.4999973220826,2|2,1:2|0:0,0:0:0:0:
140,35,14494,1,2,0:1:0:0:
119,111,14617,1,2,0:0:0:0:
0,24,14740,2,0,P|59:12|97:-4,1,58.4999973220826,10|2,0:0|0:0,0:0:0:0:
199,123,14986,2,0,P|140:135|102:151,1,58.4999973220826,2|2,0:0|0:0,0:0:0:0:
23,241,15232,5,2,1:2:0:0:
82,290,15355,1,2,0:0:0:0:
18,374,15478,2,0,P|14:346|6:312,1,58.4999973220826,2|2,0:1|0:0,0:0:0:0:
144,212,15723,1,10,0:0:0:0:
144,212,15846,2,0,P|207:226|215:293,1,116.999994644165,2|0,0:0|0:0,0:0:0:0:
308,154,16215,6,0,P|315:113|323:83,1,58.4999973220826,2|0,1:2|0:0,0:0:0:0:
397,250,16461,2,0,P|390:291|382:321,1,58.4999973220826,2|0,0:1|0:0,0:0:0:0:
487,147,16707,1,10,0:0:0:0:
487,147,16830,1,2,0:0:0:0:
487,147,16953,2,0,P|447:152|416:180,1,58.4999973220826,2|0,0:0|0:0,0:0:0:0:
314,339,17199,6,0,P|380:350|458:378,1,116.999994644165,2|2,1:2|0:1,0:0:0:0:
265,254,17568,1,2,0:0:0:0:
314,195,17691,2,0,P|258:211|200:221,1,116.999994644165,10|2,0:0|0:0,0:0:0:0:
124,125,18059,6,0,P|129:93|139:65,1,58.4999973220826,2|0,0:0|1:2,0:0:0:0:
0,155,18305,1,2,0:0:0:0:
63,192,18428,2,0,P|67:220|73:249,1,58.4999973220826,2|0,0:1|0:0,0:0:0:0:
141,324,18674,5,10,0:0:0:0:
162,314,18797,1,2,0:0:0:0:
236,245,18920,5,2,0:0:0:0:
215,235,19043,1,2,0:0:0:0:
276,351,19166,6,0,B|347:346|315:317|392:320,1,116.999994644165,2|2,1:2|0:1,0:0:0:0:
461,337,19535,1,0,0:0:0:0:
353,196,19658,2,0,P|310:192|265:174,1,58.4999973220826,10|0,0:0|0:0,0:0:0:0:
224,117,19904,1,0,0:0:0:0:
278,61,20027,1,0,0:0:0:0:
153,150,20150,6,0,P|164:193|166:221,1,58.4999973220826,2|2,1:2|0:0,0:0:0:0:
364,105,20396,2,0,P|353:62|351:34,1,58.4999973220826,2|2,0:0|0:0,0:0:0:0:
322,276,20641,2,0,B|392:262|342:234|432:218,1,116.999994644165,10|0,0:0|0:0,0:0:0:0:
480,269,21010,1,2,0:0:0:0:
311,191,21133,6,0,P|282:204|234:217,1,58.4999973220826,2|0,1:2|0:0,0:0:0:0:
347,361,21379,2,0,P|376:348|424:335,1,58.4999973220826,2|2,0:1|0:0,0:0:0:0:
201,163,21625,2,0,P|213:231|222:306,1,116.999994644165,10|0,0:0|0:0,0:0:0:0:
201,353,21994,1,2,0:0:0:0:
14,241,22117,6,0,P|47:181|103:182,1,116.999994644165,2|2,1:2|0:1,0:0:0:0:
140,228,22486,1,0,0:0:0:0:
301,50,22609,2,0,P|240:70|149:85,1,116.999994644165,10|0,0:0|0:0,0:0:0:0:
111,77,22978,1,8,0:0:0:0:
293,251,23100,6,0,P|297:214|309:183,1,58.4999973220826,10|0,0:0|0:0,0:0:0:0:
140,343,23346,1,10,0:0:0:0:
140,343,23592,1,2,1:2:0:0:
171,218,23715,1,8,0:0:0:0:
209,288,23838,1,0,1:2:0:0:
209,288,24084,6,0,B|330:285|239:226|398:231,1,175.499991966248,6|0,1:2|0:0,0:0:0:0:
488,132,24576,2,0,P|455:90|397:91,1,107.999996704102,10|0,0:0|0:0,0:0:0:0:
349,139,24945,1,0,0:0:0:0:
486,219,25068,2,0,P|475:283|469:343,1,107.999996704102,2|2,1:2|0:1,0:0:0:0:
367,374,25437,1,0,0:0:0:0:
367,374,25559,6,0,P|324:357|286:358,1,53.9999983520508,10|0,0:0|0:0,0:0:0:0:
317,249,25805,2,0,P|343:243|367:231,1,53.9999983520508,2|0,0:0|0:0,0:0:0:0:
222,312,26051,6,0,B|172:300|172:300|163:292|163:292|90:279,1,107.999996704102,0|2,1:2|0:0,0:0:0:0:
57,242,26420,1,0,0:0:0:0:
155,163,26543,1,8,0:0:0:0:
155,163,26789,6,0,P|164:128|172:89,1,62.9999980773926,2|0,0:0|0:0,0:0:0:0:
245,246,27035,1,0,1:2:0:0:
245,246,27281,6,0,P|254:281|262:320,1,62.9999980773926,2|0,0:0|0:0,0:0:0:0:
344,160,27527,6,0,P|294:136|264:146,1,53.9999983520508,10|0,0:0|0:0,0:0:0:0:
105,249,27773,2,0,P|147:256|182:272,1,53.9999983520508,2|0,0:0|0:0,0:0:0:0:
23,90,28018,6,0,P|29:146|36:218,1,107.999996704102,2|0,1:2|0:1,0:0:0:0:
32,274,28387,1,2,0:0:0:0:
122,128,28510,2,0,B|175:120|175:120|179:113|179:113|249:101,1,107.999996704102,10|0,0:0|0:0,0:0:0:0:
288,152,28879,1,2,0:0:0:0:
378,74,29002,2,0,P|381:47|386:20,1,53.9999983520508,2|0,1:2|0:0,0:0:0:0:
298,0,29248,2,0,P|294:26|289:53,1,53.9999983520508,2|0,0:0|0:0,0:0:0:0:
388,215,29494,2,0,P|423:212|446:182,1,53.9999983520508,10|0,0:0|0:0,0:0:0:0:
512,63,29740,1,2,0:0:0:0:
512,63,29863,1,2,0:0:0:0:
512,63,29986,6,0,P|457:82|450:131,1,107.999996704102,2|0,1:2|0:0,0:0:0:0:
512,176,30355,1,0,0:0:0:0:
386,297,30478,2,0,P|327:282|257:267,1,107.999996704102,10|0,0:0|0:0,0:0:0:0:
222,222,30846,1,2,0:1:0:0:
302,156,30969,2,0,P|329:149|361:138,1,53.9999983520508,2|2,1:2|0:1,0:0:0:0:
202,296,31215,2,0,P|176:287|150:280,1,53.9999983520508,2|0,0:0|0:0,0:0:0:0:
86,107,31461,2,0,P|146:122|153:175,1,107.999996704102,10|2,0:0|0:0,0:0:0:0:
101,212,31830,1,2,0:0:0:0:
1,118,31953,6,0,P|9:63|20:-7,1,107.999996704102,2|0,1:2|0:1,0:0:0:0:
236,159,32445,2,0,P|244:212|252:265,1,107.999996704102,10|0,0:0|0:0,0:0:0:0:
226,341,32814,1,2,0:1:0:0:
58,271,32937,2,0,P|72:226|143:216,1,107.999996704102,2|0,1:2|0:1,0:0:0:0:
166,274,33305,1,0,0:0:0:0:
310,136,33428,6,0,P|302:99|296:63,1,53.9999983520508,10|0,0:0|0:0,0:0:0:0:
173,80,33674,2,0,P|167:106|162:132,1,53.9999983520508,2|0,0:0|0:0,0:0:0:0:
332,265,33920,6,0,B|385:250|385:250|387:243|387:243|452:225,1,107.999996704102,0|2,1:2|0:1,0:0:0:0:
489,180,34289,1,0,0:0:0:0:
395,80,34412,1,8,0:0:0:0:
395,80,34658,6,0,P|386:45|378:6,1,62.9999980773926,2|0,0:0|0:0,0:0:0:0:
278,152,34904,1,0,1:2:0:0:
278,152,35150,6,0,P|269:187|261:226,1,62.9999980773926,2|0,0:0|0:0,0:0:0:0:
159,66,35396,1,8,0:0:0:0:
159,66,35641,6,0,P|126:69|97:96,1,62.9999980773926,2|0,0:0|0:0,0:0:0:0:
16,188,35887,6,0,P|64:194|142:220,1,107.999996704102,2|0,1:2|0:0,0:0:0:0:
177,270,36256,1,2,0:0:0:0:
281,130,36379,2,0,P|218:146|199:193,1,107.999996704102,10|0,0:0|0:0,0:0:0:0:
255,240,36748,1,0,0:0:0:0:
155,349,36871,2,0,P|124:340|76:330,1,53.9999983520508,2|0,1:2|0:0,0:0:0:0:
268,230,37117,2,0,P|299:239|347:249,1,53.9999983520508,2|0,0:0|0:0,0:0:0:0:
130,105,37363,1,8,0:0:0:0:
130,105,37609,6,0,B|115:141|115:141|128:175,1,62.9999980773926,10|0,0:0|0:0,0:0:0:0:
252,379,37855,6,0,P|255:340|267:307,1,67.5000025749208,0|0,1:2|0:0,0:0:0:0:
151,324,38100,2,0,P|140:291|139:258,1,67.5000025749208,10|0,1:2|0:0,0:0:0:0:
338,336,38346,6,0,P|350:299|371:270,1,67.5000025749208,10|0,1:2|0:0,0:0:0:0:
53,256,38592,2,0,P|51:222|58:189,1,67.5000025749208,10|0,1:2|0:0,0:0:0:0:
293,60,38838,6,0,P|294:93|287:126,1,67.5000025749208,10|0,1:2|0:0,0:0:0:0:
287,126,39084,1,0,1:2:0:0:
31,335,39330,6,0,B|197:321|61:232|268:227,1,256.499993150711,14|0,0:0|0:0,0:0:0:0:
409,279,39822,6,0,B|371:243|322:258|322:258|303:298|254:300,1,163.800005498657,6|2,1:2|0:1,0:0:0:0:
99,203,40191,1,0,0:0:0:0:
135,133,40314,2,0,P|206:125|226:209,1,163.800005498657,10|2,0:0|0:1,0:0:0:0:
144,354,40682,1,0,0:0:0:0:
77,312,40805,2,0,P|34:329|-8:338,1,81.9000027493287,2|0,1:2|0:0,0:0:0:0:
53,137,41051,1,2,0:1:0:0:
53,137,41297,2,0,P|67:179|75:229,1,81.9000027493287,10|0,0:0|0:0,0:0:0:0:
228,93,41543,2,0,P|214:51|206:1,1,81.9000027493287,2|0,0:1|0:0,0:0:0:0:
431,206,41789,6,0,P|391:216|357:238,1,81.9000027493287,2|0,1:2|0:0,0:0:0:0:
240,182,42035,1,2,0:1:0:0:
298,134,42158,1,2,0:0:0:0:
345,330,42281,2,0,P|310:308|228:292,1,81.9000027493287,10|0,0:0|0:0,0:0:0:0:
126,145,42527,2,0,P|164:132|199:110,1,81.9000027493287,2|0,0:1|0:0,0:0:0:0:
480,30,42773,2,0,P|427:43|415:134,1,122.850004123993,2|0,1:2|0:0,0:0:0:0:
394,114,43018,2,0,P|375:25|373:19,1,81.9000027493287,2|0,0:1|0:0,0:0:0:0:
512,284,43264,6,0,B|357:270|474:183|276:183,1,245.700008247986,10|0,0:0|0:0,0:0:0:0:
188,333,43756,6,0,P|292:300|297:300,1,81.9000027493287,2|0,1:2|0:0,0:0:0:0:
126,99,44002,2,0,P|150:186|156:216,1,81.9000027493287,2|0,0:1|0:0,0:0:0:0:
143,253,44248,1,8,0:0:0:0:
252,46,44371,2,0,P|228:133|222:163,1,81.9000027493287,2|2,0:0|0:1,0:0:0:0:
230,198,44617,1,0,0:0:0:0:
37,63,44740,2,0,P|61:150|67:180,1,81.9000027493287,2|0,1:2|0:0,0:0:0:0:
353,264,44986,6,0,P|329:177|323:147,1,81.9000027493287,2|0,0:1|0:0,0:0:0:0:
76,344,45232,2,0,P|125:353|166:387,1,81.9000027493287,10|0,0:0|0:0,0:0:0:0:
221,345,45478,1,2,0:1:0:0:
174,181,45600,6,0,P|136:193|73:205,1,81.9000027493287,2|0,0:0|1:2,0:0:0:0:
36,251,45846,1,0,0:0:0:0:
242,360,45969,2,0,P|281:347|321:339,1,81.9000027493287,2|0,0:1|0:0,0:0:0:0:
497,224,46215,1,8,0:0:0:0:
443,167,46338,2,0,P|377:190|403:306,1,163.800005498657,2|2,0:0|0:1,0:0:0:0:
269,224,46707,5,0,1:2:0:0:
241,152,46830,1,2,0:0:0:0:
337,109,46953,5,2,0:1:0:0:
354,40,47076,1,2,0:0:0:0:
142,117,47199,6,0,P|176:120|230:147,1,81.9000027493287,10|0,0:0|0:0,0:0:0:0:
508,53,47445,2,0,B|471:44|471:44|466:37|466:37|415:27,1,81.9000027493287,2|0,0:1|0:0,0:0:0:0:
289,238,47691,6,0,P|331:166|413:160,1,163.800005498657,6|2,1:2|0:1,0:0:0:0:
508,321,48059,1,0,0:0:0:0:
451,375,48182,2,0,B|388:365|388:365|365:335|365:335|266:312,1,163.800005498657,10|2,0:0|0:1,0:0:0:0:
160,141,48551,1,0,0:0:0:0:
226,178,48674,2,0,P|212:231|205:275,1,81.9000027493287,2|0,1:2|0:0,0:0:0:0:
130,371,48920,1,2,0:1:0:0:
130,371,49166,2,0,P|94:354|32:342,1,81.9000027493287,10|0,0:0|0:0,0:0:0:0:
300,231,49412,2,0,P|336:248|398:260,1,81.9000027493287,2|0,0:1|0:0,0:0:0:0:
204,20,49658,6,0,P|191:66|177:127,1,81.9000027493287,2|0,1:2|0:0,0:0:0:0:
98,204,49904,1,2,0:1:0:0:
68,134,50027,1,2,0:0:0:0:
207,257,50150,2,0,P|167:267|110:301,1,81.9000027493287,8|0,0:0|0:0,0:0:0:0:
332,159,50396,2,0,P|366:175|408:187,1,81.9000027493287,2|0,0:1|0:0,0:0:0:0:
478,368,50641,2,0,P|415:353|402:285,1,122.850004123993,2|0,1:2|0:0,0:0:0:0:
471,295,50887,2,0,P|481:243|487:203,1,81.9000027493287,2|0,0:1|0:0,0:0:0:0:
399,17,51133,6,0,B|244:31|356:100|163:118,1,245.700008247986,10|0,0:0|0:0,0:0:0:0:
232,273,51625,6,0,P|237:233|251:169,1,81.9000027493287,2|0,1:2|0:0,0:0:0:0:
141,11,51871,2,0,P|87:20|61:50,1,81.9000027493287,2|0,0:1|0:0,0:0:0:0:
35,123,52117,1,10,0:0:0:0:
245,192,52240,2,0,P|299:183|325:153,1,81.9000027493287,2|2,0:0|0:1,0:0:0:0:
346,79,52486,1,2,0:1:0:0:
142,139,52609,2,0,P|122:175|122:237,1,81.9000027493287,2|0,1:2|0:0,0:0:0:0:
403,216,52855,6,0,P|423:180|423:118,1,81.9000027493287,2|0,0:1|0:0,0:0:0:0:
213,304,53100,2,0,P|314:335|334:344,1,81.9000027493287,10|0,0:0|0:0,0:0:0:0:
162,29,53346,2,0,P|123:41|83:51,1,81.9000027493287,2|0,0:1|0:0,0:0:0:0:
318,255,53592,6,0,B|354:226|399:226|399:226|428:263|470:264,1,163.800005498657,2|2,1:2|0:1,0:0:0:0:
507,199,53961,1,0,0:0:0:0:
375,5,54084,2,0,P|354:35|347:82,1,81.9000027493287,10|0,0:0|0:0,0:0:0:0:
397,227,54330,1,2,0:1:0:0:
433,66,54453,1,8,0:0:0:0:
217,152,54576,6,0,P|259:158|304:179,1,81.9000027493287,2|0,1:2|0:0,0:0:0:0:
489,339,54822,1,10,0:0:0:0:
489,339,55068,6,0,B|410:287|316:306|316:306|294:368|202:356,1,286.200000436707,2|0,1:2|0:0,0:0:0:0:
184,234,55559,6,0,P|226:252|232:281,1,70.1999995715332,2|0,1:2|0:0,0:0:0:0:
64,356,56051,6,0,P|74:319|82:262,1,81.9000027493287,10|0,0:0|0:0,0:0:0:0:
210,91,56297,1,2,0:1:0:0:
210,91,56420,1,2,0:1:0:0:
210,91,56543,6,0,P|215:131|228:188,1,90.8999981968689,2|0,1:2|0:0,0:0:0:0:
3,287,56789,2,0,P|5:243|24:193,1,90.8999981968689,2|0,0:1|0:0,0:0:0:0:
291,132,57035,2,0,P|305:173|309:222,1,90.8999981968689,10|0,0:0|0:0,0:0:0:0:
83,78,57281,6,0,P|107:11|214:14,1,163.800005498657,2|0,0:1|1:2,0:0:0:0:
252,46,57650,1,0,0:0:0:0:
174,198,57773,2,0,P|144:183|83:173,1,81.9000027493287,2|0,0:1|0:0,0:0:0:0:
21,177,58018,1,10,0:0:0:0:
178,86,58141,2,0,P|218:78|255:61,1,81.9000027493287,2|2,0:0|0:1,0:0:0:0:
392,186,58387,2,0,P|378:220|364:303,1,81.9000027493287,2|0,0:0|1:2,0:0:0:0:
399,336,58633,1,2,0:0:0:0:
219,240,58756,2,0,P|209:200|194:162,1,81.9000027493287,2|0,0:1|0:0,0:0:0:0:
373,33,59002,2,0,P|417:38|455:72,1,81.9000027493287,10|0,0:0|0:0,0:0:0:0:
314,180,59248,1,2,0:1:0:0:
261,10,59371,1,2,0:0:0:0:
472,194,59494,6,0,P|456:226|456:261,1,70.1999995715332,2|0,1:2|0:0,0:0:0:0:
294,340,59986,6,0,P|254:347|208:389,1,81.9000027493287,10|0,0:0|0:0,0:0:0:0:
273,146,60232,1,2,0:1:0:0:
273,146,60355,1,2,0:1:0:0:
273,146,60478,6,0,P|309:170|355:177,1,90.8999981968689,2|0,1:2|0:0,0:0:0:0:
176,279,60723,2,0,P|134:271|100:237,1,90.8999981968689,2|0,0:1|0:0,0:0:0:0:
348,88,60969,2,0,P|387:97|425:133,1,90.8999981968689,10|0,0:0|0:0,0:0:0:0:
173,0,61215,6,0,P|186:90|196:187,1,163.800005498657,2|0,0:1|1:2,0:0:0:0:
246,220,61584,1,0,0:0:0:0:
30,134,61707,2,0,P|69:122|107:106,1,81.9000027493287,2|0,0:1|0:0,0:0:0:0:
193,162,61953,1,10,0:0:0:0:
79,310,62076,2,0,P|41:294|2:282,1,81.9000027493287,2|2,0:0|0:1,0:0:0:0:
26,211,62322,1,2,0:0:0:0:
247,297,62445,6,0,P|239:333|235:379,1,81.9000027493287,2|0,1:2|0:0,0:0:0:0:
99,188,62691,2,0,P|107:152|111:106,1,81.9000027493287,2|0,0:1|0:0,0:0:0:0:
314,253,62937,1,10,0:0:0:0:
374,200,63059,2,0,B|487:203|404:269|542:272,1,163.800005498657,2|0,0:0|0:0,0:0:0:0:
475,25,63428,6,0,P|449:35|436:87,1,70.1999995715332,6|0,1:2|0:0,0:0:0:0:
263,108,63920,6,0,P|274:57|271:18,1,81.9000027493287,10|0,0:0|0:0,0:0:0:0:
374,199,64166,1,2,0:1:0:0:
374,199,64289,1,2,0:1:0:0:
374,199,64412,6,0,P|376:239|389:290,1,90.8999981968689,2|0,1:2|0:0,0:0:0:0:
180,149,64658,2,0,P|182:108|197:59,1,90.8999981968689,2|0,0:1|0:0,0:0:0:0:
455,232,64904,2,0,P|468:273|468:327,1,90.8999981968689,10|0,0:0|0:0,0:0:0:0:
237,373,65150,6,0,B|135:369|196:314|69:310,1,163.800005498657,2|0,0:1|1:2,0:0:0:0:
16,319,65518,1,0,0:0:0:0:
217,256,65641,2,0,P|254:278|300:290,1,81.9000027493287,2|0,0:1|0:0,0:0:0:0:
355,239,65887,1,10,0:0:0:0:
152,149,66010,2,0,P|112:160|77:181,1,81.9000027493287,2|0,0:0|0:0,0:0:0:0:
281,196,66256,2,0,P|287:149|297:111,1,81.9000027493287,2|0,0:0|1:2,0:0:0:0:
286,38,66502,1,2,0:0:0:0:
153,227,66625,2,0,P|162:266|167:307,1,81.9000027493287,2|0,0:1|0:0,0:0:0:0:
349,367,66871,2,0,P|400:366|426:329,1,81.9000027493287,10|0,0:0|0:0,0:0:0:0:
383,113,67117,1,2,0:0:0:0:
363,287,67240,1,2,0:0:0:0:
502,200,67363,6,0,P|474:181|423:177,1,70.1999995715332,2|0,1:2|0:0,0:0:0:0:
224,227,67855,6,0,P|234:185|240:134,1,81.9000027493287,10|0,0:0|0:0,0:0:0:0:
341,25,68100,1,2,0:1:0:0:
341,25,68223,1,2,0:1:0:0:
341,25,68346,6,0,P|346:65|359:117,1,90.8999981968689,2|0,1:2|0:0,0:0:0:0:
146,190,68592,2,0,P|136:150|129:97,1,90.8999981968689,2|0,0:1|0:0,0:0:0:0:
436,81,68838,2,0,P|430:121|411:200,1,90.8999981968689,10|0,0:0|0:0,0:0:0:0:
172,300,69084,6,0,B|66:301|116:242|-9:248,1,163.800005498657,2|0,0:1|1:2,0:0:0:0:
28,324,69453,1,0,0:0:0:0:
182,216,69576,2,0,B|219:225|219:225|225:232|225:232|264:243,1,81.9000027493287,2|0,0:1|0:0,0:0:0:0:
101,25,69822,2,0,P|18:61|17:132,1,163.800005498657,10|0,0:0|0:0,0:0:0:0:
95,233,70191,1,8,0:0:0:0:
230,91,70314,6,0,P|222:54|214:4,1,81.9000027493287,2|0,1:2|0:0,0:0:0:0:
161,147,70559,1,10,0:0:0:0:
299,42,70682,1,10,0:0:0:0:
78,152,70805,1,2,1:2:0:0:
78,152,70928,2,0,P|165:182|183:266,1,163.800005498657,2|0,0:0|0:0,0:0:0:0:
323,373,71297,6,0,B|220:367|270:314|155:320,1,163.800005498657,2|0,1:2|0:0,0:0:0:0:
106,359,71666,1,0,0:0:0:0:
312,291,71789,2,0,P|324:194|340:105,1,163.800005498657,10|2,0:0|0:1,0:0:0:0:
366,60,72158,1,0,0:0:0:0:
181,150,72281,6,0,P|223:150|260:184,1,81.9000027493287,2|0,1:2|0:0,0:0:0:0:
463,301,72527,2,0,B|426:307|426:307|419:314|419:314|373:321,1,81.9000027493287,2|0,0:1|0:0,0:0:0:0:
413,121,72773,2,0,P|504:159|500:233,1,163.800005498657,10|2,0:0|0:1,0:0:0:0:
474,311,73141,1,0,0:0:0:0:
264,169,73264,6,0,P|271:131|278:76,1,81.9000027493287,2|0,1:2|0:0,0:0:0:0:
472,11,73510,2,0,P|477:51|484:91,1,81.9000027493287,2|0,0:1|0:0,0:0:0:0:
275,255,73756,2,0,B|166:245|241:187|104:183,1,163.800005498657,10|2,0:0|0:1,0:0:0:0:
66,225,74125,1,0,0:0:0:0:
22,56,74248,6,0,P|71:56|107:101,1,81.9000027493287,2|0,1:2|0:0,0:0:0:0:
127,296,74494,2,0,B|90:302|90:302|83:309|83:309|37:316,1,81.9000027493287,2|0,0:1|0:0,0:0:0:0:
264,169,74740,2,0,P|258:259|248:368,1,163.800005498657,10|2,0:0|0:1,0:0:0:0:
191,377,75109,1,0,0:0:0:0:
337,262,75232,6,0,P|373:287|417:285,1,81.9000027493287,2|0,1:2|0:0,0:0:0:0:
198,123,75478,2,0,P|157:129|127:163,1,81.9000027493287,2|0,0:1|0:0,0:0:0:0:
342,361,75723,2,0,B|454:349|378:313|491:302,1,163.800005498657,10|2,0:0|0:1,0:0:0:0:
484,378,76092,1,0,0:0:0:0:
349,181,76215,6,0,P|300:181|264:226,1,81.9000027493287,2|0,1:2|0:0,0:0:0:0:
124,347,76461,2,0,B|161:353|161:353|168:360|168:360|214:367,1,81.9000027493287,2|0,0:1|0:0,0:0:0:0:
129,157,76707,2,0,P|3:193|19:284,1,245.700008247986,10|0,0:0|0:0,0:0:0:0:
80,224,77199,5,2,1:2:0:0:
141,273,77322,1,2,0:0:0:0:
80,224,77445,2,0,P|53:180|53:136,1,81.9000027493287,2|0,0:1|0:0,0:0:0:0:
192,1,77691,5,10,0:0:0:0:
137,56,77814,1,2,0:0:0:0:
192,1,77937,2,0,P|219:45|219:89,1,81.9000027493287,2|0,0:1|0:0,0:0:0:0:
227,213,78182,6,0,B|266:183|316:184|316:184|334:218|387:221,1,163.800005498657,2|2,1:2|0:1,0:0:0:0:
447,177,78551,1,2,0:0:0:0:
331,43,78674,1,10,0:0:0:0:
364,114,78797,1,2,0:0:0:0:
443,38,78920,1,2,0:1:0:0:
443,38,79166,6,0,B|297:36|378:113|225:107,1,232.200003543091,2|0,1:2|0:0,0:0:0:0:
67,16,79658,2,0,P|141:61|142:136,1,154.800002362061,10|2,0:0|0:1,0:0:0:0:
196,185,80027,1,0,0:0:0:0:
80,284,80150,6,0,P|42:268|-14:264,1,77.4000011810303,2|0,1:2|0:0,0:0:0:0:
204,202,80396,2,0,B|238:207|238:207|243:216|243:216|287:224,1,77.4000011810303,2|0,0:1|0:0,0:0:0:0:
127,371,80641,2,0,P|122:285|110:182,1,154.800002362061,10|2,0:0|0:1,0:0:0:0:
377,103,81133,6,0,P|418:98|451:135,1,77.4000011810303,2|0,1:2|0:0,0:0:0:0:
337,285,81379,2,0,P|298:297|262:308,1,77.4000011810303,2|0,0:0|0:0,0:0:0:0:
300,82,81625,2,0,B|400:75|336:28|463:26,1,154.800002362061,10|0,0:0|0:1,0:0:0:0:
505,70,81994,1,0,0:0:0:0:
423,272,82117,6,0,P|396:237|407:188,1,77.4000011810303,2|0,1:2|0:0,0:0:0:0:
510,88,82363,2,0,B|505:125|505:125|510:132|510:132|505:177,1,77.4000011810303,2|0,0:1|0:0,0:0:0:0:
499,338,82609,2,0,P|420:308|338:308,1,154.800002362061,10|0,0:0|0:1,0:0:0:0:
295,361,82978,1,0,0:0:0:0:
186,167,83100,6,0,P|267:179|280:254,1,154.800002362061,2|2,1:2|0:1,0:0:0:0:
236,305,83469,1,0,0:0:0:0:
99,193,83592,2,0,B|85:92|135:146|120:43,1,154.800002362061,10|2,0:0|0:1,0:0:0:0:
48,78,83961,1,0,0:0:0:0:
189,177,84084,6,0,P|182:219|175:263,1,77.4000011810303,2|0,1:2|0:0,0:0:0:0:
32,85,84330,2,0,B|29:49|29:49|24:43|24:43|19:8,1,77.4000011810303,2|0,0:0|0:0,0:0:0:0:
241,114,84576,2,0,B|273:83|327:85|327:85|343:112|388:114,1,154.800002362061,10|2,0:0|0:1,0:0:0:0:
390,41,84945,1,0,0:0:0:0:
474,296,85068,6,0,P|434:295|393:258,1,77.4000011810303,2|0,1:2|0:0,0:0:0:0:
302,171,85314,1,2,0:1:0:0:
456,212,85437,1,0,0:0:0:0:
307,333,85559,6,0,P|271:315|249:264,1,77.4000011810303,10|0,0:0|0:0,0:0:0:0:
241,114,85805,1,2,0:1:0:0:
329,259,85928,1,8,0:0:0:0:
166,328,86051,6,0,P|141:296|143:241,1,77.4000011810303,10|8,0:0|0:0,0:0:0:0:
333,87,86297,1,10,0:0:0:0:
269,205,86420,1,10,0:0:0:0:
193,12,86543,6,0,B|87:13|165:66|32:72,1,154.800002362061,10|8,0:0|0:3,0:0:0:0:
0,15,86912,1,4,0:3:0:0:
72,299,87035,6,0,B|141:319|205:237|162:232|208:166|298:169|298:169|257:185|246:237,1,356.399998912354,10|0,0:0|0:0,0:0:0:0:
