osu file format v14

[General]
AudioFilename: audio.mp3
AudioLeadIn: 0
PreviewTime: 243094
Countdown: 0
SampleSet: Soft
StackLeniency: 0.4
Mode: 0
LetterboxInBreaks: 0
WidescreenStoryboard: 0

[Editor]
Bookmarks: 88660,176920,243153
DistanceSpacing: 1.1
BeatDivisor: 16
GridSize: 16
TimelineZoom: 1.9

[Metadata]
Title:FAITH feat. Namichie, GOMESS
TitleUnicode:FAITH feat. なみちえ, GOMESS
Artist:ALI
ArtistUnicode:ALI
Creator:Yudragen
Version:ACROSS THE UNIVERSE
Source:
Tags:lost in paradise chaoticred jazz alien liberty international japanese english rap hip hop
BeatmapID:4427182
BeatmapSetID:2109226

[Difficulty]
HPDrainRate:5
CircleSize:4.7
OverallDifficulty:7
ApproachRate:8.8
SliderMultiplier:2.6
SliderTickRate:1

[Events]
//Background and Video events
0,0,"Getou.Suguru.full.3092287.jpg",0,0
//Break Periods
//Storyboard Layer 0 (Background)
//Storyboard Layer 1 (Fail)
//Storyboard Layer 2 (Pass)
//Storyboard Layer 3 (Foreground)
//Storyboard Layer 4 (Overlay)
//Storyboard Sound Samples

[TimingPoints]
460,674.157303370786,4,2,1,50,1,0
1324,689.655172413793,4,2,1,50,1,0
1783,689.655172413793,4,2,1,50,1,0
3162,689.655172413793,4,2,1,50,1,0
3162,-125,4,2,1,50,0,0
3851,674.157303370786,4,2,1,50,1,0
4065,-166.666666666667,4,2,1,50,0,0
4525,705.882352941176,4,2,1,50,1,0
4525,-250,4,2,1,30,0,0
5214,-71.4285714285714,4,2,1,75,0,0
5387,-71.4285714285714,4,2,1,5,0,0
5444,-71.4285714285714,4,2,1,75,0,0
5616,-71.4285714285714,4,2,1,5,0,0
5674,-71.4285714285714,4,2,1,75,0,0
5846,-71.4285714285714,4,2,1,5,0,0
5904,-100,4,2,1,50,0,0
5936,681.818181818182,4,2,1,50,1,0
7299,705.882352941176,4,2,1,50,1,0
8710,681.818181818182,4,2,1,50,1,0
8710,-125,4,2,1,50,0,0
9582,-142.857142857143,4,2,1,50,0,0
10042,-166.666666666667,4,2,1,50,0,0
10755,750,4,2,1,50,1,0
10755,-80,4,2,1,50,0,0
10817,-80,4,2,1,5,0,0
11005,-62.5,4,2,1,65,0,0
11067,-80,4,2,1,5,0,0
11255,-51.2820512820513,4,2,1,80,0,0
11317,-80,4,2,1,5,0,0
11458,705.882352941176,4,2,1,50,1,0
11458,-100,4,2,1,50,0,0
12869,652.173913043478,4,2,1,50,1,0
12869,-125,4,2,1,50,0,0
13521,685.714285714286,4,2,1,50,1,0
14180,-166.666666666667,4,2,1,50,0,0
15578,689.655172413793,4,2,1,50,1,0
15578,-250,4,2,1,50,0,0
16249,-71.4285714285714,4,2,1,65,0,0
16422,-71.4285714285714,4,2,1,5,0,0
16479,-71.4285714285714,4,2,1,65,0,0
16651,-71.4285714285714,4,2,1,5,0,0
16709,-71.4285714285714,4,2,1,65,0,0
16881,-71.4285714285714,4,2,1,5,0,0
16957,697.674418604651,4,2,1,50,1,0
16957,-100,4,2,1,50,0,0
19747,674.157303370786,4,2,1,50,1,0
21095,693.641618497109,4,2,1,50,1,0
21095,-52.6315789473684,4,2,1,50,0,0
21326,-52.6315789473684,4,2,1,5,0,0
21441,-71.4285714285714,4,2,1,50,0,0
21673,-71.4285714285714,4,2,1,5,0,0
21788,769.230769230768,4,2,1,50,1,0
21788,-83.3333333333333,4,2,1,50,0,0
22044,-83.3333333333333,4,2,1,5,0,0
22154,-153.846153846154,4,2,1,50,0,0
22455,-100,4,2,1,5,0,0
22517,689.655172413793,4,2,1,70,1,0
33543,686.89181453921,4,2,1,70,1,0
41805,689.655172413793,4,2,1,70,1,0
54199,689.655172413793,4,2,1,70,1,0
55578,689.655172413793,4,2,1,70,1,0
77302,-93.8967136150235,4,2,1,70,0,0
77625,689.655172413793,4,2,1,70,1,0
80404,689.655172413793,4,2,1,70,1,0
84522,-95.2380952380952,4,2,1,70,0,0
84867,-86.9565217391304,4,2,1,70,0,0
85212,-80,4,2,1,70,0,0
85557,-74.0740740740741,4,2,1,70,0,0
85901,-80,4,2,1,70,0,0
88660,-100,4,2,1,80,0,0
88689,689.655172413793,4,2,1,70,1,0
89350,-50,4,2,1,80,0,0
90039,-111.111111111111,4,2,1,80,0,0
90729,-50,4,2,1,80,0,0
91419,-117.647058823529,4,2,1,80,0,0
92108,-105.263157894737,4,2,1,80,0,0
92338,-90.9090909090909,4,2,1,5,0,0
92453,-83.3333333333333,4,2,1,60,0,0
92683,-86.9565217391304,4,2,1,5,0,0
92798,-68.9655172413793,4,2,1,70,0,0
93028,-86.9565217391304,4,2,1,5,0,0
93143,-58.8235294117647,4,2,1,80,0,0
93373,-86.9565217391304,4,2,1,5,0,0
93488,-117.647058823529,4,2,1,90,0,0
94033,-117.647058823529,4,2,1,5,0,0
94177,-90.9090909090909,4,2,1,80,0,0
95212,-76.9230769230769,4,2,1,80,0,0
95557,-100,4,2,1,80,0,0
97625,-250,4,2,1,80,0,0
98315,-62.5,4,2,1,80,0,0
99005,-50,4,2,1,80,0,0
99300,-50,4,2,1,5,0,0
99399,-125,4,2,1,80,0,0
99579,-166.666666666667,4,2,1,5,0,0
99694,-100,4,2,1,80,0,0
100384,-50,4,2,1,80,0,0
101073,-111.111111111111,4,2,1,80,0,0
101763,-50,4,2,1,80,0,0
102453,-105.263157894737,4,2,1,80,0,0
103143,-71.4285714285714,4,2,1,80,0,0
103832,-58.8235294117647,4,2,1,80,0,0
104522,-47.6190476190476,4,2,1,90,0,0
105068,-47.6190476190476,4,2,1,5,0,0
105212,-100,4,2,1,80,0,0
106591,-125,4,2,1,80,0,0
107281,-100,4,2,1,80,0,0
107999,681.818181818182,4,2,1,70,1,0
107999,-111.111111111111,4,2,1,80,0,0
108510,-111.111111111111,4,2,1,5,0,0
108660,-45.4545454545455,4,2,1,80,0,0
109350,-76.9230769230769,4,2,1,80,0,0
110384,-125,4,2,1,80,0,0
110726,697.674418604651,4,2,1,70,1,0
110726,-100,4,2,1,70,0,0
111419,-66.6666666666667,4,2,1,70,0,0
112798,-111.111111111111,4,2,1,70,0,0
113488,-90.9090909090908,4,2,1,70,0,0
115609,670.391061452514,4,2,1,70,1,0
116277,685.714285714286,4,2,1,70,1,0
116962,-74.0740740740741,4,2,1,70,0,0
119019,-83.3333333333333,4,2,1,70,0,0
120391,-86.9565217391304,4,2,1,70,0,0
121762,705.882352941177,4,2,1,70,1,0
122820,-86.9565217391304,4,2,1,70,0,0
123173,674.157303370786,4,2,1,70,1,0
123847,-86.9565217391304,4,2,1,70,0,0
124521,705.882352941176,4,2,1,70,1,0
124521,-86.9565217391304,4,2,1,70,0,0
127344,674.157303370786,4,2,1,70,1,0
127344,-86.9565217391304,4,2,1,70,0,0
130040,714.285714285714,4,2,1,70,1,0
130040,-86.9565217391304,4,2,1,70,0,0
130754,689.655172413793,4,2,1,70,1,0
131419,-58.8235294117647,4,2,1,70,0,0
131763,-71.4285714285714,4,2,1,70,0,0
132133,666.666666666667,4,2,1,70,1,0
132799,681.818181818182,4,2,1,70,1,0
132799,-125,4,2,1,70,0,0
133480,697.674418604651,4,2,1,70,1,0
133480,-200,4,2,1,70,0,0
134867,-100,4,2,1,70,0,0
135384,-66.6666666666667,4,2,1,70,0,0
135901,-100,4,2,1,70,0,0
136591,-200,4,2,1,70,0,0
136936,-100,4,2,1,70,0,0
137666,681.818181818182,4,2,1,70,1,0
137798,-200,4,2,1,70,0,0
138315,-117.647058823529,4,2,1,60,0,0
139029,697.674418604651,4,2,1,70,1,0
139029,-117.647058823529,4,2,1,60,0,0
140424,681.818181818182,4,2,1,70,1,0
140424,-117.647058823529,4,2,1,60,0,0
141787,689.655172413793,4,2,1,70,1,0
141787,-117.647058823529,4,2,1,60,0,0
145235,697.674418604651,4,2,1,50,1,0
145235,-117.647058823529,4,2,1,60,0,0
147328,689.655172413793,4,2,1,50,1,0
149047,-166.666666666667,4,2,1,50,0,0
149220,-166.666666666667,4,2,1,5,0,0
149392,-100,4,2,1,50,0,0
151465,677.966101694915,4,2,1,50,1,0
152820,681.818181818182,4,2,1,50,1,0
154183,714.285714285715,4,2,1,50,1,0
154897,697.674418604652,4,2,1,50,1,0
154897,-90.9090909090908,4,2,1,70,0,0
155594,779.22077922078,4,2,1,50,1,0
155594,-90.9090909090908,4,2,1,70,0,0
155905,-100,4,2,1,60,0,0
156061,909.09090909091,4,2,1,50,1,0
156242,-117.647058823529,4,2,1,50,0,0
156970,697.674418604652,4,2,1,50,1,0
156971,-100,4,2,1,50,0,0
159760,681.818181818183,4,2,1,50,1,0
162487,689.655172413794,4,2,1,50,1,0
165245,697.674418604652,4,2,1,50,1,0
168035,689.655172413794,4,2,1,50,1,0
170793,685.714285714287,4,2,1,50,1,0
173535,681.818181818183,4,2,1,50,1,0
174196,674.157303370788,4,2,1,50,1,0
174852,-100,4,2,1,70,0,0
176552,-125,4,2,1,70,0,0
176836,-125,4,2,1,5,0,0
176920,689.655172413793,4,2,1,70,1,0
176940,689.655172413793,4,2,1,80,1,0
177284,-250,4,2,1,80,0,0
177437,-250,4,2,1,5,0,0
177609,-250,4,2,1,80,0,0
178126,-250,4,2,1,5,0,0
178298,-250,4,2,1,80,0,0
178816,-250,4,2,1,5,0,0
178988,-250,4,2,1,80,0,0
179506,-250,4,2,1,5,0,0
179678,-250,4,2,1,80,0,0
180540,-250,4,2,1,5,0,0
180712,-250,4,2,1,80,0,0
181230,-250,4,2,1,5,0,0
181402,-250,4,2,1,80,0,0
181517,-250,4,2,1,5,0,0
181689,-250,4,2,1,80,0,0
181747,-71.4285714285714,4,2,1,80,0,0
181862,-71.4285714285714,4,2,2,60,0,0
182469,689.655172413793,4,2,1,80,1,0
182469,-250,4,2,1,80,0,0
183153,-142.857142857143,4,2,1,80,0,0
184532,-100,4,2,1,80,0,0
185222,-166.666666666667,4,2,1,70,0,0
185912,-142.857142857143,4,2,1,70,0,0
186601,-125,4,2,1,70,0,0
187981,-250,4,2,1,80,0,0
190395,-142.857142857143,4,2,1,80,0,0
190739,-250,4,2,1,80,0,0
192808,-142.857142857143,4,2,1,80,0,0
193498,-250,4,2,1,80,0,0
194188,-142.857142857143,4,2,1,80,0,0
194532,-250,4,2,1,80,0,0
196257,-142.857142857143,4,2,1,80,0,0
199015,-333.333333333333,4,2,1,70,0,0
199705,-333.333333333333,4,2,1,50,0,0
200395,-200,4,2,1,50,0,0
201774,-500,4,2,1,50,0,0
203157,697.674418604651,4,2,1,50,1,0
203157,-285.714285714286,4,2,1,50,0,0
204552,705.882352941176,4,2,1,50,1,0
204552,-200,4,2,1,50,0,0
206669,689.655172413793,4,2,1,50,1,0
206669,-166.666666666667,4,2,1,50,0,0
207358,666.666666666667,4,2,1,50,1,0
207358,-250,4,2,1,50,0,0
208691,705.882352941176,4,2,1,50,1,0
208691,-181.818181818182,4,2,1,50,0,0
210102,689.655172413793,4,2,1,50,1,0
210102,-333.333333333333,4,2,1,50,0,0
210791,652.173913043478,4,2,1,50,1,0
211443,705.882352941176,4,2,1,50,1,0
212119,-200,4,2,1,50,0,0
212854,681.818181818181,4,2,1,50,1,0
212854,-142.857142857143,4,2,1,50,0,0
213535,689.655172413792,4,2,1,50,1,0
214224,-142.857142857143,4,2,1,50,0,0
215222,-200,4,2,1,50,0,0
215603,689.655172413792,4,2,1,50,1,0
216292,-200,4,2,1,50,0,0
218211,-200,4,2,1,5,0,0
218361,697.67441860465,4,2,1,50,1,0
218361,-200,4,2,1,50,0,0
221151,681.818181818181,4,2,1,50,1,0
221832,599.999999999999,4,2,1,50,1,0
222132,631.57894736842,4,2,1,50,1,0
222447,705.882352941175,4,2,1,70,1,0
222447,-133.333333333333,4,2,1,50,0,0
223326,-133.333333333333,4,2,1,5,0,0
223498,-133.333333333333,4,2,1,50,0,0
223858,689.655172413792,4,2,1,50,1,0
223858,-133.333333333333,4,2,1,50,0,0
225912,-90.9090909090909,4,2,1,50,0,0
226616,697.67441860465,4,2,1,50,1,0
226616,-133.333333333333,4,2,1,50,0,0
229406,674.157303370785,4,2,1,50,1,0
229406,-133.333333333333,4,2,1,50,0,0
230754,681.818181818181,4,2,1,50,1,0
230754,-133.333333333333,4,2,1,50,0,0
232117,697.67441860465,4,2,1,50,1,0
232117,-133.333333333333,4,2,1,50,0,0
236303,681.818181818181,4,2,1,50,1,0
236303,-133.333333333333,4,2,1,50,0,0
237666,697.67441860465,4,2,1,50,1,0
237666,-133.333333333333,4,2,1,50,0,0
240224,681.818181818181,4,2,1,70,1,0
240394,697.67441860465,4,2,1,70,1,0
240394,-100,4,2,1,70,0,0
241091,689.655172413792,4,2,1,70,1,0
243153,-100,4,2,1,80,0,0
243179,689.655172413793,4,2,1,80,1,0
243843,-50,4,2,1,80,0,0
244532,-111.111111111111,4,2,1,80,0,0
245222,-50,4,2,1,80,0,0
245943,689.655172413793,4,2,1,80,1,0
245943,-117.647058823529,4,2,1,80,0,0
246632,-71.4285714285714,4,2,1,80,0,0
247322,-100,4,2,1,80,0,0
247552,-100,4,2,1,5,0,0
247667,-76.9230769230769,4,2,1,80,0,0
247858,-76.9230769230769,4,2,1,5,0,0
248011,-62.5,4,2,1,80,0,0
248471,-136.054421768707,4,2,1,80,0,0
248721,689.655172413793,4,2,1,80,1,0
248721,-100,4,2,1,80,0,0
251115,-166.666666666667,4,2,1,80,0,0
251460,-100,4,2,1,80,0,0
252149,-250,4,2,1,80,0,0
252839,-62.5,4,2,1,80,0,0
253529,-50,4,2,1,80,0,0
253874,-125,4,2,1,80,0,0
254218,-100,4,2,1,80,0,0
254238,666.666666666667,4,2,1,80,1,0
254904,-50,4,2,1,80,0,0
255571,697.674418604651,4,2,1,80,1,0
255571,-111.111111111111,4,2,1,80,0,0
256268,-50,4,2,1,80,0,0
256951,689.655172413793,4,2,1,80,1,0
256951,-100,4,2,1,80,0,0
258330,-125,4,2,1,80,0,0
258675,-83.3333333333333,4,2,1,80,0,0
259019,-62.5,4,2,1,80,0,0
259364,-166.666666666667,4,2,1,80,0,0
259709,-100,4,2,1,80,0,0
260054,-83.3333333333333,4,2,1,80,0,0
260399,-250,4,2,1,80,0,0
261778,-125,4,2,1,80,0,0
262468,-100,4,2,1,80,0,0
263157,-76.9230769230769,4,2,1,80,0,0
265236,689.655172413793,4,2,1,80,1,0
265236,-66.6666666666667,4,2,1,80,0,0
265925,-50,4,2,1,80,0,0
266845,-100,4,2,1,80,0,0
267304,-50,4,2,1,80,0,0
267994,-100,4,2,1,80,0,0
268684,-83.3333333333333,4,2,1,80,0,0
269373,-71.4285714285714,4,2,1,80,0,0
269718,-62.5,4,2,1,80,0,0
270063,-55.5555555555556,4,2,1,80,0,0
270408,-50,4,2,1,80,0,0
270753,-83.3333333333333,4,2,1,80,0,0
271442,-55.5555555555556,4,2,1,80,0,0
272132,-100,4,2,1,80,0,0
272477,-76.9230769230769,4,2,1,80,0,0
272822,-62.5,4,2,1,80,0,0
273488,689.655172413793,4,2,1,80,1,0
273488,-100,4,2,1,80,0,0
274172,-71.4285714285714,4,2,1,80,0,0
274862,-62.5,4,2,1,80,0,0
275552,-50,4,2,1,80,0,0
275896,-166.666666666667,4,2,1,80,0,0
276256,689.655172413793,4,2,1,80,1,0
276256,-76.9230769230769,4,2,1,80,0,0
276931,-50,4,2,1,80,0,0
277620,-76.9230769230769,4,2,1,80,0,0
278310,-50,4,2,1,80,0,0
279000,-83.3333333333333,4,2,1,80,0,0
280379,-71.4285714285714,4,2,1,80,0,0
280724,-62.5,4,2,1,80,0,0
281069,-55.5555555555556,4,2,1,80,0,0
281414,-100,4,2,1,80,0,0
281783,689.655172413793,4,2,1,80,1,0
281783,-83.3333333333333,4,2,1,80,0,0
283162,-83.3333333333333,4,2,1,80,0,0
284498,689.655172413793,4,2,1,80,1,0
284498,-83.3333333333333,4,2,1,80,0,0
286911,-181.818181818182,4,2,1,80,0,0
287296,689.655172413793,4,2,1,90,1,1
287296,-55.5555555555556,4,2,1,90,0,1
287510,-55.5555555555556,4,2,1,5,0,1
287625,-55.5555555555556,4,2,1,90,0,1
287855,-55.5555555555556,4,2,1,5,0,1
287970,-52.6315789473684,4,2,1,90,0,1
288200,-55.5555555555556,4,2,1,5,0,1
288315,-52.6315789473684,4,2,1,90,0,1
288544,-55.5555555555556,4,2,1,5,0,1
288659,-50,4,2,1,90,0,1
288889,-55.5555555555556,4,2,1,5,0,1
289004,-50,4,2,1,90,0,1
289234,-55.5555555555556,4,2,1,5,0,1
289349,-47.6190476190476,4,2,1,90,0,1
289579,-55.5555555555556,4,2,1,5,0,1
289694,-47.6190476190476,4,2,1,90,0,1
289924,-55.5555555555556,4,2,1,5,0,1
290074,689.655172413793,4,2,1,90,1,1
290074,-45.4545454545455,4,2,1,90,0,1
291073,-71.4285714285714,4,2,1,90,0,1
291418,-76.9230769230769,4,2,1,90,0,1
291763,-90.9090909090909,4,2,1,90,0,1
292108,-111.111111111111,4,2,1,90,0,1
292453,-142.857142857143,4,2,1,90,0,1
292797,-62.5,4,2,1,90,0,1
293142,-58.8235294117647,4,2,1,90,0,1
293487,-55.5555555555556,4,2,1,90,0,1
294881,689.655172413793,4,2,1,90,1,1
294881,-166.666666666667,4,2,1,90,0,1
295211,-83.3333333333333,4,2,1,90,0,1
295570,689.655172413793,4,2,1,90,1,1
295570,-100,4,2,1,90,0,1
296246,-62.5,4,2,1,90,0,1
296935,-100,4,2,1,90,0,1
297625,-142.857142857143,4,2,1,90,0,1
298315,-55.5555555555556,4,2,1,90,0,1
298487,-55.5555555555556,4,2,1,5,0,1
298659,-55.5555555555556,4,2,1,90,0,1
298832,-55.5555555555556,4,2,1,5,0,1
299004,-51.2820512820513,4,2,1,90,0,1
299177,-55.5555555555556,4,2,1,5,0,1
299349,-51.2820512820513,4,2,1,90,0,1
299579,-55.5555555555556,4,2,1,5,0,1
299694,-47.6190476190476,4,2,1,90,0,1
299924,-55.5555555555556,4,2,1,5,0,1
300039,-47.6190476190476,4,2,1,90,0,1
300269,-55.5555555555556,4,2,1,5,0,1
300384,-44.4444444444445,4,2,1,90,0,1
300613,-55.5555555555556,4,2,1,5,0,1
300728,-44.4444444444445,4,2,1,90,0,1
300958,-55.5555555555556,4,2,1,5,0,1
301087,697.674418604651,4,2,1,90,1,1
301087,-41.6666666666667,4,2,1,90,0,1
302108,-83.3333333333333,4,2,1,90,0,1
302453,-71.4285714285714,4,2,1,90,0,1
302797,-90.9090909090909,4,2,1,90,0,1
303180,681.818181818182,4,2,1,90,1,1
303180,-125,4,2,1,90,0,1
303487,-200,4,2,1,90,0,1
303861,689.655172413793,4,2,1,90,1,1
303861,-71.4285714285714,4,2,1,90,0,1
304177,-62.5,4,2,1,90,0,1
304522,-55.5555555555556,4,2,1,90,0,1
305909,689.655172413793,4,2,1,90,1,1
305909,-55.5555555555556,4,2,1,90,0,1
306598,-83.3333333333333,4,2,1,90,0,1
307280,655.737704918033,4,2,1,90,1,1
307943,689.655172413793,4,2,1,90,1,0
307943,-83.3333333333333,4,2,1,90,0,1
309383,697.674418604651,4,2,1,90,1,0
309612,-100,4,2,1,50,0,0
312173,714.285714285714,4,2,1,50,1,0
313557,689.655172413793,4,2,1,50,1,0
314246,-66.6666666666667,4,2,1,70,0,0
314371,-66.6666666666667,4,2,1,5,0,0
314476,-66.6666666666667,4,2,1,70,0,0
314601,-66.6666666666667,4,2,1,5,0,0
314706,-66.6666666666667,4,2,1,70,0,0
314831,-66.6666666666667,4,2,1,5,0,0
314936,689.655172413793,4,2,1,50,1,0
314936,-100,4,2,1,50,0,0
316295,689.655172413793,4,2,1,50,1,0
317674,681.818181818182,4,2,1,50,1,0
319719,-76.9230769230769,4,2,1,50,0,0
319776,-66.6666666666667,4,2,1,5,0,0
319946,-66.6666666666667,4,2,1,50,0,0
320003,-66.6666666666667,4,2,1,5,0,0
320174,-58.8235294117647,4,2,1,50,0,0
320230,-66.6666666666667,4,2,1,5,0,0
320401,697.674418604651,4,2,1,50,1,0
320401,-100,4,2,1,50,0,0
324546,697.674418604651,4,2,1,50,1,0
325243,-66.6666666666667,4,2,1,70,0,0
325364,-66.6666666666667,4,2,1,5,0,0
325476,-66.6666666666667,4,2,1,70,0,0
325594,-66.6666666666667,4,2,1,5,0,0
325708,-66.6666666666667,4,2,1,70,0,0
325824,-66.6666666666667,4,2,1,5,0,0
325941,674.157303370787,4,2,1,50,1,0
325941,-100,4,2,1,50,0,0
327289,750.000000000001,4,2,1,50,1,0
328039,800.000000000001,4,2,1,50,1,0
328698,689.655172413793,4,2,1,50,1,0
330077,750,4,2,1,70,1,0
330077,-55.5555555555556,4,2,1,70,0,0
330452,779.220779220779,4,2,1,60,1,0
330452,-66.6666666666667,4,2,1,60,0,0
330841,789.473684210526,4,2,1,50,1,0
330841,-90.9090909090909,4,2,1,50,0,0
331235,1071.42857142857,4,2,1,40,1,0
331235,-166.666666666667,4,2,1,40,0,0
331770,689.655172413793,4,2,1,40,1,0
331770,-285.714285714286,4,2,1,40,0,0
331880,-333.333333333334,4,2,1,5,0,0

[Colours]
Combo1 : 142,106,202
Combo2 : 189,102,102
Combo3 : 149,194,135
Combo4 : 194,125,236
Combo5 : 227,81,81
Combo6 : 113,193,117

[HitObjects]
472,61,460,6,0,P|384:78|221:192,1,260,2|0,1:2|1:1,0:1:0:0:
241,168,1324,2,0,P|272:152|262:101,1,86.6666666666667,2|2,0:0|0:0,0:0:0:0:
221,44,1783,2,0,P|238:132|352:295,1,260,2|0,1:0|1:0,0:0:0:0:
394,287,2702,1,2,0:0:0:0:
469,284,2932,1,2,0:0:0:0:
359,301,3162,6,0,P|287:310|145:361,1,208,2|0,1:0|1:0,0:0:0:0:
94,342,4075,2,0,P|51:356|24:360,1,51.999998413086,2|2,0:0|0:0,0:0:0:0:
145,198,4525,2,0,P|156:156|175:103,1,95.3333333333333,2|0,1:0|0:0,0:0:0:0:
173,107,5230,6,0,B|129:118|148:124|89:150,1,90.9999972229005,2|0,1:1|0:0,0:0:0:0:
39,155,5466,2,0,B|94:176|85:159|124:183,1,90.9999972229005,2|0,0:1|0:0,0:0:0:0:
137,256,5701,2,0,B|147:211|153:230|178:176,1,90.9999972229005,2|0,0:1|0:0,0:0:0:0:
173,107,5936,6,0,P|208:202|330:324,1,260,2|0,1:0|1:0,0:0:0:0:
387,311,6845,2,0,P|385:250|360:245,1,86.6666666666667,2|2,0:0|0:0,0:0:0:0:
279,180,7299,2,0,P|361:172|522:75,1,260,2|0,1:0|1:0,0:0:0:0:
455,46,8181,1,2,0:0:0:0:
395,76,8446,1,2,0:0:0:0:
286,100,8710,6,0,P|208:58|77:41,1,208,2|0,1:0|1:0,0:0:0:0:
44,93,9619,2,0,P|33:143|23:174,1,60.666664815267,2|2,0:0|0:0,0:0:0:0:
158,231,10073,2,0,P|100:238|58:263,1,103.999996826172,2|2,1:0|3:2,0:0:0:0:
101,270,10755,6,0,L|89:223,1,27.0833333333333,2|0,1:0|0:0,0:0:0:0:
214,224,11005,6,0,L|193:184,1,34.6666666666667,2|0,1:0|0:0,0:0:0:0:
296,92,11255,6,0,L|257:54,1,42.250000161171,2|0,1:0|0:0,0:0:0:0:
288,23,11458,6,0,P|288:81|284:300,1,260,2|0,1:0|1:0,0:0:0:0:
285,357,12399,1,2,0:0:0:0:
267,287,12634,1,2,0:0:0:0:
295,207,12869,2,0,P|290:108|282:-2,1,208,2|0,1:0|1:0,0:0:0:0:
299,21,13749,1,2,3:2:0:0:
264,81,13978,1,2,0:0:0:0:
313,152,14206,2,0,P|308:208|297:315,1,155.999995239258,2|0,1:0|1:0,0:0:0:0:
304,349,15121,1,2,0:0:0:0:
282,302,15349,1,2,0:0:0:0:
304,231,15578,2,0,P|301:177|299:131,1,95.3333333333333,2|0,1:0|0:0,0:0:0:0:
299,135,16267,6,0,P|280:167|221:164,1,90.9999972229005,2|0,1:0|0:0,0:0:0:0:
224,91,16497,2,0,P|254:120|233:182,1,90.9999972229005,2|0,3:1|0:0,0:0:0:0:
142,218,16727,2,0,P|148:179|191:148,1,90.9999972229005,2|0,3:1|0:0,0:0:0:0:
217,251,16957,6,0,B|298:220|-16:302,1,260,2|0,1:0|1:0,0:0:0:0:
54,258,17887,2,0,P|64:229|18:196,1,86.6666666666667,2|2,0:0|0:0,0:0:0:0:
126,350,18352,2,0,B|174:370|174:370|264:316|264:316|391:349,1,260,2|0,1:0|1:0,0:0:0:0:
439,316,19282,1,2,0:0:0:0:
506,371,19515,1,2,0:0:0:0:
432,333,19747,6,0,P|376:338|319:162,1,260,2|0,1:0|1:0,0:0:0:0:
329,244,20645,2,0,P|355:251|382:201,1,86.6666666666667,2|2,0:0|0:0,0:0:0:0:
324,38,21095,6,0,B|290:67|344:140|403:90|477:81|457:153|427:154|405:128,1,205.833327836991,2|0,1:0|0:0,0:0:0:0:
353,111,21441,2,0,B|315:132|273:110|273:110|232:133|240:166,1,151.666662038167,2|0,1:0|0:0,0:0:0:0:
276,218,21788,2,0,B|263:175|263:175|288:138|288:138|293:86,1,130,2|0,1:0|0:0,0:0:0:0:
223,94,22172,2,0,L|213:11,1,75.8333310190837,2|4,1:0|1:2,0:0:0:0:
213,18,22861,6,0,P|192:69|116:49,1,130,2|8,0:0|1:2,0:0:0:0:
60,101,23379,1,2,0:0:0:0:
127,62,23551,2,0,P|101:40|47:46,1,65,0|0,3:0|0:0,0:0:0:0:
75,200,23896,2,0,B|129:187|129:187|184:106|184:106|258:88,1,216.666666666667,2|0,1:2|0:0,0:0:0:0:
419,144,24585,1,8,1:2:0:0:
398,162,24815,2,0,P|393:113|385:77,1,86.6666666666667,2|0,3:2|0:0,0:0:0:0:
442,40,25160,1,2,0:0:0:0:
429,124,25275,6,0,P|423:188|423:332,1,195,2|0,1:0|0:0,0:0:0:0:
350,383,25965,2,0,P|347:302|329:169,1,195,8|0,1:2|0:0,0:0:0:0:
281,59,26654,1,2,1:2:0:0:
293,81,26999,2,0,P|345:90|399:103,1,65,2|0,0:0|3:0,0:0:0:0:
511,82,27344,1,8,1:2:0:0:
391,86,27603,1,2,0:0:0:0:
381,95,27689,1,2,3:0:0:0:
369,90,27775,1,2,0:0:0:0:
217,100,28034,5,2,1:0:0:0:
357,84,28379,1,2,0:0:0:0:
476,73,28723,2,0,P|403:82|249:154,1,195,10|0,1:2|0:0,0:0:0:0:
231,169,29413,2,0,P|241:121|242:95,2,43.3333333333333,0|0|0,1:0|0:0|0:0,0:0:0:0:
162,198,29758,2,0,P|182:236|234:235,1,86.6666666666667,2|0,0:0|0:0,0:0:0:0:
387,159,30103,1,8,1:2:0:0:
212,327,30448,2,0,P|301:283|300:223,1,130,0|2,3:0|1:2,0:0:0:0:
306,262,30965,6,0,B|297:233|297:233|306:189,2,65,0|0|0,0:0|3:0|0:0,0:0:0:0:
403,367,31482,1,8,1:2:0:0:
306,262,31827,2,0,L|425:295,1,108.333333333333,2|0,0:0|0:0,0:0:0:0:
448,311,32172,2,0,P|428:283|442:227,1,86.6666666666667,2|0,1:0|3:0,0:0:0:0:
499,201,32517,2,0,P|520:237|510:278,1,86.6666666666667,0|0,3:0|3:0,0:0:0:0:
325,376,32861,1,8,1:2:0:0:
325,376,32976,2,0,P|328:322|329:295,2,43.3333333333333,2|0|0,0:0|0:0|3:0,0:0:0:0:
360,95,33436,5,2,0:0:0:0:
336,38,33543,2,0,P|342:151|350:271,1,216.666666666667,2|0,1:0|0:0,0:0:0:0:
360,375,34229,1,8,1:2:0:0:
428,325,34401,2,0,P|445:265|504:247,1,130,2|0,0:0|0:0,0:0:0:0:
286,271,34916,2,0,B|231:283|231:283|166:357|166:357|94:369,1,195,2|0,1:2|0:0,0:0:0:0:
216,250,35603,2,0,L|224:207,2,43.3333333333333,8|0|0,1:2|0:0|3:0,0:0:0:0:
109,249,35947,2,0,B|86:213|86:213|99:143,1,86.6666666666667,2|0,0:0|0:0,0:0:0:0:
236,103,36290,5,2,1:0:0:0:
209,82,36634,2,0,P|155:91|109:101,1,86.6666666666667,0|0,3:0|0:0,0:0:0:0:
310,11,36977,1,8,1:2:0:0:
293,177,37206,1,2,0:0:0:0:
293,177,37320,2,0,P|280:101|272:54,1,86.6666666666667,0|0,3:0|0:0,0:0:0:0:
412,25,37664,2,0,P|409:86|352:110,1,130,2|2,1:0|0:0,0:0:0:0:
196,0,38179,1,2,3:2:0:0:
72,73,38351,2,0,P|87:46|156:57,1,86.6666666666667,10|0,1:2|0:0,0:0:0:0:
146,125,38694,2,0,P|176:124|201:189,1,86.6666666666667,2|0,3:2|0:0,0:0:0:0:
11,273,39038,6,0,B|2:266|-13:261|-13:261|87:241,1,130,2|2,1:0|3:2,0:0:0:0:
339,247,39610,1,0,3:2:0:0:
339,247,39725,2,0,P|310:155|289:89,1,130,8|0,1:2|0:0,0:0:0:0:
258,72,40240,1,2,0:0:0:0:
223,210,40411,2,0,P|144:160|160:99,1,130,0|2,1:0|3:0,0:0:0:0:
417,0,41098,1,10,1:2:0:0:
446,66,41270,1,2,0:0:0:0:
435,1,41442,1,2,0:0:0:0:
381,92,41613,5,2,0:0:0:0:
512,210,41805,2,0,B|441:217|461:269|392:285,1,130,2|0,1:0|0:0,0:0:0:0:
161,270,42494,2,0,P|192:263|225:258,1,65,8|0,1:2|0:0,0:0:0:0:
289,281,42839,1,2,3:0:0:0:
220,293,43011,1,2,0:0:0:0:
105,301,43184,2,0,P|176:318|258:355,1,130,2|0,1:0|0:0,0:0:0:0:
285,374,43701,1,2,0:0:0:0:
221,176,43873,1,8,1:2:0:0:
221,176,44305,5,2,0:0:0:0:
36,251,44520,1,2,0:1:0:0:
238,249,44736,1,2,0:0:0:0:
238,249,45080,5,2,0:0:0:0:
175,233,45253,2,0,P|114:256|105:345,1,130,8|0,1:2|0:0,0:0:0:0:
154,345,45770,1,2,3:2:0:0:
265,178,45942,2,0,P|251:85|241:9,1,130,2|2,1:2|3:0,0:0:0:0:
182,109,46632,2,0,P|108:138|77:147,1,65,8|0,1:2|0:0,0:0:0:0:
246,170,46977,2,0,P|249:148|253:127,2,43.3333333333333,0|0|2,3:0|0:0|0:0,0:0:0:0:
344,273,47322,6,0,P|275:208|133:210,1,227.5,2|0,1:0|0:0,0:0:0:0:
52,221,48011,2,0,P|107:282|165:254,1,130,8|0,1:2|3:0,0:0:0:0:
279,72,48701,2,0,P|271:6|265:-38,1,65,2|0,1:2|0:0,0:0:0:0:
250,139,49046,2,0,P|257:193|266:263,1,97.5,2|0,0:0|0:0,0:0:0:0:
250,272,49391,2,0,B|263:199|312:249|331:134,1,130,10|2,1:2|0:0,0:0:0:0:
346,104,49908,1,2,0:0:0:0:
393,286,50080,5,2,1:0:0:0:
393,286,50195,2,0,P|343:279|330:211,1,86.6666666666667,2|0,0:0|3:0,0:0:0:0:
182,115,50598,1,2,0:0:0:0:
132,190,50770,2,0,P|212:186|224:90,1,130,8|0,1:2|3:0,0:0:0:0:
291,0,51460,2,0,P|296:101|310:186,1,130,0|2,1:0|3:0,0:0:0:0:
215,318,52149,1,8,1:2:0:0:
215,318,52264,2,0,P|210:250|208:236,2,43.3333333333333,2|0|0,0:0|0:0|3:0,0:0:0:0:
191,260,52724,5,2,0:0:0:0:
167,370,52839,2,0,P|105:340|99:198,1,195,2|0,1:0|0:0,0:0:0:0:
0,197,53529,2,0,P|10:282|10:305,1,65,8|0,1:2|0:0,0:0:0:0:
154,110,53873,2,0,P|89:120|54:124,1,97.5,2|0,0:0|0:0,0:0:0:0:
24,104,54199,1,2,1:0:0:0:
211,167,54371,1,2,0:0:0:0:
211,167,54543,2,0,P|202:103|192:26,1,130,2|8,3:0|1:2,0:0:0:0:
217,15,55184,5,2,0:0:0:0:
202,46,55282,1,2,0:0:0:0:
190,12,55381,1,2,0:0:0:0:
280,0,55578,6,0,P|336:15|332:123,1,130,2|0,1:0|3:0,0:0:0:0:
310,136,56095,1,2,0:0:0:0:
475,159,56267,2,0,P|417:233|295:198,1,195,8|0,1:2|0:0,0:0:0:0:
172,274,56957,2,0,B|183:233|183:233|220:201|220:201|233:158,1,130,0|2,1:0|3:0,0:0:0:0:
199,106,57474,1,2,0:0:0:0:
255,154,57646,2,0,L|244:256,1,65,8|0,1:2|0:0,0:0:0:0:
276,32,57991,2,0,L|198:46,2,43.3333333333333,0|0|2,3:0|0:0|0:0,0:0:0:0:
270,251,58336,6,0,L|250:109,2,130,2|2|8,1:0|3:0|1:2,0:0:0:0:
247,315,59198,1,2,0:0:0:0:
375,335,59371,2,0,P|325:317|318:260,1,65,2|0,3:0|0:0,0:0:0:0:
242,185,59715,2,0,L|354:216,1,86.6666666666667,2|0,1:2|0:0,0:0:0:0:
383,249,60060,2,0,P|351:180|342:143,1,86.6666666666667,2|0,0:0|0:0,0:0:0:0:
425,162,60405,2,0,P|436:106|488:9,1,130,10|2,1:2|3:0,0:0:0:0:
393,30,60865,2,0,P|411:84|419:94,1,43.3333333333333,2|0,0:0|0:0,0:0:0:0:
504,193,61095,5,2,1:0:0:0:
319,84,61440,1,2,3:2:0:0:
504,193,61784,2,0,B|436:196|463:240|384:265,1,130,8|0,1:2|0:0,0:0:0:0:
331,281,62302,1,2,0:0:0:0:
331,281,62474,2,0,P|368:289|430:314,1,65,0|0,1:0|0:0,0:0:0:0:
155,194,62819,2,0,P|170:279|179:359,1,130,2|8,3:0|1:2,0:0:0:0:
228,364,63336,1,2,0:0:0:0:
236,239,63509,2,0,P|245:173|263:134,1,65,0|0,3:0|0:0,0:0:0:0:
235,38,63853,6,0,P|277:104|349:144,1,130,2|0,1:0|3:0,0:0:0:0:
385,129,64371,1,2,0:0:0:0:
220,108,64543,2,0,P|177:110|115:134,1,86.6666666666667,10|0,1:2|0:0,0:0:0:0:
72,104,64888,2,0,P|129:110|227:142,1,130,2|2,0:0|1:2,0:0:0:0:
124,16,65578,1,2,3:0:0:0:
285,161,65922,2,0,P|285:128|289:96,1,65,10|0,1:2|0:0,0:0:0:0:
293,31,66267,1,2,0:0:0:0:
275,65,66382,1,2,0:0:0:0:
302,97,66497,1,2,0:0:0:0:
285,161,66612,5,2,1:0:0:0:
385,109,66784,1,2,0:0:0:0:
313,226,66957,1,2,3:2:0:0:
313,226,67072,2,0,P|242:239|201:259,1,86.6666666666667,2|8,0:0|1:2,0:0:0:0:
228,244,67991,2,0,P|278:300|261:347,1,130,2|2,1:2|3:0,0:0:0:0:
165,206,68509,1,2,0:0:0:0:
322,19,68681,2,0,P|250:54|277:177,1,195,8|0,1:2|0:0,0:0:0:0:
427,200,69371,6,0,P|495:175|531:170,1,65,2|0,1:0|0:0,0:0:0:0:
449,209,69715,2,0,P|486:218|538:244,1,65,0|0,3:0|0:0,0:0:0:0:
435,282,70060,2,0,P|371:294|310:316,1,130,8|2,1:2|3:0,0:0:0:0:
246,300,70578,1,2,0:0:0:0:
405,369,70750,1,2,1:0:0:0:
207,225,71095,1,2,0:0:0:0:
456,106,71440,1,8,1:2:0:0:
430,87,71669,1,0,3:0:0:0:
430,87,71784,2,0,P|437:145|437:196,1,86.6666666666667,2|0,0:0|0:0,0:0:0:0:
479,233,72129,6,0,P|483:162|489:133,1,65,2|0,1:0|0:0,0:0:0:0:
371,218,72474,2,0,P|382:294|382:327,1,65,2|0,3:2|0:0,0:0:0:0:
259,336,72819,2,0,P|269:220|266:171,1,130,10|0,1:2|0:0,0:0:0:0:
292,4,73394,1,2,0:0:0:0:
292,4,73509,2,0,B|293:49|293:49|309:107,1,86.6666666666667,0|0,1:0|0:0,0:0:0:0:
226,113,73853,2,0,B|225:68|225:68|209:10,1,86.6666666666667,2|0,3:2|0:0,0:0:0:0:
330,160,74198,1,8,1:2:0:0:
145,231,74428,1,2,0:0:0:0:
145,231,74543,2,0,P|135:192|163:148,1,86.6666666666667,2|0,3:0|0:0,0:0:0:0:
378,66,74888,6,0,B|349:200|251:101|237:249,1,238.333333333333,2|0,1:0|0:0,0:0:0:0:
277,346,75578,1,8,1:2:0:0:
292,357,75922,2,0,L|299:288,1,65,2|0,0:0|0:0,0:0:0:0:
319,99,76267,2,0,P|328:194|336:267,1,130,2|2,1:2|3:0,0:0:0:0:
369,282,76784,1,2,0:0:0:0:
242,137,76957,1,8,1:2:0:0:
217,198,77129,1,2,0:0:0:0:
240,152,77302,2,0,B|165:164|207:196|127:239,1,130,2|2,3:0|1:0,0:0:0:0:
142,230,77969,5,2,3:0:0:0:
210,232,78142,1,2,0:0:0:0:
287,217,78314,1,8,1:2:0:0:
287,217,78429,2,0,P|330:223|381:248,1,86.6666666666667,2|2,0:0|3:0,0:0:0:0:
405,224,78831,1,2,0:0:0:0:
155,126,79004,1,2,1:0:0:0:
178,144,79234,1,2,0:0:0:0:
178,144,79349,2,0,P|174:95|171:80,2,43.3333333333333,2|0|0,3:0|0:0|3:0,0:0:0:0:
135,203,79693,2,0,P|129:264|123:294,1,86.6666666666667,10|0,1:2|0:0,0:0:0:0:
198,256,80038,2,0,P|207:328|216:367,1,86.6666666666667,0|0,3:0|0:0,0:0:0:0:
150,371,80404,6,0,P|233:357|268:220,1,195,2|0,1:0|0:0,0:0:0:0:
345,31,81093,2,0,P|268:66|270:207,1,195,8|0,1:2|0:0,0:0:0:0:
310,192,81783,1,2,1:2:0:0:
327,182,82128,1,2,3:0:0:0:
312,113,82300,1,2,0:0:0:0:
269,251,82472,1,8,1:2:0:0:
281,264,82817,2,0,P|348:252|375:250,1,65,2|0,0:0|0:0,0:0:0:0:
491,203,83162,5,2,1:2:0:0:
409,238,83507,1,0,0:0:0:0:
325,274,83737,1,2,0:0:0:0:
325,274,83852,2,0,P|307:178|287:90,1,130,8|2,1:2|3:0,0:0:0:0:
300,146,84541,6,0,P|317:186|381:168,1,90.9999972229005,2|0,1:3|0:0,0:0:0:0:
403,127,84886,2,0,P|358:88|386:49,1,99.6666685676575,2|0,3:0|0:0,0:0:0:0:
310,0,85231,2,0,P|285:53|218:37,1,108.333333333333,8|0,1:2|0:0,0:0:0:0:
224,133,85576,2,0,P|166:113|161:218,1,175.500000669479,2|2,3:0|1:0,0:0:0:0:
300,146,86266,1,0,1:3:0:0:
162,347,86610,2,0,P|52:335|62:225,1,243.75,4|0,1:0|0:0,0:0:0:0:
198,169,87300,5,2,1:0:0:0:
223,232,87472,1,8,1:2:0:0:
269,146,87644,1,8,1:3:0:0:
210,93,87817,1,2,0:0:0:0:
144,241,87989,1,0,1:0:0:0:
302,220,88162,1,4,3:0:0:0:
352,95,88334,1,0,3:0:0:0:
326,18,88507,1,2,0:2:0:0:
326,18,88689,6,0,P|335:92|346:164,1,130,4|0,1:0|3:0,0:0:0:0:
269,94,89263,5,2,0:2:0:0:
310,208,89378,2,2,B|316:174|348:149|402:148|399:172|432:187|488:170|506:122|471:90|437:86|412:109|430:115,1,260,10|0,1:2|3:1,0:1:0:0:
19,66,90068,5,2,1:2:0:0:
130,134,90298,2,0,B|135:97|135:97|109:38,1,77.999997619629,2|0,0:2|0:0,0:0:0:0:
93,34,90643,5,2,0:2:0:0:
54,144,90757,2,2,B|100:108|185:86|244:164|183:240|126:127,1,260,10|0,1:2|3:2,0:1:0:0:
270,368,91447,5,2,1:0:0:0:
204,40,91792,2,0,L|301:69,1,73.6666680717469,2|0,0:0|0:0,0:0:0:0:
498,87,92137,6,0,P|464:88|416:130,1,82.3333311347962,10|0,1:2|0:0,0:0:0:0:
457,226,92482,2,0,P|400:219|360:178,1,103.999996826172,2|0,0:0|0:0,0:0:0:0:
343,33,92826,2,0,P|298:79|290:157,1,125.666670501709,2|0,1:2|0:0,0:0:0:0:
267,279,93171,2,0,P|232:261|207:141,1,147.333336143494,2|0,0:0|0:0,0:0:0:0:
123,45,93516,6,2,B|128:-2|182:4|203:23|148:107|75:100,1,202.583337197304,10|0,1:2|0:1,0:1:0:0:
4,90,94206,5,2,1:2:0:0:
140,128,94551,2,0,P|72:99|19:87,1,71.5000021820069,2|0,3:0|0:0,0:0:0:0:
121,289,94895,1,8,1:2:0:0:
299,206,95240,2,0,P|223:224|157:265,1,126.749994197846,2|0,0:1|0:0,0:0:0:0:
147,240,95585,1,2,1:0:0:0:
188,180,95757,1,2,0:0:0:0:
119,237,95930,1,2,3:0:0:0:
254,278,96102,1,2,0:0:0:0:
254,278,96275,2,0,B|345:295|299:331|391:366,1,130,10|2,1:2|3:0,0:0:0:0:
289,379,96792,1,2,0:0:0:0:
236,160,96964,5,2,1:2:0:0:
164,114,97309,2,0,P|216:113|233:167,1,108.333333333333,2|0,0:0|0:0,0:0:0:0:
260,226,97654,6,0,L|253:283,1,52,10|2,1:2|3:0,0:0:0:0:
449,136,98344,6,0,P|395:120|333:220,1,173.333333333333,2|0,1:0|0:0,0:0:0:0:
399,261,98746,2,0,P|416:245|393:255,1,69.3333333333333,2|0,0:1|0:0,0:1:0:0:
368,329,98918,5,2,3:1:0:0:
432,343,99033,2,2,P|338:353|268:197,1,260,14|0,1:3|0:1,0:1:0:0:
235,159,99436,6,0,L|243:102,1,52,2|2,0:2|3:0,0:0:0:0:
33,311,99723,6,0,B|77:361|77:361|138:350,1,130,4|0,1:0|3:0,0:0:0:0:
259,225,100298,5,2,0:1:0:0:
229,288,100413,2,2,L|197:24,1,260,10|2,1:2|3:0,0:1:0:0:
314,42,101102,6,0,P|288:91|232:92,1,116.999996429443,2|0,3:2|0:0,0:0:0:0:
197,29,101620,5,2,0:0:0:0:
114,208,101792,2,2,B|125:163|125:163|353:216,1,260,10|2,1:2|3:0,0:1:0:0:
61,256,102482,5,2,1:0:0:0:
395,147,102826,2,0,L|408:243,1,82.3333311347962,2|0,0:0|0:0,0:0:0:0:
448,341,103171,6,0,B|476:362|505:376|550:353|559:283|500:246|427:273|420:315|441:314|386:361|326:366,1,303.333324076335,10|0,1:2|0:1,0:1:0:0:
214,247,103861,2,0,B|170:318|114:317|42:209|154:122|295:199|320:299,1,368.333340358734,2|0,1:0|0:1,0:1:0:0:
407,172,104551,2,2,B|411:243|480:230|518:188|507:125|444:99|380:127|307:156|191:125|168:39|259:-20|350:7|311:103,1,500.499984725953,10|0,1:2|0:1,0:1:0:0:
241,156,105240,6,0,P|147:168|20:185,1,216.666666666667,2|0,1:2|0:0,0:0:0:0:
300,197,105930,1,8,1:2:0:0:
300,197,106275,2,0,B|286:159|286:159|301:98,1,86.6666666666667,2|0,0:1|0:0,0:0:0:0:
299,13,106620,5,2,1:0:0:0:
333,82,106792,1,2,0:2:0:0:
241,156,106965,1,0,3:0:0:0:
361,268,107137,1,2,0:0:0:0:
361,268,107309,2,0,B|374:256|385:246|385:246|289:270,1,130,8|0,1:2|3:0,0:0:0:0:
17,155,107999,6,0,P|137:170|244:184,1,214.49999345398,2|0,1:0|0:0,0:0:0:0:
306,131,108680,6,2,B|394:141|361:23|232:72|255:180|294:254|182:329|96:291|66:205|163:150|246:188,1,476.666681213379,8|2,1:2|0:1,0:1:0:0:
229,182,109362,5,2,1:2:0:0:
71,249,109533,1,4,1:0:0:0:
180,223,109703,1,4,1:3:0:0:
300,199,109874,1,8,3:0:0:0:
240,308,110044,1,2,1:2:0:0:
121,187,110214,1,0,1:0:0:0:
248,61,110385,2,0,L|333:81,1,69.3333333333333,4|2,1:3|0:1,0:0:0:0:
506,116,110726,5,6,1:2:0:0:
370,171,110900,2,0,P|424:146|410:88,1,130,2|2,0:1|0:1,0:1:0:0:
201,224,111423,2,2,P|337:86|512:2,2,390.00001487732,10|0|8,1:2|1:1|1:2,0:1:0:0:
106,138,113167,2,0,P|170:150|189:154,1,58.4999982147217,2|0,3:1|0:0,0:0:0:0:
288,228,113516,6,0,B|283:111|183:180|152:44,1,238.33334060669,2|0,1:0|0:0,0:0:0:0:
344,0,114214,1,8,1:2:0:0:
365,5,114563,2,0,P|356:63|293:64,1,95.3333362426759,2|0,3:2|0:0,0:0:0:0:
248,123,114912,2,0,P|258:39|259:7,1,95.3333362426759,2|0,1:2|0:0,0:0:0:0:
370,163,115260,2,0,B|414:176|414:176|455:230|455:230|520:249,1,143.000004364014,2|8,0:2|1:2,0:0:0:0:
483,238,115776,1,2,0:1:0:0:
418,200,115944,1,2,0:2:0:0:
343,211,116111,1,2,0:1:0:0:
274,250,116277,5,2,1:0:0:0:
207,267,116448,1,2,0:2:0:0:
275,279,116619,1,2,0:1:0:0:
287,347,116791,1,2,0:1:0:0:
219,371,116962,2,0,P|208:289|149:118,1,263.250001004219,10|0,1:2|0:0,0:0:0:0:
58,42,117648,1,2,1:2:0:0:
90,179,117819,2,0,P|150:218|259:252,1,175.500000669479,2|0,0:1|0:0,0:0:0:0:
385,127,118334,1,8,1:2:0:0:
385,127,118448,2,0,P|330:133|264:179,1,117.00000044632,2|0,0:1|3:0,0:0:0:0:
210,84,118905,5,2,0:0:0:0:
251,28,119019,2,0,P|257:152|265:346,1,311.999990478516,0|10,1:0|1:2,0:0:0:0:
255,351,120048,1,2,3:0:0:0:
279,284,120219,1,2,0:1:0:0:
236,213,120391,2,0,P|246:142|250:121,1,74.7500014257431,2|0,1:0|0:0,0:0:0:0:
318,138,120734,2,0,P|301:64|298:46,1,74.7500014257431,2|0,3:0|0:0,0:0:0:0:
208,11,121077,2,0,P|197:61|187:105,1,74.7500014257431,8|0,1:2|0:0,0:0:0:0:
321,224,121419,2,0,P|307:300|297:349,1,124.583335709572,2|0,0:1|0:0,0:0:0:0:
319,384,121762,5,2,1:0:0:0:
272,275,121938,1,2,0:1:0:0:
243,339,122114,1,2,3:0:0:0:
398,234,122291,1,2,3:2:0:0:
262,119,122467,1,10,1:2:0:0:
244,109,122820,2,0,P|251:152|255:184,1,74.7500014257431,2|2,3:0|0:2,0:0:0:0:
305,235,123173,1,2,1:0:0:0:
185,159,123341,1,2,0:1:0:0:
328,224,123510,1,2,3:0:0:0:
180,274,123678,1,2,0:2:0:0:
346,148,123847,2,0,P|385:144|455:135,1,99.6666685676575,10|0,1:2|0:0,0:0:0:0:
471,149,124184,2,0,L|456:62,1,74.7500014257431,2|2,3:0|0:2,0:0:0:0:
421,7,124521,5,2,1:0:0:0:
392,43,124697,1,2,0:1:0:0:
323,55,124873,1,2,3:0:0:0:
251,34,125050,1,2,3:2:0:0:
168,68,125226,1,10,1:2:0:0:
153,163,125403,1,2,0:1:0:0:
225,260,125579,1,2,3:0:0:0:
352,227,125756,1,2,0:1:0:0:
352,227,125932,2,0,P|282:197|243:182,1,99.6666685676575,2|0,1:0|0:0,0:0:0:0:
210,136,126285,2,0,P|225:204|234:253,1,99.6666685676575,2|0,3:1|0:0,0:0:0:0:
232,339,126638,2,0,P|165:313|158:224,1,149.500002851486,10|2,1:2|0:1,0:0:0:0:
232,339,127168,1,2,0:0:0:0:
80,202,127344,6,2,P|197:212|257:49,2,299.000005702973,2|10|2,1:0|1:2|1:0,0:1:0:0:
218,17,129029,1,2,0:1:0:0:
170,70,129197,1,2,0:1:0:0:
119,18,129366,1,8,1:2:0:0:
119,18,129478,2,0,P|180:28|232:51,1,99.6666685676575,2|0,0:1|0:0,0:0:0:0:
492,285,130040,6,0,P|505:234|458:182,1,124.583335709572,0|0,1:0|0:0,0:0:0:0:
438,205,130397,2,0,P|424:269|399:363,1,149.500002851486,2|8,3:0|1:2,0:0:0:0:
433,118,131049,1,2,0:1:0:0:
502,106,131246,1,2,0:1:0:0:
329,296,131443,6,0,B|298:205|215:269|203:173,1,184.166670179367,6|0,1:0|0:0,0:0:0:0:
280,135,131788,2,0,P|304:109|275:134,1,121.333329630534,4|0,1:3|0:0,0:0:0:0:
145,235,132133,5,2,1:0:0:0:
352,166,132299,1,0,1:0:0:0:
172,105,132466,1,4,3:0:0:0:
329,296,132633,1,2,1:3:0:0:
203,177,132799,6,2,B|235:146|235:146|209:40|209:40|234:8,1,190.666666666667,4|0,1:2|0:1,0:1:0:0:
257,73,133480,2,0,L|319:95,2,65,8|2|2,1:2|3:0|3:2,0:0:0:0:
348,16,134526,1,2,3:0:0:0:
203,177,134875,2,0,L|266:158,2,65,8|2|2,1:2|0:0|3:0,0:0:0:0:
190,151,135398,2,0,L|293:179,1,97.50000371933,2|0,0:0|1:0,0:0:0:0:
377,221,135921,1,2,0:0:0:0:
377,221,136096,1,0,3:0:0:0:
310,246,136270,2,0,L|231:272,1,65,8|0,1:2|0:0,0:0:0:0:
266,250,136619,2,0,L|296:262,1,32.5,2|0,0:0|3:0,0:0:0:0:
316,374,136968,2,0,L|194:327,2,130,0|0|8,1:0|3:0|1:2,0:0:0:0:
286,343,137836,2,0,L|212:365,1,65,2|0,0:0|0:0,0:0:0:0:
123,315,138347,6,0,P|119:342|112:369,2,55.2500010538101,2|0|0,1:2|0:0|3:0,0:0:0:0:
157,199,138859,1,2,0:0:0:0:
61,254,139029,2,0,P|142:234|220:210,1,165.75000316143,8|2,1:2|0:0,0:0:0:0:
461,198,139726,1,0,3:0:0:0:
286,175,140075,1,2,3:0:0:0:
114,146,140424,1,8,1:2:0:0:
157,199,140594,2,0,P|176:187|184:86,1,110.50000210762,2|0,0:0|0:0,0:0:0:0:
45,24,141105,6,0,P|41:52|31:101,2,55.2500010538101,0|2|0,1:0|0:0|3:0,0:0:0:0:
109,81,141617,1,2,0:0:0:0:
249,0,141787,2,0,P|259:67|275:166,1,165.75000316143,8|0,1:2|0:0,0:0:0:0:
277,370,142476,1,0,1:2:0:0:
290,303,142649,1,2,0:0:0:0:
249,244,142993,1,2,0:0:0:0:
249,244,143166,1,10,1:2:0:0:
290,303,143338,1,2,0:0:0:0:
318,218,143683,5,2,0:2:0:0:
318,218,143855,1,2,1:2:0:0:
254,250,144028,1,2,0:0:0:0:
354,298,144200,1,2,0:0:0:0:
416,130,144373,1,2,0:0:0:0:
201,164,144545,1,10,1:2:0:0:
271,145,144718,2,0,B|340:155|314:198|367:206,1,110.50000210762,2|0,0:0|0:0,0:0:0:0:
480,159,145235,1,2,3:2:0:0:
373,183,145409,2,0,B|324:190|348:229|285:249,1,110.50000210762,2|0,0:0|0:0,0:0:0:0:
212,31,145932,1,8,1:2:0:0:
275,65,146107,1,2,0:0:0:0:
210,73,146455,5,2,0:0:0:0:
277,43,146630,1,0,1:0:0:0:
208,83,146804,1,2,0:0:0:0:
308,188,147153,1,2,0:0:0:0:
217,155,147328,1,8,1:2:0:0:
125,126,147500,1,2,0:0:0:0:
125,126,147672,2,0,P|140:188|147:268,1,130,2|0,0:0|3:0,0:0:0:0:
128,280,148132,2,0,P|211:255|231:254,1,86.6666666666667,2|0,0:0|3:0,0:0:0:0:
299,269,148534,1,2,0:0:0:0:
64,176,148707,5,8,1:2:0:0:
44,169,149052,2,0,P|51:197|57:225,1,58.4999982147217,0|0,3:0|0:0,0:0:0:0:
51,263,149396,5,2,1:2:0:0:
108,220,149569,1,2,0:0:0:0:
177,234,149741,1,2,3:0:0:0:
116,256,149914,1,2,0:0:0:0:
241,282,150086,1,8,1:2:0:0:
308,176,150259,1,2,0:0:0:0:
217,63,150431,1,2,3:0:0:0:
85,132,150603,1,2,3:2:0:0:
214,131,150776,1,0,3:0:0:0:
128,74,150948,1,2,0:0:0:0:
161,134,151121,1,2,3:0:0:0:
194,54,151293,1,2,3:2:0:0:
94,214,151465,1,10,1:2:0:0:
333,164,151803,2,0,P|265:180|233:189,1,65,2|0,3:0|0:0,0:0:0:0:
455,154,152142,6,0,P|418:100|337:106,1,130,2|0,1:2|3:0,0:0:0:0:
269,178,152651,2,0,L|312:188,1,32.5,2|0,3:0|0:0,0:0:0:0:
351,235,152820,2,0,P|316:287|253:294,1,130,10|0,1:2|0:0,0:0:0:0:
219,261,153307,1,4,3:0:0:0:
366,165,153501,1,2,3:2:0:0:
366,165,153842,1,2,3:2:0:0:
219,261,154013,1,4,3:0:0:0:
334,104,154183,1,8,1:2:0:0:
334,104,154540,5,2,3:0:0:0:
366,165,154718,1,2,0:0:0:0:
293,160,154897,2,0,P|218:172|68:236,1,214.500006546021,2|0,1:0|0:0,0:0:0:0:
31,127,155594,2,0,P|111:143|126:153,1,57.2000017456055,10|0,1:2|0:0,0:0:0:0:
174,115,155905,2,0,P|224:156|240:183,1,52,2|0,0:0|0:0,0:0:0:0:
294,166,156242,2,0,P|296:206|296:224,1,44.2000008430481,2|2,0:0|0:0,0:0:0:0:
296,210,156970,5,10,1:2:0:0:
307,205,157318,2,0,B|301:175|301:175|309:141,1,65,0|2,3:0|0:0,0:0:0:0:
496,193,157667,5,2,1:2:0:0:
423,162,157842,1,2,0:0:0:0:
503,181,158016,1,0,3:0:0:0:
393,225,158190,1,2,3:2:0:0:
279,267,158365,1,8,1:2:0:0:
293,281,158714,5,2,0:0:0:0:
425,311,158888,1,2,3:2:0:0:
250,340,159063,1,0,1:0:0:0:
238,329,159411,5,2,3:0:0:0:
364,251,159586,1,2,3:2:0:0:
486,185,159760,1,10,1:2:0:0:
425,310,159930,1,2,0:0:0:0:
400,180,160100,1,0,3:0:0:0:
493,272,160271,1,2,3:2:0:0:
403,170,160441,5,2,1:0:0:0:
417,313,160612,1,2,0:0:0:0:
487,186,160782,1,2,3:0:0:0:
357,245,160953,1,2,3:2:0:0:
500,266,161123,1,10,1:2:0:0:
438,240,161294,1,2,0:0:0:0:
493,285,161464,5,0,3:0:0:0:
417,313,161635,1,2,3:2:0:0:
327,140,161805,5,2,1:2:0:0:
469,181,161975,1,2,0:0:0:0:
500,59,162146,5,0,3:0:0:0:
439,85,162316,1,2,3:2:0:0:
301,0,162487,5,8,1:2:0:0:
399,178,162659,1,2,3:2:0:0:
313,72,162831,1,0,3:0:0:0:
372,111,163004,1,2,3:2:0:0:
173,128,163176,1,2,1:2:0:0:
188,138,163521,5,0,3:0:0:0:
186,65,163693,1,2,3:2:0:0:
76,147,163866,1,10,1:2:0:0:
215,210,164038,1,2,0:0:0:0:
276,122,164211,1,2,3:0:0:0:
86,39,164383,1,2,3:2:0:0:
129,244,164555,1,0,1:0:0:0:
141,252,164900,5,2,3:0:0:0:
127,314,165073,1,2,3:2:0:0:
93,185,165245,1,10,1:2:0:0:
82,113,165419,1,2,0:0:0:0:
219,250,165593,1,2,3:0:0:0:
29,198,165768,2,0,L|120:178,1,65,2|2,0:0|1:0,0:0:0:0:
158,177,166117,5,2,0:0:0:0:
97,204,166291,1,2,3:0:0:0:
227,199,166465,1,0,0:0:0:0:
168,158,166640,1,8,1:2:0:0:
298,186,166814,1,2,0:0:0:0:
423,142,166989,1,2,3:0:0:0:
371,194,167163,1,2,3:2:0:0:
495,175,167338,1,0,1:0:0:0:
429,153,167512,1,2,0:2:0:0:
441,224,167686,1,2,3:0:0:0:
501,181,167861,2,0,L|485:81,1,65,2|8,0:0|1:2,0:0:0:0:
484,9,168207,5,2,0:0:0:0:
448,63,168379,1,2,3:0:0:0:
443,0,168552,1,2,3:2:0:0:
295,124,168724,5,2,1:2:0:0:
338,73,168897,1,2,0:0:0:0:
201,132,169069,1,2,3:0:0:0:
342,196,169241,2,0,L|404:178,1,65,2|8,3:2|1:2,0:0:0:0:
295,124,169586,1,2,0:0:0:0:
338,73,169759,1,2,3:0:0:0:
243,198,169931,1,2,3:2:0:0:
165,40,170103,5,2,1:2:0:0:
295,124,170276,1,2,0:0:0:0:
112,185,170448,1,2,3:0:0:0:
253,262,170621,2,0,L|240:181,1,65,2|10,0:0|1:2,0:0:0:0:
257,36,170964,1,2,0:0:0:0:
160,129,171135,2,0,L|227:94,1,65,2|2,3:0|3:2,0:0:0:0:
415,22,171478,5,2,1:2:0:0:
389,85,171650,1,2,0:0:0:0:
512,182,171821,2,0,L|486:51,1,130,2|8,3:0|1:2,0:0:0:0:
324,236,172335,1,2,0:0:0:0:
344,170,172507,1,2,3:0:0:0:
440,254,172678,1,2,3:2:0:0:
268,325,172850,2,0,L|242:197,1,130,2|2,1:2|3:0,0:0:0:0:
269,103,173364,1,2,3:2:0:0:
172,244,173535,1,10,1:2:0:0:
310,160,173705,1,2,0:0:0:0:
168,79,173875,1,2,3:0:0:0:
206,137,174046,1,2,3:2:0:0:
268,102,174196,6,0,P|309:54|373:56,1,130,2|2,1:2|3:0,0:0:0:0:
512,147,174701,1,4,1:3:0:0:
413,0,174870,1,8,1:2:0:0:
404,66,175038,2,0,P|389:166|386:182,1,65,8|0,3:0|0:0,0:0:0:0:
403,336,175375,5,8,1:2:0:0:
332,164,175544,1,2,1:3:0:0:
480,219,175712,5,0,1:0:0:0:
263,292,175881,1,6,1:3:0:0:
323,252,176049,1,2,0:0:0:0:
323,327,176218,5,4,3:3:0:0:
225,217,176387,1,8,3:0:0:0:
93,346,176555,2,0,P|140:337|204:323,1,104,2|0,3:2|0:0,0:0:0:0:
215,340,176940,5,6,1:2:0:0:
295,254,177112,1,2,0:0:0:0:
221,118,177284,2,0,P|216:157|214:167,1,39,2|0,3:0|0:0,0:0:0:0:
283,363,177629,1,10,1:2:0:0:
189,222,177974,2,0,P|228:227|238:228,1,39,2|0,3:0|0:0,0:0:0:0:
495,185,178319,1,2,1:2:0:0:
395,214,178491,1,2,0:0:0:0:
295,254,178664,2,0,P|300:215|301:204,1,39,2|0,3:0|0:0,0:0:0:0:
258,0,179008,1,8,1:2:0:0:
293,74,179181,1,0,0:0:0:0:
323,152,179353,2,0,P|284:147|273:146,1,39,2|0,3:0|0:0,0:0:0:0:
27,174,179698,5,0,1:2:0:0:
484,86,180043,1,2,3:0:0:0:
0,95,180388,2,0,L|46:109,1,39,10|0,1:2|0:0,0:0:0:0:
96,146,180733,1,2,3:0:0:0:
469,166,181077,2,0,L|423:152,1,39,2|0,1:2|0:0,0:0:0:0:
469,172,181422,2,0,L|422:159,1,39,2|0,3:0|0:0,0:0:0:0:
356,235,181767,6,2,B|359:190|413:167|452:190|455:195|455:200|465:208|519:253|620:206|510:55|461:188,1,318.499990280152,8|0,1:2|0:1,0:1:0:0:
357,152,182469,6,0,L|269:167,1,86.6666666666667,2|0,1:2|0:0,0:0:0:0:
0,204,183158,1,8,1:2:0:0:
125,173,183417,1,2,3:2:0:0:
257,137,183675,1,2,0:0:0:0:
366,119,183848,2,0,P|390:81|356:24,1,90.9999972229005,0|2,1:0|3:0,0:0:0:0:
366,119,184365,1,0,0:0:0:0:
377,39,184537,2,0,P|341:113|447:189,1,195,8|2,1:2|0:0,0:0:0:0:
512,217,185227,6,0,L|448:233,1,51.999998413086,2|2,1:2|0:0,0:0:0:0:
311,251,185687,1,0,3:2:0:0:
433,340,185917,2,0,L|338:306,1,90.9999972229005,10|2,1:2|3:0,0:0:0:0:
187,232,186434,5,2,0:0:0:0:
244,355,186606,2,0,P|235:288|229:256,1,69.3333333333333,0|0,1:0|0:0,0:0:0:0:
283,14,186951,2,0,P|292:81|298:113,1,69.3333333333333,2|0,3:0|0:0,0:0:0:0:
344,134,187296,1,8,1:2:0:0:
256,221,187641,5,2,0:0:0:0:
312,194,187756,1,2,0:0:0:0:
258,158,187871,1,2,0:0:0:0:
275,196,187986,6,0,L|324:207,1,43.3333333333333,2|0,1:2|0:0,0:0:0:0:
240,216,188331,2,0,L|191:227,1,43.3333333333333,2|0,3:0|0:0,0:0:0:0:
295,42,188675,2,2,L|303:0,1,43.3333333333333,10|0,1:2|0:1,0:1:0:0:
303,0,189020,1,0,0:0:0:0:
348,86,189193,1,2,3:2:0:0:
394,163,189365,2,0,L|384:207,1,43.3333333333333,2|0,1:2|0:0,0:0:0:0:
437,142,189710,2,0,L|427:98,1,43.3333333333333,2|0,3:0|0:0,0:0:0:0:
427,99,190055,1,10,1:2:0:0:
465,219,190227,1,2,3:1:0:0:
314,159,190400,2,0,L|260:174,1,45.4999986114502,2|0,3:0|3:0,0:0:0:0:
141,152,190744,5,2,1:2:0:0:
269,238,190917,1,2,0:0:0:0:
284,91,191089,2,0,L|275:45,1,43.3333333333333,2|0,3:0|0:0,0:0:0:0:
275,48,191434,1,8,1:2:0:0:
239,143,191606,1,2,0:1:0:0:
199,237,191779,2,0,L|158:252,1,43.3333333333333,2|0,3:0|0:0,0:0:0:0:
235,266,192124,2,0,L|280:282,1,43.3333333333333,2|0,1:2|0:0,0:0:0:0:
109,316,192469,1,2,3:0:0:0:
339,186,192813,2,0,L|288:203,1,45.4999986114502,8|2,1:2|0:0,0:0:0:0:
180,172,193158,1,2,3:0:0:0:
341,263,193331,1,2,3:2:0:0:
342,81,193503,6,0,L|331:32,1,43.3333333333333,0|0,1:0|0:0,0:0:0:0:
389,88,193848,2,0,L|378:137,1,43.3333333333333,2|0,3:0|0:0,0:0:0:0:
270,272,194193,2,0,L|259:316,1,45.4999986114502,8|2,1:2|0:1,0:0:0:0:
346,300,194537,1,2,3:0:0:0:
246,199,194710,1,2,3:2:0:0:
190,351,194882,2,0,L|179:302,1,43.3333333333333,0|0,1:0|0:0,0:0:0:0:
142,340,195227,2,0,L|131:389,1,43.3333333333333,2|0,3:0|0:0,0:0:0:0:
56,221,195572,2,0,L|100:232,1,43.3333333333333,8|0,1:2|0:0,0:0:0:0:
270,272,195917,1,2,0:1:0:0:
259,280,196262,6,0,L|250:231,2,45.4999986114502,2|2|2,1:2|0:2|3:0,0:0:0:0:
318,203,196779,1,4,3:0:0:0:
249,164,196951,1,6,1:0:0:0:
201,270,197124,1,8,3:0:0:0:
273,300,197296,1,2,0:1:0:0:
177,188,197469,1,8,1:2:0:0:
72,286,197641,1,4,1:2:0:0:
167,380,197813,1,4,0:3:0:0:
187,307,197986,1,2,0:1:0:0:
134,351,198158,1,4,3:0:0:0:
247,242,198331,1,2,3:1:0:0:
138,257,198503,1,4,3:0:0:0:
280,152,198675,1,2,3:1:0:0:
284,163,199020,6,0,P|231:139|208:136,1,77.999997619629,4|2,2:1|0:0,0:0:0:0:
202,60,200400,2,0,P|156:72|82:147,1,130,2|2,0:0|0:0,0:0:0:0:
126,186,201434,1,0,0:0:0:0:
295,78,201779,6,0,P|279:45|275:22,1,52,2|2,0:0|0:0,0:0:0:0:
180,220,203157,2,0,P|197:191|213:131,1,90.9999972229005,2|2,0:0|0:0,0:0:0:0:
371,342,204552,2,0,P|331:284|312:200,2,130,2|2|2,0:0|0:0|0:0,0:0:0:0:
383,225,206316,1,2,0:0:0:0:
455,292,206669,2,0,P|463:245|482:206,1,77.999997619629,2|0,0:0|0:0,0:0:0:0:
512,61,207358,6,0,P|493:80|406:109,1,104,2|2,0:0|0:0,0:0:0:0:
365,61,208358,1,0,0:0:0:0:
383,225,208691,2,0,P|326:192|282:112,1,143.000004364014,2|2,0:0|0:0,0:0:0:0:
226,0,210102,6,0,P|229:63|230:89,1,77.999997619629,2|2,3:0|0:0,0:0:0:0:
230,86,211443,1,2,0:0:0:0:
249,166,211795,1,2,0:0:0:0:
258,250,212148,2,0,P|256:276|252:324,1,65,2|0,0:0|0:0,0:0:0:0:
258,348,212854,6,0,P|255:262|249:162,1,181.999994445801,2|2,0:0|0:0,0:0:0:0:
261,28,213879,1,2,0:0:0:0:
221,95,214224,2,0,P|218:181|212:281,1,181.999994445801,2|2,0:0|0:0,0:0:0:0:
362,213,215259,2,0,P|312:225|293:229,1,65,0|2,0:0|3:0,0:0:0:0:
298,227,216292,6,0,P|342:230|400:307,1,130,2|2,0:0|0:0,0:0:0:0:
396,382,217671,2,0,P|351:362|333:292,1,108.333333333333,2|0,0:0|0:0,0:0:0:0:
397,290,218361,5,2,0:0:0:0:
102,344,219058,1,2,0:0:0:0:
23,25,219756,1,2,0:0:0:0:
453,130,220454,1,2,0:0:0:0:
396,168,221151,5,2,3:2:0:0:
359,197,221321,1,0,0:0:0:0:
315,197,221491,1,0,0:0:0:0:
277,177,221662,1,0,0:0:0:0:
328,142,221832,1,2,0:0:0:0:
263,111,221982,1,0,0:0:0:0:
201,138,222132,1,2,0:0:0:0:
198,208,222289,1,0,0:0:0:0:
161,145,222447,6,0,L|142:-3,1,146.250005578995,2|2,0:0|0:0,0:0:0:0:
88,119,223152,2,0,P|54:190|45:205,1,48.750001859665,2|0,0:2|0:0,0:0:0:0:
55,56,223505,1,2,0:0:0:0:
39,225,223858,2,0,P|87:249|191:313,1,146.250005578995,2|0,0:0|0:0,0:0:0:0:
250,351,224547,2,0,P|242:288|235:233,2,97.50000371933,0|2|0,3:0|0:0|0:0,0:0:0:0:
272,323,225409,1,0,0:0:0:0:
266,251,225582,1,2,0:0:0:0:
215,206,225754,1,0,0:0:0:0:
229,128,225926,2,0,B|250:24|332:138|368:34|356:-40|297:-31|247:-17|267:52,1,286.000008728028,2|2,0:0|3:2,0:0:0:0:
256,48,226964,5,0,0:0:0:0:
273,108,227139,1,2,0:0:0:0:
280,185,227662,1,2,0:0:0:0:
266,258,228011,1,2,0:0:0:0:
285,319,228185,1,0,0:0:0:0:
267,376,228360,1,0,0:0:0:0:
269,311,228534,1,2,0:0:0:0:
308,245,229057,5,2,0:0:0:0:
278,186,229232,1,0,0:0:0:0:
280,119,229406,2,0,P|277:40|273:0,1,97.50000371933,2|0,0:0|0:0,0:0:0:0:
214,142,229911,2,0,P|198:213|181:265,1,97.50000371933,2|0,0:0|0:0,0:0:0:0:
352,129,230417,1,2,0:0:0:0:
286,155,230585,1,2,0:0:0:0:
162,82,230754,2,0,P|116:99|73:121,1,97.50000371933,2|0,0:0|0:0,0:0:0:0:
271,226,231265,2,0,P|318:253|389:279,1,97.50000371933,2|0,0:0|0:0,0:0:0:0:
280,119,231776,1,2,0:0:0:0:
238,357,232117,5,2,0:0:0:0:
201,303,232291,1,0,0:0:0:0:
222,236,232465,1,0,0:0:0:0:
283,217,232640,1,2,0:0:0:0:
249,273,232814,1,0,0:0:0:0:
323,234,232989,1,0,0:0:0:0:
334,161,233163,1,2,0:0:0:0:
266,115,233337,1,0,0:0:0:0:
272,184,233512,2,0,P|319:198|360:214,1,48.750001859665,2|0,0:0|0:0,0:0:0:0:
304,38,233861,2,0,B|215:36|251:102|162:124,1,146.250005578995
123,150,234558,2,0,P|114:87|108:57,1,48.750001859665,2|0,0:0|0:0,0:0:0:0:
351,96,234907,5,2,0:0:0:0:
343,161,235256,1,0,0:0:0:0:
350,229,235430,1,2,0:0:0:0:
361,299,235954,1,2,0:0:0:0:
361,363,236303,1,2,0:0:0:0:
348,294,236643,1,0,0:0:0:0:
306,241,236814,1,2,0:0:0:0:
337,184,236984,1,0,0:0:0:0:
316,111,237325,1,2,0:0:0:0:
329,47,237496,1,0,0:0:0:0:
383,101,237666,5,2,0:0:0:0:
319,89,237840,1,0,0:0:0:0:
253,101,238014,1,0,0:0:0:0:
195,141,238189,1,2,0:0:0:0:
133,163,238363,1,0,0:0:0:0:
121,171,238712,2,0,P|178:188|198:197,1,48.750001859665,2|0,0:0|0:0,0:0:0:0:
327,193,239061,1,2,0:0:0:0:
261,210,239584,1,2,0:0:0:0:
268,236,240224,1,4,3:0:0:0:
252,117,240394,5,8,1:3:0:0:
288,314,240568,1,4,1:3:0:0:
303,165,240742,1,2,3:0:0:0:
131,237,240917,1,8,1:2:0:0:
397,190,241091,1,4,1:0:0:0:
243,260,241263,1,8,1:3:0:0:
371,101,241435,5,4,1:2:0:0:
197,180,241608,1,0,1:2:0:0:
341,245,241780,1,2,0:0:0:0:
228,39,241953,2,0,L|240:130,1,65,8|0,1:2|0:0,0:0:0:0:
224,337,242297,5,4,3:0:0:0:
226,330,242384,1,4,3:0:0:0:
229,324,242470,1,4,3:0:0:0:
190,168,242642,1,4,1:3:0:0:
291,368,242815,1,8,1:3:0:0:
370,41,243179,6,0,P|443:62|416:137,1,130,6|0,1:2|0:0,0:0:0:0:
370,41,243753,5,2,0:2:0:0:
310,79,243868,2,2,B|274:84|247:55|262:29|320:25|353:67|355:107|347:111|340:115|356:170|420:172,1,260,10|0,1:2|3:0,0:1:0:0:
175,136,244558,5,0,1:2:0:0:
73,192,244788,2,0,B|89:135|100:167|117:109,1,77.999997619629,2|0,0:0|0:0,0:0:0:0:
141,66,245133,5,2,0:0:0:0:
149,163,245247,2,2,B|156:229|224:230|302:154|278:73|205:92,1,260,10|0,1:2|3:1,0:1:0:0:
0,0,245822,5,0,3:0:0:0:
0,0,245943,2,0,P|9:60|11:90,1,73.6666680717469,2|0,1:2|0:0,0:0:0:0:
111,24,246287,2,0,P|43:33|13:40,1,73.6666680717469,2|0,3:2|0:0,0:0:0:0:
0,103,246632,2,0,P|75:110|149:124,1,151.666662038167,10|0,1:2|0:0,0:0:0:0:
193,131,246977,1,2,3:0:0:0:
187,61,247149,1,2,0:2:0:0:
258,165,247322,6,0,B|264:85|300:135|306:43,1,111.428571428571,2|0,1:0|0:0,0:0:0:0:
403,141,247716,2,0,B|388:116|388:116|278:144,1,96.5714241507396,2|0,0:1|0:1,0:1:0:0:
288,0,248011,1,10,1:2:0:0:
229,370,248471,2,2,L|242:302,1,69.3333333333333,2|0,0:2|1:0,0:1:0:0:
242,301,249065,5,2,0:0:0:0:
267,363,249238,1,2,3:1:0:0:
318,228,249410,2,0,P|333:160|392:133,1,130,8|2,1:2|3:0,0:0:0:0:
318,228,249927,1,0,3:0:0:0:
235,140,250100,2,0,P|207:72|167:60,1,108.333333333333,2|0,1:2|0:0,0:0:0:0:
159,72,250445,1,2,0:0:0:0:
316,57,250617,2,0,P|319:32|358:-3,1,65,2|8,0:0|1:2,0:0:0:0:
356,6,251134,2,0,L|302:11,1,38.9999988098145,2|0,3:0|0:0,0:0:0:0:
154,61,251479,5,2,1:2:0:0:
82,10,251824,2,0,P|102:57|154:62,1,108.333333333333,2|0,0:0|0:0,0:0:0:0:
234,5,252169,6,0,L|224:61,1,52,8|0,1:2|3:0,0:0:0:0:
150,232,252858,6,0,P|166:158|269:146,1,173.333333333333,2|0,1:0|0:0,0:0:0:0:
327,134,253203,2,0,B|288:139|305:156|260:170,1,69.3333333333333,2|0,0:1|0:0,0:0:0:0:
190,163,253433,5,2,1:1:0:0:
284,199,253548,2,0,B|399:174|337:317|476:320,1,216.666666666667,12|0,1:3|0:0,0:0:0:0:
300,372,253893,6,0,L|311:297,1,69.3333333333333,2|0,3:2|0:0,0:0:0:0:
111,90,254238,6,0,P|127:148|204:155,1,130,6|0,1:2|3:2,0:2:0:0:
411,58,254793,5,2,0:2:0:0:
415,124,254904,2,2,B|369:90|350:6|350:6|294:86|240:79,1,260,10|0,1:2|3:1,0:1:0:0:
388,315,255571,6,0,L|368:189,1,116.999996429443,2|0,1:2|3:0,0:0:0:0:
304,174,256094,5,2,0:2:0:0:
232,289,256268,2,2,B|173:315|106:237|106:237|39:249|78:352,1,260,10|0,1:2|3:1,0:1:0:0:
139,353,256791,1,2,0:2:0:0:
200,191,256951,6,0,P|129:212|104:221,1,86.6666666666667,2|0,1:0|0:0,0:0:0:0:
89,197,257295,1,2,3:0:0:0:
189,219,257468,1,0,3:0:0:0:
126,130,257640,2,0,P|69:114|1:94,1,130,10|0,1:2|3:0,0:0:0:0:
110,55,258157,1,2,0:0:0:0:
0,210,258330,6,0,L|57:194,1,52,2|0,1:0|0:0,0:0:0:0:
262,76,258675,2,0,P|245:5|239:-19,1,77.999997619629,2|0,3:1|0:0,0:0:0:0:
212,283,259019,2,2,P|226:341|240:395,1,104,10|0,1:2|0:1,0:1:0:0:
495,154,259364,2,2,L|416:177,1,65,2|0,0:0|0:1,0:1:0:0:
422,149,259709,6,0,L|494:171,1,65,2|0,1:2|0:0,0:0:0:0:
243,81,260054,2,0,L|268:-24,1,77.999997619629,2|2,0:0|0:1,0:0:0:0:
242,299,260399,2,0,P|234:333|220:387,1,78,10|0,1:2|0:1,0:1:0:0:
229,235,261088,1,2,1:2:0:0:
276,188,261261,1,2,0:0:0:0:
246,133,261433,1,2,3:0:0:0:
234,201,261606,1,2,0:0:0:0:
0,164,261778,2,0,L|108:187,1,104,8|2,1:2|3:0,0:0:0:0:
281,0,262468,5,2,1:2:0:0:
180,247,262813,2,0,L|116:259,1,65,2|0,3:2|0:0,0:0:0:0:
180,166,263157,2,0,L|443:232,1,253.499988395691,10|0,1:2|0:0,0:0:0:0:
512,203,263847,5,2,1:2:0:0:
415,322,264019,1,4,3:0:0:0:
289,229,264192,1,2,3:2:0:0:
389,105,264364,1,8,3:0:0:0:
443,253,264537,5,14,1:3:0:0:
357,174,264709,1,4,3:0:0:0:
264,161,264882,1,0,1:3:0:0:
190,185,265054,1,0,3:0:0:0:
425,155,265236,6,0,B|457:82|457:82|386:12,1,173.333339945476,6|0,1:2|0:0,0:0:0:0:
362,136,265772,5,2,0:1:0:0:
267,50,265925,2,2,B|242:17|203:-11|103:-27|31:28|23:118|32:189|206:158|161:23,1,462.222222222222,10|0,1:2|0:1,0:1:0:0:
80,35,266615,5,2,1:2:0:0:
0,139,266845,2,0,P|54:129|71:71,1,86.6666666666667,2|0,0:0|0:0,0:0:0:0:
160,36,267190,5,2,0:2:0:0:
178,105,267304,2,2,P|56:120|1:11,1,260,10|2,1:2|3:2,0:1:0:0:
178,105,267822,5,2,0:2:0:0:
68,202,267994,2,0,B|99:173|99:173|142:178,1,86.6666666666667,2|0,1:2|0:0,0:0:0:0:
170,264,268339,2,0,L|233:248,1,65,2|0,0:0|0:0,0:0:0:0:
242,365,268684,6,2,P|136:352|102:259,1,207.999993652344,10|0,1:2|0:1,0:1:0:0:
271,99,269258,5,2,3:2:0:0:
337,125,269373,2,0,P|302:175|225:163,1,121.333329630534,2|0,1:1|0:1,0:1:0:0:
70,14,269718,2,0,P|128:12|191:80,1,138.666666666667,2|0,3:1|0:0,0:0:0:0:
246,177,270063,2,2,P|300:237|388:212,1,155.999995239258,2|0,1:2|0:1,0:1:0:0:
339,40,270408,2,2,P|286:28|158:172,1,260,2|4,3:2|1:2,0:1:0:0:
174,168,271098,6,0,L|158:66,1,77.999997619629,2|0,3:2|0:0,0:0:0:0:
102,251,271442,2,0,B|87:269|37:294|-16:248|44:172|138:220|204:313,1,233.999992858887,10|2,1:2|3:0,0:0:0:0:
212,338,271960,1,0,0:0:0:0:
323,179,272132,6,0,P|262:211|227:218,1,65,2|0,1:2|0:0,0:0:0:0:
400,316,272477,2,0,P|344:293|298:244,1,84.4999961318971,2|2,3:2|0:0,0:0:0:0:
480,158,272822,2,0,P|435:185|402:224,2,104,8|0|2,1:2|3:0|0:0,0:0:0:0:
238,0,273488,6,0,P|237:96|234:160,1,130,2|0,1:2|3:0,0:0:0:0:
265,188,274005,1,2,0:0:0:0:
216,358,274177,2,0,B|184:370|153:342|207:277|271:313|312:380,1,181.999994445801,8|0,1:2|3:2,0:2:0:0:
216,358,274694,1,0,3:0:0:0:
277,255,274867,6,0,B|249:159|187:224|160:103,1,173.333333333333,2|0,1:0|0:0,0:0:0:0:
271,100,275212,2,0,B|263:146|237:129|229:180,1,69.3333333333333,2|0,0:1|0:0,0:0:0:0:
197,218,275442,5,2,1:1:0:0:
235,157,275556,2,0,B|255:72|334:126|348:4,1,173.333333333333,14|0,1:3|0:0,0:0:0:0:
172,0,275901,2,0,B|187:45|191:21|207:60,1,64.9999980163575,2|0,0:1|0:0,0:0:0:0:
231,48,276256,6,0,P|183:52|41:71,1,168.999992263794,6|0,1:2|3:0,0:0:0:0:
289,227,276830,5,2,0:2:0:0:
239,274,276945,2,2,B|207:242|171:233|171:233|252:239|373:268,1,260,10|0,1:2|3:1,0:1:0:0:
417,282,277462,1,0,0:0:0:0:
214,348,277635,6,0,P|141:314|163:252,1,140.833326886495,2|2,1:2|0:0,0:0:0:0:
308,136,278152,5,2,0:2:0:0:
257,64,278324,2,2,L|297:334,1,260,10|0,1:2|3:1,0:1:0:0:
334,377,278842,1,0,3:0:0:0:
231,130,279014,6,0,B|186:140|186:140|140:194|140:194|84:203,1,155.999995239258,2|0,1:2|0:0,0:0:0:0:
231,130,279531,1,0,3:0:0:0:
73,111,279704,2,0,L|153:130,1,77.999997619629,10|0,1:2|0:0,0:0:0:0:
239,147,280049,1,2,0:0:0:0:
58,254,280278,5,2,0:0:0:0:
58,254,280393,2,0,P|37:218|63:241,1,121.333329630534,2|0,1:0|0:0,0:0:0:0:
178,191,280738,2,0,P|142:158|166:201,1,138.666666666667,2|0,0:1|0:0,0:0:0:0:
270,264,281083,2,2,P|307:223|286:274,1,155.999995239258,10|0,1:2|0:1,0:1:0:0:
442,211,281428,2,2,P|408:189|428:217,1,108.333333333333,2|0,0:2|0:1,0:1:0:0:
396,281,281783,6,0,P|473:243|503:235,1,77.999997619629,6|0,1:2|0:0,0:0:0:0:
251,117,282127,2,0,P|283:204|295:263,1,77.999997619629,0|0,1:0|0:0,0:0:0:0:
436,43,282472,1,10,1:2:0:0:
269,304,282817,1,2,1:2:0:0:
119,58,283162,2,0,P|82:70|44:81,1,77.999997619629,0|0,1:0|0:0,0:0:0:0:
273,194,283507,2,0,P|241:107|229:48,1,77.999997619629,2|2,1:2|0:0,0:0:0:0:
47,354,283851,2,0,P|144:314|246:284,1,155.999995239258,8|0,1:2|3:0,0:0:0:0:
202,304,284498,6,0,P|177:227|169:197,1,77.999997619629,2|0,1:2|0:0,0:0:0:0:
393,337,284842,2,0,P|309:376|271:398,1,77.999997619629,2|0,1:2|0:0,0:0:0:0:
315,95,285187,2,0,P|280:112|244:128,1,77.999997619629,10|0,1:2|0:0,0:0:0:0:
460,235,285532,2,0,P|448:197|435:160,1,77.999997619629,2|4,3:2|0:3,0:0:0:0:
173,76,285877,5,4,1:0:0:0:
320,188,286049,1,8,1:2:0:0:
237,39,286222,1,8,3:0:0:0:
251,195,286394,1,4,3:0:0:0:
268,340,286566,1,4,1:3:0:0:
197,145,286739,1,0,1:0:0:0:
288,259,286911,2,0,L|344:279,1,59.5833351516724,4|0,3:0|0:0,0:0:0:0:
408,331,287296,6,0,P|418:254|348:199,1,155.999995239258,6|0,1:0|0:0,0:0:0:0:
450,177,287640,2,0,P|387:119|303:138,1,155.999995239258,0|0,1:3|0:3,0:3:0:0:
193,30,287985,2,0,P|174:114|258:170,1,164.666662269592,6|0,1:0|0:3,0:3:0:0:
296,141,288330,2,0,P|314:56|230:0,1,164.666662269592,0|0,1:0|0:3,0:3:0:0:
141,149,288675,2,0,P|85:229|0:225,1,173.333333333333,6|0,1:0|0:3,0:3:0:0:
65,50,289020,2,0,P|158:47|222:117,1,173.333333333333,0|0,1:0|0:3,0:3:0:0:
341,203,289364,2,0,P|348:320|288:374,1,181.999994445801,6|0,1:0|0:3,0:3:0:0:
228,348,289709,2,0,P|220:230|280:176,1,181.999994445801,0|0,1:0|0:3,0:3:0:0:
307,129,290074,6,0,P|224:237|81:246,2,286.000008728028,6|0|6,1:1|1:1|1:3,0:1:0:0:
364,0,291108,2,0,B|358:47|358:47|371:88,1,90.9999972229005,2|0,1:2|0:0,0:0:0:0:
490,199,291453,6,0,L|369:171,1,112.666661509196,2|0,1:0|0:0,0:0:0:0:
242,187,291798,2,0,L|143:163,1,95.3333362426759,2|0,1:0|0:0,0:0:0:0:
26,234,292142,2,0,L|115:213,1,77.999997619629,8|0,1:3|0:1,0:1:0:0:
273,253,292487,2,2,L|346:234,1,75.8333310190837,2|0,1:2|0:1,0:1:0:0:
380,173,292832,6,0,P|436:221|427:293,1,138.666666666667,4|0,1:0|0:0,0:0:0:0:
512,255,293177,2,0,P|517:329|457:372,1,147.333336143494,0|0,1:0|0:0,0:0:0:0:
273,253,293522,2,0,P|289:174|452:128,2,233.999992858887,8|0|8,1:3|1:0|1:3,0:0:0:0:
132,0,294556,2,0,P|179:60|253:80,1,155.999995239258,0|0,1:0|0:0,0:0:0:0:
319,34,294881,2,0,P|327:18|317:32,1,51.999998413086,10|0,1:3|0:0,0:0:0:0:
193,154,295225,2,0,P|177:122|198:150,1,103.999996826172,2|0,1:2|0:0,0:0:0:0:
328,186,295570,6,0,P|292:179|275:255,1,130,2|0,1:2|1:0,0:0:0:0:
205,299,296259,2,0,P|282:279|297:412,1,208,2|0,1:2|1:0,0:0:0:0:
323,52,296949,2,0,P|285:101|250:91,1,86.6666666666667,0|0,1:0|0:0,0:0:0:0:
172,77,297294,1,4,3:0:0:0:
200,141,297466,1,0,1:3:0:0:
388,1,297638,1,6,1:3:0:0:
417,65,297983,6,2,B|408:85|408:85|407:125|407:125|398:141,1,75.8333310190837,2|0,1:3|0:1,0:1:0:0:
474,164,298328,6,0,P|415:220|315:211,1,155.999995239258,6|0,1:0|0:0,0:0:0:0:
386,304,298673,2,0,P|300:308|237:250,1,155.999995239258,0|0,1:0|0:0,0:0:0:0:
138,302,299018,2,0,P|158:201|241:150,1,169.000000644684,6|0,1:0|0:0,0:0:0:0:
168,28,299363,2,0,P|259:42|318:114,1,169.000000644684,0|0,1:0|0:0,0:0:0:0:
377,167,299707,2,0,P|315:254|212:257,1,181.999994445801,6|0,1:0|0:0,0:0:0:0:
67,250,300052,2,0,P|135:167|237:172,1,181.999994445801,0|0,1:0|0:0,0:0:0:0:
296,380,300397,2,0,P|188:365|130:275,1,195.00000743866,6|0,1:0|0:0,0:0:0:0:
253,19,300742,2,0,P|359:32|417:122,1,195.00000743866,0|0,1:0|0:0,0:0:0:0:
319,300,301087,6,2,P|191:78|148:-16,2,311.999990478516,6|0|8,1:1|1:1|1:3,0:1:0:0:
298,102,302133,2,0,P|268:194|258:240,1,77.999997619629,0|0,1:0|0:0,0:0:0:0:
319,300,302482,6,0,P|331:241|375:201,1,121.333329630534,2|0,1:0|0:0,0:0:0:0:
404,263,302831,2,0,P|459:260|505:290,1,95.3333362426759,2|0,1:0|0:0,0:0:0:0:
446,328,303180,2,0,P|474:354|482:391,1,69.3333333333333,8|0,1:3|0:0,0:0:0:0:
374,371,303520,2,2,L|321:358,1,54.1666666666667,4|0,0:3|0:1,0:1:0:0:
256,377,303861,6,0,P|291:330|285:249,1,121.333329630534,4|0,1:0|0:0,0:0:0:0:
249,139,304205,2,0,P|214:186|220:267,1,138.666666666667,2|0,1:0|0:0,0:0:0:0:
136,353,304550,2,0,P|133:270|84:203,1,155.999995239258,8|0,1:3|0:0,0:0:0:0:
0,156,304895,2,0,P|91:124|143:60,1,155.999995239258,0|0,1:0|0:0,0:0:0:0:
174,0,305240,2,0,P|230:52|304:73,1,155.999995239258,0|0,1:3|0:0,0:0:0:0:
442,159,305585,2,0,P|366:141|291:160,1,155.999995239258,0|0,1:3|0:0,0:0:0:0:
203,215,305909,2,0,P|276:237|332:291,1,155.999995239258,8|0,1:3|0:0,0:0:0:0:
358,368,306253,1,4,1:0:0:0:
350,380,306598,5,2,1:2:0:0:
418,339,306770,1,4,3:0:0:0:
262,261,306942,2,0,L|185:292,1,77.999997619629,4|0,1:0|0:0,0:0:0:0:
297,197,307280,5,2,1:2:0:0:
356,246,307443,1,0,3:0:0:0:
364,249,307525,1,0,1:0:0:0:
373,252,307607,1,0,1:2:0:0:
244,140,307771,1,4,3:0:0:0:
368,71,307943,5,6,1:2:0:0:
294,334,308115,1,6,1:3:0:0:
349,265,308287,2,0,L|330:148,1,116.999996429443,2|0,0:0|0:0,0:0:0:0:
313,127,308632,5,2,1:2:0:0:
411,210,308805,1,4,3:0:0:0:
269,272,308977,1,4,1:3:0:0:
164,171,309149,1,0,1:0:0:0:
282,207,309383,6,0,P|370:224|533:338,1,260,6|0,1:1|1:1,0:1:0:0:
512,314,310313,2,0,P|471:306|449:340,1,86.6666666666667,2|2,0:0|0:0,0:0:0:0:
403,266,310778,2,0,P|298:341|172:373,1,260,2|0,1:0|1:0,0:0:0:0:
185,304,311708,1,2,0:0:0:0:
183,239,311941,1,2,0:0:0:0:
207,303,312173,6,0,P|198:231|135:48,1,260,2|0,1:0|1:0,0:0:0:0:
76,78,313125,1,2,0:0:0:0:
15,112,313363,1,2,0:0:0:0:
184,128,313557,2,0,B|281:130|234:194|362:232,1,173.333333333333,2|0,1:0|0:0,0:0:0:0:
405,187,314246,6,0,B|414:168|438:146|438:146|413:166|378:171,1,97.50000371933,2|0,1:0|0:0,0:0:0:0:
323,197,314476,2,0,B|302:198|270:188|270:188|300:200|322:228,1,97.50000371933,2|0,3:1|0:0,0:0:0:0:
378,258,314706,2,0,B|389:275|397:307|397:307|392:275|405:242,1,97.50000371933,2|0,3:1|0:0,0:0:0:0:
420,189,314936,6,0,P|362:244|192:288,1,260,2|0,1:2|1:0,0:0:0:0:
135,234,315855,2,0,P|75:255|28:305,1,86.6666666666667,2|2,0:0|0:0,0:0:0:0:
248,216,316295,2,0,P|316:162|350:-40,1,260,2|0,1:2|1:0,0:0:0:0:
320,54,317214,1,2,0:0:0:0:
259,89,317444,1,2,0:0:0:0:
379,136,317674,6,0,P|470:233|458:407,1,260,2|0,1:0|1:0,0:0:0:0:
407,327,318583,2,0,P|416:294|449:254,1,86.6666666666667,2|2,0:0|0:0,0:0:0:0:
356,250,319037,2,0,P|297:263|158:338,1,216.666666666667,2|0,1:2|0:0,0:0:0:0:
181,358,319719,6,0,L|194:313,1,28.1666653772991,2|0,1:0|0:0,0:0:0:0:
268,256,319946,6,0,L|251:196,1,32.5000012397767,2|0,1:0|0:0,0:0:0:0:
346,101,320174,6,0,L|295:66,1,36.8333340358734,2|0,1:0|0:0,0:0:0:0:
269,85,320401,6,0,P|370:56|461:171,1,260,2|0,1:0|1:0,0:0:0:0:
427,224,321331,1,2,0:0:0:0:
442,287,321563,1,2,0:0:0:0:
335,230,321796,2,0,B|202:223|265:376|99:384,1,260,2|0,1:0|1:0,0:0:0:0:
82,328,322726,2,0,P|96:294|155:304,1,86.6666666666667,2|2,0:0|0:0,0:0:0:0:
232,358,323191,6,0,P|176:296|189:114,1,260,2|0,1:0|1:0,0:0:0:0:
238,83,324121,1,2,0:0:0:0:
306,111,324354,1,2,0:0:0:0:
401,14,324546,2,0,P|472:118|454:226,1,216.666666666667,0|0,1:2|0:0,0:0:0:0:
492,267,325243,6,0,B|427:272|427:272|432:319,1,97.50000371933,2|0,1:0|0:0,0:0:0:0:
397,318,325476,2,0,B|393:350|393:350|458:355,1,97.50000371933,2|0,3:1|0:0,0:0:0:0:
481,348,325708,2,0,B|476:283|476:283|429:288,1,97.50000371933,2|0,3:1|0:0,0:0:0:0:
338,238,325941,6,0,P|301:247|76:302,1,260,2|0,1:0|1:0,0:0:0:0:
19,265,326839,1,2,0:0:0:0:
78,233,327064,1,2,0:0:0:0:
170,191,327289,2,0,B|310:198|245:301|371:342,1,260,2|0,1:0|1:0,0:0:0:0:
428,301,328239,2,0,P|471:312|518:327,1,65,2|2,0:0|0:0,0:0:0:0:
369,229,328698,2,0,P|346:126|211:7,1,260,2|0,1:0|1:0,0:0:0:0:
183,65,329617,1,2,0:0:0:0:
128,13,329847,1,2,0:0:0:0:
42,162,330077,6,0,B|40:179|-13:195|-33:131|77:75|152:201,1,194.999994049072,6|0,1:0|0:0,0:0:0:0:
198,221,330452,2,0,B|208:226|219:263|219:263|202:150,1,162.500006198883,2|0,1:0|0:0,0:0:0:0:
131,172,330841,2,0,P|128:237|119:293,1,119.166670303345,2|0,3:1|0:0,0:0:0:0:
182,356,331235,2,0,P|201:350|180:354,1,64.9999980163575,2|0,3:1|0:0,0:0:0:0:
107,351,331770,6,0,B|63:373|-19:422|-83:275|13:173|109:206|134:221|91:325|212:309|175:411|317:259|361:213|335:179|263:106|295:48|172:17|123:8|16:9|-25:40|-53:148|-34:185|65:200|119:209|166:164|185:148|241:116|267:88|266:32,1,1091.99996667481,4|0,1:2|0:0,0:0:0:0:
