osu file format v14

[General]
AudioFilename: audio.mp3
AudioLeadIn: 0
PreviewTime: 47484
Countdown: 0
SampleSet: Soft
StackLeniency: 0.7
Mode: 3
LetterboxInBreaks: 0
SpecialStyle: 0
WidescreenStoryboard: 0

[Editor]
Bookmarks: 29499,47484
DistanceSpacing: 1
BeatDivisor: 4
GridSize: 8
TimelineZoom: 8

[Metadata]
Title:Last Christmas
TitleUnicode:Last Christmas
Artist:ALEX TERRIBLE
ArtistUnicode:ALEX TERRIBLE
Creator:keksikosu
Version:S NOVYM GOOOOOODOM
Source:
Tags:Slaughter to Prevail Cover Parody Novelty Deathcore Metal Pop Wham! English Aleksandr Shikolai Александр Шиколай с новым годом xmas x-mas happy new year merry christmas male vocal Flade
BeatmapID:4417873
BeatmapSetID:2105510

[Difficulty]
HPDrainRate:8
CircleSize:4
OverallDifficulty:8
ApproachRate:5
SliderMultiplier:1.4
SliderTickRate:1

[Events]
//Background and Video events
0,0,"lul.jpg",0,0
Video,-30,"video.avi"
//Break Periods
//Storyboard Layer 0 (Background)
//Storyboard Layer 1 (Fail)
//Storyboard Layer 2 (Pass)
//Storyboard Layer 3 (Foreground)
//Storyboard Layer 4 (Overlay)
//Storyboard Sound Samples

[TimingPoints]
119,600,4,2,1,50,1,0
119,-101.010101010101,4,2,1,50,0,0
29499,562.060889929742,4,2,1,50,1,0
47484,-100,4,2,1,50,0,1
82332,-100,4,2,1,50,0,0

[HitObjects]
448,192,29499,5,0,0:0:0:0:
192,192,29499,1,0,0:0:0:0:
64,192,29499,1,0,0:0:0:0:
320,192,29499,1,0,0:0:0:0:
320,192,29780,1,0,0:0:0:0:
192,192,30061,1,0,0:0:0:0:
64,192,30061,1,0,0:0:0:0:
448,192,30061,1,0,0:0:0:0:
192,192,30342,1,0,0:0:0:0:
64,192,30482,1,0,0:0:0:0:
320,192,30623,1,0,0:0:0:0:
448,192,30623,1,0,0:0:0:0:
64,192,30763,1,0,0:0:0:0:
192,192,30904,1,0,0:0:0:0:
64,192,31185,1,0,0:0:0:0:
320,192,31185,1,0,0:0:0:0:
448,192,31185,1,0,0:0:0:0:
448,192,31466,1,0,0:0:0:0:
320,192,31606,1,0,0:0:0:0:
192,192,31747,1,0,0:0:0:0:
64,192,31747,1,0,0:0:0:0:
192,192,32028,1,0,0:0:0:0:
192,192,32309,1,0,0:0:0:0:
64,192,32309,1,0,0:0:0:0:
448,192,32309,1,0,0:0:0:0:
448,192,32590,1,0,0:0:0:0:
320,192,32730,1,0,0:0:0:0:
192,192,32871,1,0,0:0:0:0:
64,192,32871,1,0,0:0:0:0:
320,192,33011,1,0,0:0:0:0:
64,192,33152,1,0,0:0:0:0:
192,192,33433,1,0,0:0:0:0:
320,192,33433,1,0,0:0:0:0:
448,192,33433,1,0,0:0:0:0:
64,192,33573,1,0,0:0:0:0:
320,192,33714,1,0,0:0:0:0:
448,192,33854,1,0,0:0:0:0:
64,192,33995,1,0,0:0:0:0:
192,192,33995,1,0,0:0:0:0:
448,192,34136,1,0,0:0:0:0:
320,192,34276,1,0,0:0:0:0:
192,192,34557,1,0,0:0:0:0:
64,192,34557,1,0,0:0:0:0:
320,192,34557,1,0,0:0:0:0:
448,192,34557,1,0,0:0:0:0:
192,192,34838,1,0,0:0:0:0:
320,192,34979,1,0,0:0:0:0:
448,192,35119,1,0,0:0:0:0:
64,192,35119,1,0,0:0:0:0:
320,192,35260,1,0,0:0:0:0:
192,192,35400,1,0,0:0:0:0:
320,192,35681,1,0,0:0:0:0:
64,192,35681,1,0,0:0:0:0:
448,192,35681,1,0,0:0:0:0:
64,192,35962,1,0,0:0:0:0:
192,192,36103,1,0,0:0:0:0:
320,192,36243,1,0,0:0:0:0:
448,192,36243,1,0,0:0:0:0:
192,192,36384,1,0,0:0:0:0:
320,192,36524,1,0,0:0:0:0:
64,192,36665,1,0,0:0:0:0:
448,192,36805,1,0,0:0:0:0:
320,192,36805,1,0,0:0:0:0:
192,192,36805,1,0,0:0:0:0:
192,192,37086,1,0,0:0:0:0:
64,192,37227,1,0,0:0:0:0:
320,192,37367,1,0,0:0:0:0:
448,192,37367,1,0,0:0:0:0:
64,192,37508,1,0,0:0:0:0:
448,192,37648,1,0,0:0:0:0:
320,192,37648,1,0,0:0:0:0:
192,192,37648,1,0,0:0:0:0:
192,192,37929,1,0,0:0:0:0:
64,192,37929,1,0,0:0:0:0:
448,192,37929,1,0,0:0:0:0:
320,192,38070,1,0,0:0:0:0:
64,192,38210,1,0,0:0:0:0:
448,192,38210,1,0,0:0:0:0:
192,192,38210,1,0,0:0:0:0:
64,192,38351,1,0,0:0:0:0:
192,192,38351,1,0,0:0:0:0:
320,192,38351,1,0,0:0:0:0:
320,192,38491,1,0,0:0:0:0:
448,192,38491,1,0,0:0:0:0:
64,192,38491,1,0,0:0:0:0:
192,192,38632,1,0,0:0:0:0:
320,192,38773,1,0,0:0:0:0:
448,192,38773,1,0,0:0:0:0:
64,192,38913,1,0,0:0:0:0:
64,192,39054,1,0,0:0:0:0:
192,192,39054,1,0,0:0:0:0:
448,192,39054,1,0,0:0:0:0:
320,192,39054,1,0,0:0:0:0:
320,192,39335,1,0,0:0:0:0:
192,192,39475,1,0,0:0:0:0:
64,192,39616,1,0,0:0:0:0:
448,192,39616,1,0,0:0:0:0:
192,192,39756,1,0,0:0:0:0:
320,192,39897,1,0,0:0:0:0:
192,192,40178,1,0,0:0:0:0:
64,192,40178,1,0,0:0:0:0:
448,192,40178,1,0,0:0:0:0:
448,192,40459,1,0,0:0:0:0:
320,192,40599,1,0,0:0:0:0:
192,192,40740,1,0,0:0:0:0:
64,192,40740,1,0,0:0:0:0:
320,192,40880,1,0,0:0:0:0:
192,192,41021,1,0,0:0:0:0:
64,192,41302,1,0,0:0:0:0:
192,192,41302,1,0,0:0:0:0:
448,192,41302,1,0,0:0:0:0:
448,192,41583,1,0,0:0:0:0:
320,192,41723,1,0,0:0:0:0:
192,192,41864,1,0,0:0:0:0:
64,192,41864,1,0,0:0:0:0:
320,192,42145,1,0,0:0:0:0:
192,192,42285,1,0,0:0:0:0:
320,192,42426,1,0,0:0:0:0:
64,192,42426,1,0,0:0:0:0:
448,192,42426,1,0,0:0:0:0:
192,192,42566,1,0,0:0:0:0:
64,192,42707,1,0,0:0:0:0:
320,192,42988,1,0,0:0:0:0:
192,192,42988,1,0,0:0:0:0:
64,192,43128,1,0,0:0:0:0:
448,192,43269,1,0,0:0:0:0:
192,192,43550,1,0,0:0:0:0:
64,192,43550,1,0,0:0:0:0:
320,192,43550,1,0,0:0:0:0:
448,192,43550,1,0,0:0:0:0:
64,192,43831,1,0,0:0:0:0:
192,192,43972,1,0,0:0:0:0:
320,192,44112,1,0,0:0:0:0:
448,192,44112,1,0,0:0:0:0:
192,192,44253,1,0,0:0:0:0:
64,192,44393,1,0,0:0:0:0:
448,192,44674,1,0,0:0:0:0:
320,192,44674,1,0,0:0:0:0:
192,192,44674,1,0,0:0:0:0:
320,192,44955,1,0,0:0:0:0:
448,192,45096,1,0,0:0:0:0:
192,192,45236,1,0,0:0:0:0:
64,192,45236,1,0,0:0:0:0:
448,192,45377,1,0,0:0:0:0:
320,192,45517,1,0,0:0:0:0:
192,192,45517,1,0,0:0:0:0:
64,192,45517,1,0,0:0:0:0:
192,192,45798,1,0,0:0:0:0:
448,192,45798,1,0,0:0:0:0:
64,192,45939,1,0,0:0:0:0:
320,192,45939,1,0,0:0:0:0:
448,192,45939,1,0,0:0:0:0:
192,192,46079,1,0,0:0:0:0:
320,192,46220,1,0,0:0:0:0:
192,192,46360,1,0,0:0:0:0:
64,192,46360,1,0,0:0:0:0:
448,192,46360,1,0,0:0:0:0:
320,192,46501,1,0,0:0:0:0:
64,192,46641,1,0,0:0:0:0:
320,192,46782,1,0,0:0:0:0:
448,192,46782,1,0,0:0:0:0:
192,192,46782,1,0,0:0:0:0:
64,192,46922,1,0,0:0:0:0:
320,192,46922,1,0,0:0:0:0:
448,192,46922,1,0,0:0:0:0:
192,192,47063,1,0,0:0:0:0:
64,192,47203,1,0,0:0:0:0:
320,192,47203,1,0,0:0:0:0:
448,192,47203,1,0,0:0:0:0:
320,192,47344,1,0,0:0:0:0:
64,192,47344,1,0,0:0:0:0:
192,192,47344,1,0,0:0:0:0:
192,192,47484,128,0,48047:0:0:0:0:
448,192,47484,128,0,47765:0:0:0:0:
320,192,47765,1,0,0:0:0:0:
64,192,48047,1,0,0:0:0:0:
448,192,48047,1,0,0:0:0:0:
320,192,48047,1,0,0:0:0:0:
64,192,48328,128,0,48609:0:0:0:0:
192,192,48328,1,0,0:0:0:0:
448,192,48609,1,0,0:0:0:0:
320,192,48609,1,0,0:0:0:0:
320,192,48890,128,0,49171:0:0:0:0:
64,192,48890,1,0,0:0:0:0:
192,192,49171,1,0,0:0:0:0:
448,192,49171,1,0,0:0:0:0:
64,192,49171,1,0,0:0:0:0:
192,192,49452,128,0,49592:0:0:0:0:
320,192,49452,128,0,49592:0:0:0:0:
320,192,49733,1,0,0:0:0:0:
448,192,49733,128,0,50014:0:0:0:0:
64,192,50014,1,0,0:0:0:0:
192,192,50014,128,0,50295:0:0:0:0:
320,192,50295,1,0,0:0:0:0:
448,192,50295,1,0,0:0:0:0:
64,192,50295,128,0,50576:0:0:0:0:
320,192,50576,128,0,51138:0:0:0:0:
448,192,50576,1,0,0:0:0:0:
64,192,50857,1,0,0:0:0:0:
192,192,50857,1,0,0:0:0:0:
64,192,51138,1,0,0:0:0:0:
448,192,51138,1,0,0:0:0:0:
192,192,51138,1,0,0:0:0:0:
320,192,51419,1,0,0:0:0:0:
192,192,51419,128,0,51700:0:0:0:0:
448,192,51419,128,0,51700:0:0:0:0:
64,192,51700,128,0,51981:0:0:0:0:
448,192,51981,128,0,52449:0:0:0:0:
320,192,51981,128,0,52449:0:0:0:0:
192,192,52262,128,0,52449:0:0:0:0:
64,192,52262,128,0,52449:0:0:0:0:
320,192,52543,128,0,52824:0:0:0:0:
448,192,52543,128,0,52824:0:0:0:0:
64,192,52543,128,0,52824:0:0:0:0:
192,192,52543,1,0,0:0:0:0:
192,192,52824,1,0,0:0:0:0:
320,192,53105,128,0,53386:0:0:0:0:
192,192,53105,128,0,53667:0:0:0:0:
448,192,53386,1,0,0:0:0:0:
320,192,53667,1,0,0:0:0:0:
448,192,53667,1,0,0:0:0:0:
64,192,53667,1,0,0:0:0:0:
192,192,53948,1,0,0:0:0:0:
64,192,53948,128,0,54229:0:0:0:0:
448,192,54229,1,0,0:0:0:0:
320,192,54229,128,0,54510:0:0:0:0:
192,192,54510,128,0,54791:0:0:0:0:
64,192,54510,1,0,0:0:0:0:
64,192,54791,1,0,0:0:0:0:
320,192,54791,128,0,54979:0:0:0:0:
448,192,54791,128,0,54979:0:0:0:0:
448,192,55072,128,0,55915:0:0:0:0:
320,192,55072,128,0,55353:0:0:0:0:
64,192,55353,1,0,0:0:0:0:
192,192,55353,1,0,0:0:0:0:
64,192,55634,1,0,0:0:0:0:
192,192,55634,1,0,0:0:0:0:
320,192,55634,1,0,0:0:0:0:
192,192,55915,1,0,0:0:0:0:
64,192,55915,1,0,0:0:0:0:
192,192,56056,1,0,0:0:0:0:
320,192,56056,1,0,0:0:0:0:
448,192,56056,1,0,0:0:0:0:
64,192,56196,1,0,0:0:0:0:
320,192,56337,1,0,0:0:0:0:
64,192,56477,128,0,57039:0:0:0:0:
192,192,56477,128,0,56758:0:0:0:0:
448,192,56758,1,0,0:0:0:0:
448,192,57039,1,0,0:0:0:0:
320,192,57039,1,0,0:0:0:0:
192,192,57039,1,0,0:0:0:0:
320,192,57321,128,0,57602:0:0:0:0:
64,192,57321,128,0,57602:0:0:0:0:
448,192,57602,128,0,58164:0:0:0:0:
192,192,57602,128,0,57883:0:0:0:0:
64,192,57883,1,0,0:0:0:0:
64,192,58164,1,0,0:0:0:0:
192,192,58164,1,0,0:0:0:0:
320,192,58164,1,0,0:0:0:0:
320,192,58445,128,0,58585:0:0:0:0:
448,192,58445,128,0,58585:0:0:0:0:
448,192,58726,1,0,0:0:0:0:
64,192,58726,128,0,59007:0:0:0:0:
320,192,59007,128,0,59288:0:0:0:0:
192,192,59007,1,0,0:0:0:0:
64,192,59288,1,0,0:0:0:0:
448,192,59288,1,0,0:0:0:0:
192,192,59288,128,0,59569:0:0:0:0:
320,192,59569,128,0,60131:0:0:0:0:
448,192,59569,128,0,59850:0:0:0:0:
64,192,59850,1,0,0:0:0:0:
192,192,59850,1,0,0:0:0:0:
192,192,60131,1,0,0:0:0:0:
448,192,60131,1,0,0:0:0:0:
64,192,60131,1,0,0:0:0:0:
192,192,60412,1,0,0:0:0:0:
448,192,60412,1,0,0:0:0:0:
320,192,60412,1,0,0:0:0:0:
64,192,60587,128,0,60693:0:0:0:0:
320,192,60693,128,0,60974:0:0:0:0:
64,192,60974,1,0,0:0:0:0:
192,192,60974,128,0,61255:0:0:0:0:
320,192,61255,1,0,0:0:0:0:
448,192,61255,128,0,61536:0:0:0:0:
192,192,61536,1,0,0:0:0:0:
320,192,61536,1,0,0:0:0:0:
64,192,61536,128,0,61817:0:0:0:0:
448,192,61817,1,0,0:0:0:0:
320,192,61817,128,0,62098:0:0:0:0:
64,192,62098,1,0,0:0:0:0:
192,192,62098,1,0,0:0:0:0:
192,192,62379,128,0,62660:0:0:0:0:
448,192,62379,1,0,0:0:0:0:
320,192,62660,1,0,0:0:0:0:
64,192,62660,128,0,62941:0:0:0:0:
448,192,62660,1,0,0:0:0:0:
320,192,62941,128,0,63503:0:0:0:0:
64,192,63222,1,0,0:0:0:0:
192,192,63222,1,0,0:0:0:0:
448,192,63503,1,0,0:0:0:0:
64,192,63503,1,0,0:0:0:0:
192,192,63503,128,0,63784:0:0:0:0:
448,192,63784,1,0,0:0:0:0:
320,192,63784,1,0,0:0:0:0:
64,192,63784,1,0,0:0:0:0:
320,192,63925,1,0,0:0:0:0:
448,192,63925,1,0,0:0:0:0:
192,192,63925,1,0,0:0:0:0:
64,192,64065,1,0,0:0:0:0:
192,192,64206,1,0,0:0:0:0:
320,192,64346,1,0,0:0:0:0:
448,192,64346,1,0,0:0:0:0:
64,192,64346,1,0,0:0:0:0:
192,192,64487,1,0,0:0:0:0:
448,192,64627,1,0,0:0:0:0:
64,192,64768,1,0,0:0:0:0:
192,192,64768,1,0,0:0:0:0:
320,192,64768,1,0,0:0:0:0:
192,192,64908,1,0,0:0:0:0:
64,192,64908,1,0,0:0:0:0:
448,192,64908,1,0,0:0:0:0:
320,192,65049,1,0,0:0:0:0:
448,192,65189,1,0,0:0:0:0:
192,192,65189,1,0,0:0:0:0:
64,192,65189,1,0,0:0:0:0:
192,192,65330,1,0,0:0:0:0:
448,192,65330,1,0,0:0:0:0:
320,192,65330,1,0,0:0:0:0:
320,192,65470,128,0,65751:0:0:0:0:
64,192,65470,128,0,66032:0:0:0:0:
192,192,65751,1,0,0:0:0:0:
192,192,66032,1,0,0:0:0:0:
320,192,66032,1,0,0:0:0:0:
448,192,66032,1,0,0:0:0:0:
320,192,66313,1,0,0:0:0:0:
448,192,66313,128,0,66595:0:0:0:0:
192,192,66595,1,0,0:0:0:0:
64,192,66595,1,0,0:0:0:0:
448,192,66876,1,0,0:0:0:0:
192,192,66876,128,0,67157:0:0:0:0:
448,192,67157,1,0,0:0:0:0:
64,192,67157,1,0,0:0:0:0:
320,192,67157,1,0,0:0:0:0:
192,192,67438,128,0,67578:0:0:0:0:
320,192,67438,128,0,67578:0:0:0:0:
64,192,67719,128,0,68000:0:0:0:0:
192,192,67719,1,0,0:0:0:0:
320,192,68000,128,0,68281:0:0:0:0:
448,192,68000,1,0,0:0:0:0:
448,192,68281,128,0,68562:0:0:0:0:
64,192,68281,1,0,0:0:0:0:
192,192,68281,1,0,0:0:0:0:
64,192,68562,1,0,0:0:0:0:
192,192,68562,128,0,69124:0:0:0:0:
448,192,68843,1,0,0:0:0:0:
320,192,68843,1,0,0:0:0:0:
64,192,69124,1,0,0:0:0:0:
320,192,69405,128,0,69686:0:0:0:0:
192,192,69405,1,0,0:0:0:0:
64,192,69405,128,0,69686:0:0:0:0:
448,192,69686,128,0,69967:0:0:0:0:
192,192,69967,128,0,70435:0:0:0:0:
64,192,69967,128,0,70435:0:0:0:0:
448,192,70248,128,0,70435:0:0:0:0:
320,192,70248,128,0,70435:0:0:0:0:
320,192,70529,128,0,70810:0:0:0:0:
64,192,70529,128,0,70810:0:0:0:0:
448,192,70529,1,0,0:0:0:0:
192,192,70810,1,0,0:0:0:0:
448,192,71091,128,0,71653:0:0:0:0:
192,192,71091,128,0,71372:0:0:0:0:
64,192,71372,1,0,0:0:0:0:
320,192,71653,1,0,0:0:0:0:
64,192,71653,1,0,0:0:0:0:
192,192,71653,1,0,0:0:0:0:
320,192,71934,128,0,72215:0:0:0:0:
448,192,71934,1,0,0:0:0:0:
192,192,72215,128,0,72496:0:0:0:0:
64,192,72215,1,0,0:0:0:0:
320,192,72496,1,0,0:0:0:0:
448,192,72496,128,0,72777:0:0:0:0:
320,192,72777,1,0,0:0:0:0:
192,192,72777,128,0,72965:0:0:0:0:
64,192,72777,128,0,72965:0:0:0:0:
192,192,73058,128,0,73808:0:0:0:0:
64,192,73058,128,0,73808:0:0:0:0:
320,192,73339,1,0,0:0:0:0:
448,192,73339,1,0,0:0:0:0:
320,192,73620,128,0,73808:0:0:0:0:
448,192,73620,128,0,73808:0:0:0:0:
448,192,73901,1,0,0:0:0:0:
320,192,73901,1,0,0:0:0:0:
192,192,73901,1,0,0:0:0:0:
64,192,73901,1,0,0:0:0:0:
448,192,74182,1,0,0:0:0:0:
64,192,74182,1,0,0:0:0:0:
192,192,74182,1,0,0:0:0:0:
192,192,74323,1,0,0:0:0:0:
64,192,74323,1,0,0:0:0:0:
320,192,74323,1,0,0:0:0:0:
320,192,74463,128,0,74744:0:0:0:0:
448,192,74463,128,0,75025:0:0:0:0:
64,192,74744,1,0,0:0:0:0:
320,192,75025,1,0,0:0:0:0:
192,192,75025,1,0,0:0:0:0:
64,192,75025,1,0,0:0:0:0:
448,192,75306,128,0,75587:0:0:0:0:
192,192,75306,128,0,75587:0:0:0:0:
320,192,75587,128,0,75869:0:0:0:0:
64,192,75587,128,0,76150:0:0:0:0:
448,192,75869,1,0,0:0:0:0:
320,192,76150,1,0,0:0:0:0:
192,192,76150,1,0,0:0:0:0:
448,192,76150,1,0,0:0:0:0:
64,192,76431,128,0,76571:0:0:0:0:
192,192,76431,128,0,76571:0:0:0:0:
448,192,76712,128,0,76993:0:0:0:0:
64,192,76712,1,0,0:0:0:0:
320,192,76993,1,0,0:0:0:0:
192,192,76993,128,0,77274:0:0:0:0:
320,192,77274,128,0,77555:0:0:0:0:
64,192,77274,1,0,0:0:0:0:
448,192,77274,1,0,0:0:0:0:
64,192,77555,128,0,77836:0:0:0:0:
192,192,77555,128,0,78117:0:0:0:0:
320,192,77836,1,0,0:0:0:0:
448,192,77836,1,0,0:0:0:0:
64,192,78117,1,0,0:0:0:0:
448,192,78117,1,0,0:0:0:0:
320,192,78117,1,0,0:0:0:0:
192,192,78398,1,0,0:0:0:0:
64,192,78398,1,0,0:0:0:0:
320,192,78398,1,0,0:0:0:0:
448,192,78573,128,0,78679:0:0:0:0:
192,192,78679,128,0,78960:0:0:0:0:
320,192,78960,128,0,79241:0:0:0:0:
448,192,78960,1,0,0:0:0:0:
64,192,79241,128,0,79522:0:0:0:0:
192,192,79241,1,0,0:0:0:0:
448,192,79522,128,0,79803:0:0:0:0:
192,192,79522,1,0,0:0:0:0:
320,192,79522,1,0,0:0:0:0:
192,192,79803,128,0,80084:0:0:0:0:
64,192,79803,1,0,0:0:0:0:
320,192,80084,1,0,0:0:0:0:
448,192,80084,1,0,0:0:0:0:
64,192,80365,1,0,0:0:0:0:
320,192,80365,128,0,80646:0:0:0:0:
192,192,80646,1,0,0:0:0:0:
448,192,80646,128,0,80927:0:0:0:0:
64,192,80646,1,0,0:0:0:0:
192,192,80927,128,0,81489:0:0:0:0:
448,192,81208,1,0,0:0:0:0:
64,192,81208,1,0,0:0:0:0:
320,192,81489,128,0,82051:0:0:0:0:
192,192,81770,1,0,0:0:0:0:
64,192,81770,1,0,0:0:0:0:
448,192,81770,1,0,0:0:0:0:
192,192,82051,1,0,0:0:0:0:
64,192,82192,1,0,0:0:0:0:
320,192,82332,1,0,0:0:0:0:
448,192,82332,1,0,0:0:0:0:
64,192,82473,1,0,0:0:0:0:
192,192,82520,128,0,82894:0:0:0:0:
64,192,82648,128,0,83035:0:0:0:0:
320,192,82789,128,0,83035:0:0:0:0:
448,192,82894,128,0,83128:0:0:0:0:
192,192,83035,128,0,83128:0:0:0:0:
320,192,83128,1,0,0:0:0:0:
