osu file format v14

[General]
AudioFilename: audio.mp3
AudioLeadIn: 0
PreviewTime: 30408
Countdown: 0
SampleSet: Soft
StackLeniency: 0.7
Mode: 0
LetterboxInBreaks: 0
WidescreenStoryboard: 1

[Editor]
DistanceSpacing: 0.1
BeatDivisor: 4
GridSize: 32
TimelineZoom: 2.6

[Metadata]
Title:The Evil Spirit
TitleUnicode:The Evil Spirit
Artist:ALEPH
ArtistUnicode:ALEPH
Creator:Yugu
Version:Light Insane
Source:
Tags:DreaM117er m1223961117 Firika Oiso Electronic instrumental Vol. 1 featured artist
BeatmapID:2623420
BeatmapSetID:1233230

[Difficulty]
HPDrainRate:6
CircleSize:4.2
OverallDifficulty:7
ApproachRate:8.5
SliderMultiplier:1.6
SliderTickRate:1

[Events]
//Background and Video events
0,0,"1111111111111111.jpg",0,0
//Break Periods
2,89001,94983
//Storyboard Layer 0 (Background)
//Storyboard Layer 1 (Fail)
//Storyboard Layer 2 (Pass)
//Storyboard Layer 3 (Foreground)
//Storyboard Layer 4 (Overlay)
//Storyboard Sound Samples

[TimingPoints]
1373,428.571428571429,4,2,1,40,1,0
9944,-100,4,2,1,50,0,0
16801,-100,4,2,1,60,0,0
23658,-100,4,2,1,60,0,0
27087,-100,4,2,1,70,0,0
27515,-100,4,2,1,70,0,0
28158,-100,4,2,1,70,0,0
28801,-100,4,2,1,70,0,0
29658,-100,4,2,1,70,0,0
30515,-100,4,2,2,85,0,0
31373,-100,4,2,2,85,0,0
33945,-100,4,2,2,85,0,0
34802,-100,4,2,2,85,0,0
37373,-100,4,2,2,85,0,0
38231,-100,4,2,2,85,0,0
40802,-100,4,2,2,85,0,0
41659,-100,4,2,2,85,0,0
42515,-100,4,2,2,85,0,0
44230,-100,4,2,2,85,0,0
47658,-100,4,2,2,85,0,0
50230,-100,4,2,2,85,0,0
51087,-100,4,2,2,85,0,0
54515,-100,4,2,2,85,0,0
56230,-100,4,2,2,85,0,0
57944,-100,4,2,2,90,0,0
58801,-83.3333333333333,4,2,2,90,0,0
59230,-83.3333333333333,4,2,2,90,0,0
59444,-83.3333333333333,4,2,2,90,0,0
59765,-83.3333333333333,4,2,2,90,0,0
59873,-83.3333333333333,4,2,2,90,0,0
60301,-83.3333333333333,4,2,2,90,0,0
60515,-83.3333333333333,4,2,2,90,0,0
60623,-83.3333333333333,4,2,2,90,0,0
61373,-100,4,2,2,90,0,0
62230,-83.3333333333333,4,2,2,90,0,0
62551,-83.3333333333333,4,2,2,90,0,0
62658,-83.3333333333333,4,2,2,90,0,0
62873,-83.3333333333333,4,2,2,90,0,0
63194,-83.3333333333333,4,2,2,90,0,0
63301,-83.3333333333333,4,2,2,90,0,0
63944,-83.3333333333333,4,2,2,90,0,0
64373,-83.3333333333333,4,2,2,90,0,0
64515,-83.3333333333333,4,2,2,90,0,0
64658,-83.3333333333333,4,2,2,90,0,0
64801,-100,4,2,2,90,0,0
65087,-100,4,2,2,90,0,0
65658,-83.3333333333333,4,2,2,90,0,0
66087,-83.3333333333333,4,2,2,90,0,0
66301,-83.3333333333333,4,2,2,90,0,0
66623,-83.3333333333333,4,2,2,90,0,0
66730,-83.3333333333333,4,2,2,90,0,0
67158,-83.3333333333333,4,2,2,90,0,0
67373,-83.3333333333333,4,2,2,90,0,0
67480,-83.3333333333333,4,2,2,90,0,0
68230,-100,4,2,2,90,0,0
69087,-83.3333333333333,4,2,2,90,0,0
69515,-83.3333333333333,4,2,2,90,0,0
69730,-83.3333333333333,4,2,2,90,0,0
70051,-83.3333333333333,4,2,2,90,0,0
70158,-83.3333333333333,4,2,2,90,0,0
70801,-83.3333333333333,4,2,2,90,0,0
71015,-83.3333333333333,4,2,2,90,0,0
71230,-83.3333333333333,4,2,2,90,0,0
71444,-83.3333333333333,4,2,2,90,0,0
71658,-100,4,2,2,90,0,0
72515,-83.3333333333333,4,2,2,90,0,0
72944,-83.3333333333333,4,2,2,90,0,0
73158,-83.3333333333333,4,2,2,90,0,0
73480,-83.3333333333333,4,2,2,90,0,0
73587,-83.3333333333333,4,2,2,90,0,0
74015,-83.3333333333333,4,2,2,90,0,0
74230,-83.3333333333333,4,2,2,90,0,0
74337,-83.3333333333333,4,2,2,90,0,0
75087,-100,4,2,2,90,0,0
75944,-83.3333333333333,4,2,2,90,0,0
76265,-83.3333333333333,4,2,2,90,0,0
76373,-83.3333333333333,4,2,2,90,0,0
76587,-83.3333333333333,4,2,2,90,0,0
76908,-83.3333333333333,4,2,2,90,0,0
77015,-83.3333333333333,4,2,2,90,0,0
77658,-83.3333333333333,4,2,2,90,0,0
78087,-83.3333333333333,4,2,2,90,0,0
78230,-83.3333333333333,4,2,2,90,0,0
78373,-83.3333333333333,4,2,2,90,0,0
78515,-100,4,2,2,90,0,0
78801,-100,4,2,2,90,0,0
79373,-83.3333333333333,4,2,2,90,0,0
79801,-83.3333333333333,4,2,2,90,0,0
80015,-83.3333333333333,4,2,2,90,0,0
80337,-83.3333333333333,4,2,2,90,0,0
80444,-83.3333333333333,4,2,2,90,0,0
80873,-83.3333333333333,4,2,2,90,0,0
81087,-83.3333333333333,4,2,2,90,0,0
81194,-83.3333333333333,4,2,2,90,0,0
81944,-100,4,2,2,90,0,0
82801,-83.3333333333333,4,2,2,90,0,0
83230,-83.3333333333333,4,2,2,90,0,0
83444,-83.3333333333333,4,2,2,90,0,0
83658,-83.3333333333333,4,2,2,90,0,0
84087,-100,4,2,2,85,0,0
84515,-100,4,2,2,80,0,0
84944,-100,4,2,2,75,0,0
85373,-100,4,2,2,70,0,0
85801,-100,4,2,2,65,0,0
86230,-100,4,2,2,60,0,0
86658,-100,4,2,2,55,0,0
87087,-100,4,2,2,50,0,0
87515,-100,4,2,2,45,0,0
87944,-100,4,2,2,40,0,0
88373,-100,4,2,2,35,0,0
88801,-100,4,2,1,30,0,0
95658,-100,4,2,1,50,0,0
102515,-100,4,2,1,60,0,0
109373,-100,4,2,1,60,0,0
112801,-100,4,2,1,70,0,0
113230,-100,4,2,1,70,0,0
113872,-100,4,2,1,70,0,0
114515,-100,4,2,1,70,0,0
115373,-100,4,2,1,70,0,0
116229,-100,4,2,2,85,0,0
116283,-100,4,2,2,10,0,0
116337,-100,4,2,2,15,0,0
116390,-100,4,2,2,20,0,0
116444,-100,4,2,2,25,0,0
116498,-100,4,2,2,30,0,0
116551,-100,4,2,2,35,0,0
116605,-100,4,2,2,40,0,0
116658,-100,4,2,2,45,0,0
116712,-100,4,2,2,50,0,0
116765,-100,4,2,2,55,0,0
116819,-100,4,2,2,60,0,0
116873,-100,4,2,2,65,0,0
116980,-100,4,2,2,85,0,0
117087,-100,4,2,2,85,0,0
117944,-100,4,2,2,85,0,0
118801,-100,4,2,2,85,0,0
118855,-100,4,2,2,10,0,0
118908,-100,4,2,2,15,0,0
118962,-100,4,2,2,20,0,0
119015,-100,4,2,2,25,0,0
119069,-100,4,2,2,30,0,0
119123,-100,4,2,2,35,0,0
119176,-100,4,2,2,40,0,0
119230,-100,4,2,2,45,0,0
119283,-100,4,2,2,50,0,0
119337,-100,4,2,2,55,0,0
119390,-100,4,2,2,60,0,0
119444,-100,4,2,2,65,0,0
119498,-100,4,2,2,70,0,0
119551,-100,4,2,2,75,0,0
119658,-100,4,2,2,85,0,0
119712,-100,4,2,2,70,0,0
119980,-100,4,2,2,85,0,0
120034,-100,4,2,2,70,0,0
120408,-100,4,2,2,85,0,0
120515,-100,4,2,2,85,0,0
120944,-100,4,2,2,85,0,0
121373,-100,4,2,2,85,0,0
121426,-100,4,2,2,70,0,0
121587,-100,4,2,2,85,0,0
121640,-100,4,2,2,70,0,0
122015,-100,4,2,2,85,0,0
123087,-100,4,2,2,85,0,0
123140,-100,4,2,2,10,0,0
123194,-100,4,2,2,15,0,0
123247,-100,4,2,2,20,0,0
123301,-100,4,2,2,25,0,0
123355,-100,4,2,2,30,0,0
123408,-100,4,2,2,35,0,0
123462,-100,4,2,2,40,0,0
123515,-100,4,2,2,45,0,0
123569,-100,4,2,2,50,0,0
123622,-100,4,2,2,55,0,0
123676,-100,4,2,2,60,0,0
123730,-100,4,2,2,65,0,0
123837,-100,4,2,2,85,0,0
123944,-100,4,2,2,85,0,0
124801,-100,4,2,2,85,0,0
125658,-100,4,2,2,85,0,0
125712,-100,4,2,2,10,0,0
125765,-100,4,2,2,15,0,0
125819,-100,4,2,2,20,0,0
125872,-100,4,2,2,25,0,0
125926,-100,4,2,2,30,0,0
125980,-100,4,2,2,35,0,0
126033,-100,4,2,2,40,0,0
126087,-100,4,2,2,45,0,0
126140,-100,4,2,2,50,0,0
126194,-100,4,2,2,55,0,0
126247,-100,4,2,2,60,0,0
126301,-100,4,2,2,65,0,0
126355,-100,4,2,2,70,0,0
126408,-100,4,2,2,75,0,0
126515,-100,4,2,2,85,0,0
126569,-100,4,2,2,70,0,0
126837,-100,4,2,2,85,0,0
126891,-100,4,2,2,70,0,0
127265,-100,4,2,2,85,0,0
127372,-100,4,2,2,85,0,0
127801,-100,4,2,2,85,0,0
129944,-100,4,2,2,85,0,0
129998,-100,4,2,2,10,0,0
130052,-100,4,2,2,15,0,0
130105,-100,4,2,2,20,0,0
130159,-100,4,2,2,25,0,0
130213,-100,4,2,2,30,0,0
130266,-100,4,2,2,35,0,0
130320,-100,4,2,2,40,0,0
130373,-100,4,2,2,45,0,0
130427,-100,4,2,2,50,0,0
130480,-100,4,2,2,55,0,0
130534,-100,4,2,2,60,0,0
130588,-100,4,2,2,65,0,0
130694,-100,4,2,2,85,0,0
130801,-100,4,2,2,85,0,0
132515,-100,4,2,2,85,0,0
132569,-100,4,2,2,10,0,0
132622,-100,4,2,2,15,0,0
132676,-100,4,2,2,20,0,0
132729,-100,4,2,2,25,0,0
132783,-100,4,2,2,30,0,0
132837,-100,4,2,2,35,0,0
132890,-100,4,2,2,40,0,0
132944,-100,4,2,2,45,0,0
132997,-100,4,2,2,50,0,0
133051,-100,4,2,2,55,0,0
133104,-100,4,2,2,60,0,0
133158,-100,4,2,2,65,0,0
133212,-100,4,2,2,70,0,0
133265,-100,4,2,2,75,0,0
133373,-100,4,2,2,85,0,0
133426,-100,4,2,2,70,0,0
133694,-100,4,2,2,85,0,0
133747,-100,4,2,2,70,0,0
134123,-100,4,2,2,85,0,0
134230,-100,4,2,2,85,0,0
134658,-100,4,2,2,85,0,0
135087,-100,4,2,2,85,0,0
135140,-100,4,2,2,70,0,0
135301,-100,4,2,2,85,0,0
135354,-100,4,2,2,70,0,0
135730,-100,4,2,2,85,0,0
136801,-100,4,2,2,85,0,0
137658,-100,4,2,2,85,0,0
139373,-100,4,2,2,85,0,0
139426,-100,4,2,2,10,0,0
139480,-100,4,2,2,15,0,0
139533,-100,4,2,2,20,0,0
139587,-100,4,2,2,25,0,0
139641,-100,4,2,2,30,0,0
139694,-100,4,2,2,35,0,0
139748,-100,4,2,2,40,0,0
139801,-100,4,2,2,45,0,0
139855,-100,4,2,2,50,0,0
139908,-100,4,2,2,55,0,0
139962,-100,4,2,2,60,0,0
140016,-100,4,2,2,65,0,0
140069,-100,4,2,2,70,0,0
140123,-100,4,2,2,75,0,0
140230,-100,4,2,2,85,0,0
140283,-100,4,2,2,70,0,0
140551,-100,4,2,2,85,0,0
140604,-100,4,2,2,70,0,0
140980,-100,4,2,2,85,0,0
141087,-100,4,2,2,85,0,0
141515,-100,4,2,2,85,0,0
141944,-166.666666666667,4,2,2,85,0,0
143658,-100,4,2,2,90,0,0
144515,-83.3333333333333,4,2,2,90,0,0
144944,-83.3333333333333,4,2,2,90,0,0
145158,-83.3333333333333,4,2,2,90,0,0
145480,-83.3333333333333,4,2,2,90,0,0
145587,-83.3333333333333,4,2,2,90,0,0
146015,-83.3333333333333,4,2,2,90,0,0
146230,-83.3333333333333,4,2,2,90,0,0
146337,-83.3333333333333,4,2,2,90,0,0
147087,-100,4,2,2,90,0,0
147944,-83.3333333333333,4,2,2,90,0,0
148265,-83.3333333333333,4,2,2,90,0,0
148373,-83.3333333333333,4,2,2,90,0,0
148587,-83.3333333333333,4,2,2,90,0,0
148908,-83.3333333333333,4,2,2,90,0,0
149015,-83.3333333333333,4,2,2,90,0,0
149658,-83.3333333333333,4,2,2,90,0,0
150087,-83.3333333333333,4,2,2,90,0,0
150230,-83.3333333333333,4,2,2,90,0,0
150373,-83.3333333333333,4,2,2,90,0,0
150515,-100,4,2,2,90,0,0
150801,-100,4,2,2,90,0,0
151373,-83.3333333333333,4,2,2,90,0,0
151801,-83.3333333333333,4,2,2,90,0,0
152015,-83.3333333333333,4,2,2,90,0,0
152337,-83.3333333333333,4,2,2,90,0,0
152444,-83.3333333333333,4,2,2,90,0,0
152873,-83.3333333333333,4,2,2,90,0,0
153087,-83.3333333333333,4,2,2,90,0,0
153194,-83.3333333333333,4,2,2,90,0,0
153944,-100,4,2,2,90,0,0
154801,-83.3333333333333,4,2,2,90,0,0
155230,-83.3333333333333,4,2,2,90,0,0
155444,-83.3333333333333,4,2,2,90,0,0
155765,-83.3333333333333,4,2,2,90,0,0
155873,-83.3333333333333,4,2,2,90,0,0
156515,-83.3333333333333,4,2,2,90,0,0
156730,-83.3333333333333,4,2,2,90,0,0
156944,-83.3333333333333,4,2,2,90,0,0
157158,-83.3333333333333,4,2,2,90,0,0
157373,-100,4,2,2,90,0,0
158230,-83.3333333333333,4,2,2,90,0,0
158658,-83.3333333333333,4,2,2,90,0,0
158873,-83.3333333333333,4,2,2,90,0,0
159194,-83.3333333333333,4,2,2,90,0,0
159301,-83.3333333333333,4,2,2,90,0,0
159730,-83.3333333333333,4,2,2,90,0,0
159944,-83.3333333333333,4,2,2,90,0,0
160051,-83.3333333333333,4,2,2,90,0,0
160801,-100,4,2,2,90,0,0
161658,-83.3333333333333,4,2,2,90,0,0
161980,-83.3333333333333,4,2,2,90,0,0
162087,-83.3333333333333,4,2,2,90,0,0
162301,-83.3333333333333,4,2,2,90,0,0
162623,-83.3333333333333,4,2,2,90,0,0
162730,-83.3333333333333,4,2,2,90,0,0
163373,-83.3333333333333,4,2,2,90,0,0
163801,-83.3333333333333,4,2,2,90,0,0
163944,-83.3333333333333,4,2,2,90,0,0
164087,-83.3333333333333,4,2,2,90,0,0
164230,-100,4,2,2,90,0,0
164515,-100,4,2,2,90,0,0
165087,-83.3333333333333,4,2,2,90,0,0
165515,-83.3333333333333,4,2,2,90,0,0
165730,-83.3333333333333,4,2,2,90,0,0
166051,-83.3333333333333,4,2,2,90,0,0
166158,-83.3333333333333,4,2,2,90,0,0
166587,-83.3333333333333,4,2,2,90,0,0
166801,-83.3333333333333,4,2,2,90,0,0
166908,-83.3333333333333,4,2,2,90,0,0
167658,-100,4,2,2,90,0,0
168515,-83.3333333333333,4,2,2,90,0,0
168944,-83.3333333333333,4,2,2,90,0,0
169158,-83.3333333333333,4,2,2,90,0,0
169373,-83.3333333333333,4,2,2,90,0,0
169801,-100,4,2,2,85,0,0
170229,-100,4,2,2,80,0,0
170658,-100,4,2,2,75,0,0
171087,-100,4,2,2,70,0,0
171515,-100,4,2,2,65,0,0
171944,-100,4,2,2,60,0,0
172372,-100,4,2,2,55,0,0
172801,-100,4,2,2,50,0,0
173229,-100,4,2,2,45,0,0
173658,-100,4,2,2,40,0,0
174515,-100,4,2,2,35,0,0
175373,-100,4,2,2,30,0,0
177087,-100,4,2,2,25,0,0
178801,-100,4,2,2,20,0,0
181373,-100,4,2,2,15,0,0
183515,-100,4,2,2,5,0,0

[Colours]
Combo1 : 198,250,194
Combo2 : 95,95,95
Combo3 : 218,218,218
Combo4 : 238,125,182

[HitObjects]
141,133,9944,6,0,L|48:122,2,80,2|2|8,0:0|0:0|0:0,0:0:0:0:
235,186,10587,1,2,2:3:0:0:
235,186,10694,1,2,2:3:0:0:
235,186,10801,2,0,L|291:179,1,40,2|2,2:3|2:3,0:0:0:0:
378,117,11015,2,0,L|338:121,1,40,2|2,0:0|0:0,0:0:0:0:
266,23,11230,2,0,P|260:62|262:102,1,80,8|0,0:0|0:0,0:0:0:0:
284,262,11658,6,0,P|289:301|287:341,2,80,2|2|8,0:0|0:0|0:0,0:0:0:0:
204,308,12301,1,2,2:3:0:0:
204,308,12408,1,2,2:3:0:0:
204,308,12515,2,0,L|129:301,1,40,2|2,2:3|2:3,0:0:0:0:
371,256,12730,2,0,L|410:252,1,40,2|2,0:0|0:0,0:0:0:0:
186,218,12944,2,0,L|73:207,1,80,8|0,0:0|0:0,0:0:0:0:
25,104,13373,6,0,P|25:64|46:31,2,80,2|2|8,0:0|0:0|0:0,0:0:0:0:
106,210,14015,1,2,2:3:0:0:
106,210,14123,1,2,2:3:0:0:
106,210,14230,2,0,L|102:153,1,40,2|2,2:3|2:3,0:0:0:0:
182,67,14444,2,0,L|178:124,1,40,2|2,0:0|0:0,0:0:0:0:
280,174,14658,2,0,P|319:170|356:155,1,80,8|0,0:0|0:0,0:0:0:0:
466,75,15087,6,0,L|376:62,2,80,2|2|8,0:0|0:0|0:0,0:0:0:0:
473,210,15730,1,2,2:3:0:0:
473,210,15837,1,2,2:3:0:0:
473,210,15944,2,0,P|455:201|437:191,1,40,2|2,2:3|2:3,0:0:0:0:
323,265,16158,2,0,P|340:256|358:246,1,40,2|2,0:0|0:0,0:0:0:0:
459,352,16373,1,6,2:3:0:0:
459,352,16801,5,2,0:0:0:0:
370,343,17015,2,0,P|331:343|291:349,1,80,2|8,0:0|0:0,0:0:0:0:
187,292,17444,1,2,2:3:0:0:
187,292,17551,1,2,2:3:0:0:
187,292,17658,2,0,L|180:241,1,40,2|2,2:3|2:3,0:0:0:0:
86,320,17873,2,0,L|79:371,1,40,2|2,0:0|0:0,0:0:0:0:
16,223,18087,2,0,L|109:236,1,80,8|0,0:0|0:0,0:0:0:0:
226,165,18515,5,2,0:0:0:0:
168,97,18730,2,0,L|75:110,1,80,2|8,0:0|0:0,0:0:0:0:
249,11,19158,1,2,2:3:0:0:
249,11,19265,1,2,2:3:0:0:
248,11,19373,2,0,P|240:29|237:49,1,40,2|2,2:3|2:3,0:0:0:0:
319,136,19587,2,0,P|311:117|308:97,1,40,2|2,0:0|0:0,0:0:0:0:
393,40,19801,2,0,L|486:53,1,80,8|0,0:0|0:0,0:0:0:0:
504,192,20230,5,2,0:0:0:0:
445,258,20444,2,0,P|406:258|369:243,1,80,2|8,0:0|0:0,0:0:0:0:
269,318,20873,1,2,2:3:0:0:
269,318,20980,1,2,2:3:0:0:
269,318,21087,2,0,L|205:309,1,40,2|2,2:3|2:3,0:0:0:0:
363,374,21301,2,0,L|427:365,1,40,2|2,0:0|0:0,0:0:0:0:
333,249,21515,2,0,P|333:209|340:169,1,80,8|0,0:0|0:0,0:0:0:0:
191,228,21944,5,2,0:0:0:0:
204,141,22158,2,0,P|203:101|196:61,1,80,2|8,0:0|0:0,0:0:0:0:
320,15,22587,1,2,2:3:0:0:
320,15,22694,1,2,2:3:0:0:
320,15,22801,2,0,L|316:68,1,40,2|2,2:3|2:3,0:0:0:0:
224,106,23015,2,0,L|228:159,1,40,2|2,0:0|0:0,0:0:0:0:
340,169,23230,1,6,2:3:0:0:
340,169,23658,5,2,0:0:0:0:
340,169,23873,1,2,0:0:0:0:
340,169,24087,1,8,0:0:0:0:
447,147,24301,2,0,P|447:166|447:186,2,40,2|2|2,2:3|2:3|2:3,0:0:0:0:
375,257,24730,1,2,0:0:0:0:
377,276,24837,1,2,0:0:0:0:
379,295,24944,1,8,0:0:0:0:
462,321,25158,1,0,0:0:0:0:
308,367,25373,5,2,0:0:0:0:
308,367,25587,1,2,0:0:0:0:
308,367,25801,1,8,0:0:0:0:
221,288,26015,2,0,L|168:281,2,40,2|2|2,2:3|2:3|2:3,0:0:0:0:
340,169,26444,1,2,0:0:0:0:
342,150,26551,1,2,0:0:0:0:
344,131,26658,1,8,0:0:0:0:
209,59,26873,5,2,0:0:0:0:
189,55,26980,1,2,0:0:0:0:
168,51,27087,2,0,L|262:38,1,80,8|0,0:0|0:0,0:0:0:0:
143,153,27515,5,2,0:0:0:0:
123,149,27622,1,2,0:0:0:0:
102,145,27729,2,0,L|196:132,1,80,8|0,0:0|0:0,0:0:0:0:
77,247,28158,5,2,0:0:0:0:
57,243,28265,1,2,0:0:0:0:
36,239,28373,2,0,L|130:226,1,80,8|0,0:0|0:0,0:0:0:0:
306,243,28801,2,0,P|326:298|311:355,1,120,8|2,0:0|2:3,0:0:0:0:
152,341,29337,1,8,0:0:0:0:
152,341,29444,2,0,L|149:281,1,40,8|0,0:0|0:0,0:0:0:0:
192,171,29658,2,0,P|313:223|310:355,1,280,4|0,1:3|0:0,0:0:0:0:
235,317,30515,5,2,3:2:0:0:
432,249,30837,1,0,3:0:0:0:
275,113,31158,1,0,3:0:0:0:
314,227,31373,1,8,0:0:0:0:
314,227,32015,1,2,0:0:0:0:
275,113,32230,5,2,3:2:0:0:
432,249,32551,1,0,3:0:0:0:
235,317,32873,1,2,3:2:0:0:
314,227,33087,1,8,0:0:0:0:
314,227,33944,5,2,3:2:0:0:
117,159,34265,1,0,3:0:0:0:
274,23,34587,1,0,3:0:0:0:
235,137,34801,1,8,0:0:0:0:
235,137,35444,1,2,0:0:0:0:
235,137,35551,1,2,0:0:0:0:
235,137,35658,5,2,3:2:0:0:
274,23,35980,1,2,3:2:0:0:
117,159,36301,1,2,3:2:0:0:
235,137,36515,1,8,0:0:0:0:
235,137,36944,2,0,B|252:132|252:132|267:137|267:137|287:128|287:128|299:133|299:133|321:125|321:125|331:131|331:131|347:125,1,120,0|0,0:0|0:0,0:0:0:0:
410,78,37373,5,2,3:2:0:0:
374,282,37694,1,0,3:0:0:0:
179,352,38015,1,0,3:0:0:0:
276,317,38230,1,8,0:0:0:0:
276,317,38873,1,2,0:0:0:0:
179,352,39087,5,2,3:2:0:0:
374,282,39408,1,0,3:0:0:0:
410,78,39730,1,2,3:2:0:0:
392,180,39944,1,8,0:0:0:0:
392,180,40801,5,2,3:2:0:0:
195,115,41123,1,0,3:0:0:0:
40,253,41444,1,0,3:2:0:0:
118,184,41658,2,0,B|219:198|150:231|260:246,1,160,8|0,0:0|0:0,0:0:0:0:
399,185,42301,1,2,0:0:0:0:
399,185,42408,1,2,0:0:0:0:
399,185,42515,5,8,3:3:0:0:
282,363,42837,1,0,3:0:0:0:
424,185,43158,1,0,3:0:0:0:
307,363,43480,1,0,3:0:0:0:
158,233,43801,1,8,3:3:0:0:
158,233,44015,1,8,3:3:0:0:
157,232,44230,6,0,P|121:217|85:199,1,80,2|0,3:2|0:0,0:0:0:0:
45,200,44551,2,0,P|39:160|37:120,1,80,0|0,3:0|0:0,0:0:0:0:
62,88,44873,1,0,3:0:0:0:
219,24,45087,2,0,P|222:103|221:183,1,160,8|0,0:0|0:0,0:0:0:0:
280,308,45730,1,2,0:0:0:0:
280,308,45837,1,0,0:0:0:0:
280,308,45944,6,0,P|318:317|356:329,1,80,2|0,3:2|0:0,0:0:0:0:
391,310,46265,2,0,P|420:337|446:367,1,80,0|0,3:0|0:0,0:0:0:0:
486,365,46587,1,2,3:2:0:0:
512,196,46801,1,8,0:0:0:0:
512,196,47658,6,0,P|473:195|434:206,1,80,2|0,3:2|0:0,0:0:0:0:
404,233,47980,2,0,P|370:212|331:202,1,80,0|0,3:0|0:0,0:0:0:0:
312,167,48301,1,0,3:0:0:0:
367,17,48515,2,0,P|324:79|248:72,1,160,8|0,0:0|0:0,0:0:0:0:
115,25,49158,1,2,0:0:0:0:
115,25,49265,1,2,0:0:0:0:
115,25,49373,6,0,P|75:27|35:34,1,80,2|0,3:2|0:0,0:0:0:0:
34,74,49694,2,0,P|73:76|113:83,1,80,2|0,3:2|0:0,0:0:0:0:
134,117,50015,1,2,3:2:0:0:
75,259,50230,2,0,B|128:289|128:290|176:273|214:247|215:247|224:209|233:181|234:179|293:169|335:170,1,280,8|0,0:0|0:0,0:0:0:0:
383,126,51087,6,0,P|385:165|383:205,1,80,2|0,3:2|0:0,0:0:0:0:
402,241,51408,2,0,P|393:280|382:318,1,80,0|0,3:0|0:0,0:0:0:0:
382,358,51730,1,0,3:0:0:0:
239,328,51944,2,0,P|256:249|282:174,1,160,8|0,0:0|0:0,0:0:0:0:
238,46,52587,1,2,0:0:0:0:
238,46,52694,1,0,0:0:0:0:
237,46,52801,6,0,P|197:40|157:35,1,80,2|0,3:2|0:0,0:0:0:0:
123,57,53123,2,0,P|117:96|112:136,1,80,0|0,3:0|0:0,0:0:0:0:
130,172,53444,1,2,3:2:0:0:
308,133,53658,1,8,0:0:0:0:
308,133,54515,6,0,P|345:146|382:161,1,80,2|0,3:2|0:0,0:0:0:0:
397,198,54837,2,0,P|366:223|335:248,1,80,0|0,3:0|0:0,0:0:0:0:
295,246,55158,1,0,3:0:0:0:
171,184,55373,2,0,P|91:189|12:202,1,160,8|0,0:0|0:0,0:0:0:0:
76,292,56015,1,2,0:0:0:0:
76,292,56123,1,2,0:0:0:0:
76,292,56230,5,8,3:3:0:0:
102,86,56551,1,0,3:0:0:0:
96,298,56873,1,0,3:0:0:0:
122,92,57194,1,0,3:0:0:0:
276,210,57515,1,8,3:3:0:0:
276,210,57730,1,8,3:3:0:0:
276,210,57944,6,0,B|304:255|304:255|266:317|266:317|289:360|289:360|396:351,1,280,2|0,0:0|0:0,0:0:0:0:
468,376,58801,2,0,L|472:271,1,95.9999970703126,8|0,0:0|0:0,0:0:0:0:
391,134,59230,1,2,0:0:0:0:
396,86,59337,1,2,0:0:0:0:
402,37,59444,6,0,P|471:44|509:103,1,143.999995605469,8|8,0:0|0:0,0:0:0:0:
496,181,59873,1,8,0:0:0:0:
326,194,60087,1,8,0:0:0:0:
280,179,60194,1,2,0:0:0:0:
233,164,60301,2,0,P|185:172|143:195,1,95.9999970703126,2|8,0:0|0:0,0:0:0:0:
50,24,60944,1,0,0:0:0:0:
50,24,61158,1,8,0:0:0:0:
127,66,61373,6,0,B|122:111|65:165|65:165|29:254|86:332,1,280,2|0,0:0|0:0,0:0:0:0:
147,353,62230,2,0,L|167:249,1,95.9999970703126,8|0,0:0|0:0,0:0:0:0:
235,149,62658,1,2,0:0:0:0:
235,149,62765,1,0,0:0:0:0:
235,149,62873,6,0,P|261:191|233:291,1,143.999995605469,8|8,0:0|0:0,0:0:0:0:
165,258,63301,1,8,0:0:0:0:
345,177,63515,1,8,0:0:0:0:
393,171,63623,1,2,0:0:0:0:
439,164,63730,2,0,P|393:151|352:128,1,95.9999970703126,2|8,0:0|0:0,0:0:0:0:
394,283,64373,2,0,P|424:274|453:260,2,63.9999980468751,8|8|8,0:0|0:0|0:0,0:0:0:0:
338,358,64801,6,0,P|294:351|226:317,2,106.666666666667,2|2|0,0:0|0:0|0:0,0:0:0:0:
169,265,65658,2,0,P|122:278|79:299,1,95.9999970703126,8|0,0:0|0:0,0:0:0:0:
238,208,66087,1,2,0:0:0:0:
250,161,66194,1,2,0:0:0:0:
232,114,66301,6,0,P|163:92|91:87,1,143.999995605469,8|8,0:0|0:0,0:0:0:0:
39,146,66730,1,8,0:0:0:0:
168,17,66944,1,8,0:0:0:0:
214,6,67051,1,2,0:0:0:0:
261,6,67158,2,0,P|307:16|349:40,1,95.9999970703126,2|8,0:0|0:0,0:0:0:0:
446,208,67801,1,0,0:0:0:0:
446,208,68015,1,8,0:0:0:0:
462,121,68230,6,0,P|408:123|357:138,2,106.666666666667,2|2|2,0:0|0:0|0:0,0:0:0:0:
497,289,69087,2,0,P|462:348|393:348,1,143.999995605469,8|0,0:0|0:0,0:0:0:0:
341,292,69515,2,0,L|281:283,1,47.9999985351563,0|0,0:0|0:0,0:0:0:0:
225,332,69730,6,0,P|190:272|121:272,1,143.999995605469,0|8,0:0|0:0,0:0:0:0:
77,336,70158,1,8,0:0:0:0:
29,189,70373,1,8,0:0:0:0:
72,168,70480,1,2,0:0:0:0:
119,164,70587,1,2,0:0:0:0:
76,335,70801,2,0,P|37:311|30:265,1,95.9999970703126,8|0,3:2|3:0,0:0:0:0:
176,98,71230,2,0,P|215:122|222:168,1,95.9999970703126,0|0,3:0|3:0,0:0:0:0:
341,292,71658,6,0,P|468:258|486:128,1,280,2|0,0:0|0:0,0:0:0:0:
402,105,72515,2,0,P|407:152|411:200,1,95.9999970703126,8|0,0:0|0:0,0:0:0:0:
268,333,72944,1,2,0:0:0:0:
255,286,73051,1,2,0:0:0:0:
266,238,73158,6,0,P|273:167|275:95,1,143.999995605469,8|8,0:0|0:0,0:0:0:0:
229,32,73587,1,8,0:0:0:0:
172,202,73801,1,8,0:0:0:0:
171,154,73908,1,2,0:0:0:0:
157,108,74015,2,0,P|139:63|120:19,1,95.9999970703126,2|8,0:0|0:0,0:0:0:0:
0,275,74658,1,0,0:0:0:0:
0,275,74873,1,8,0:0:0:0:
19,189,75087,6,0,B|145:241|85:315|256:360,1,280,2|0,0:0|0:0,0:0:0:0:
308,323,75944,2,0,P|296:276|292:228,1,95.9999970703126,8|0,0:0|0:0,0:0:0:0:
397,135,76373,1,2,0:0:0:0:
397,135,76480,1,0,0:0:0:0:
397,135,76587,6,0,P|382:205|384:277,1,143.999995605469,8|8,0:0|0:0,0:0:0:0:
452,312,77015,1,8,0:0:0:0:
292,228,77230,1,8,0:0:0:0:
245,217,77337,1,2,0:0:0:0:
199,230,77444,2,0,P|178:183|179:130,1,95.9999970703126,2|8,0:0|0:0,0:0:0:0:
399,40,78087,2,0,P|429:29|460:21,2,63.9999980468751,8|8|8,0:0|0:0|0:0,0:0:0:0:
283,88,78515,6,0,P|230:77|179:61,2,106.666666666667,2|2|0,0:0|0:0|0:0,0:0:0:0:
380,213,79373,2,0,P|388:165|400:119,1,95.9999970703126,8|0,0:0|0:0,0:0:0:0:
448,255,79801,1,2,0:0:0:0:
421,284,79908,1,2,0:0:0:0:
381,294,80015,6,0,P|310:287|238:282,1,143.999995605469,8|8,0:0|0:0,0:0:0:0:
170,319,80444,1,8,0:0:0:0:
63,190,80658,1,8,0:0:0:0:
95,225,80765,1,2,0:0:0:0:
100,272,80873,2,0,P|90:318|100:365,1,95.9999970703126,2|8,0:0|0:0,0:0:0:0:
249,103,81515,1,0,0:0:0:0:
249,103,81730,1,8,0:0:0:0:
184,42,81944,6,0,P|132:28|79:20,2,106.666666666667,2|2|2,0:0|0:0|0:0,0:0:0:0:
231,194,82801,2,0,P|299:182|337:123,1,143.999995605469,8|0,0:0|0:0,0:0:0:0:
329,47,83230,1,2,0:0:0:0:
436,158,83444,2,0,P|481:147|512:111,1,95.9999970703126,8|2,0:0|0:0,0:0:0:0:
256,192,83765,12,4,88801,3:2:0:0:
371,133,95658,6,0,L|464:122,2,80,2|2|8,0:0|0:0|0:0,0:0:0:0:
277,186,96301,1,2,2:3:0:0:
277,186,96408,1,2,2:3:0:0:
277,186,96515,2,0,L|221:179,1,40,2|2,2:3|2:3,0:0:0:0:
112,217,96730,2,0,L|72:213,1,40,2|2,0:0|0:0,0:0:0:0:
182,316,96944,2,0,P|191:277|186:237,1,80,8|0,0:0|0:0,0:0:0:0:
95,124,97373,6,0,L|16:114,2,80,2|2|8,0:0|0:0|0:0,0:0:0:0:
194,50,98015,1,2,2:3:0:0:
194,50,98123,1,2,2:3:0:0:
194,50,98230,2,0,L|269:43,1,40,2|2,2:3|2:3,0:0:0:0:
349,10,98444,2,0,L|356:85,1,40,2|2,0:0|0:0,0:0:0:0:
362,154,98658,2,0,P|323:146|292:123,1,80,8|0,0:0|0:0,0:0:0:0:
465,76,99087,6,0,P|459:135|451:183,2,80,2|2|8,0:0|0:0|0:0,0:0:0:0:
362,154,99730,1,2,2:3:0:0:
362,154,99837,1,2,2:3:0:0:
362,153,99944,2,0,P|363:134|363:114,1,40,2|2,2:3|2:3,0:0:0:0:
290,20,100158,2,0,P|290:39|291:59,1,40,2|2,0:0|0:0,0:0:0:0:
243,172,100373,2,0,P|254:210|262:249,1,80,10|0,2:0|0:0,0:0:0:0:
177,352,100801,6,0,L|84:342,2,80,2|2|8,0:0|0:0|0:0,0:0:0:0:
301,341,101444,1,2,2:3:0:0:
301,341,101551,1,2,2:3:0:0:
301,341,101658,2,0,P|320:344|340:349,1,40,2|2,2:3|2:3,0:0:0:0:
262,249,101873,2,0,P|242:243|222:240,1,40,2|0,0:0|0:0,0:0:0:0:
349,179,102087,1,6,2:3:0:0:
349,179,102515,5,2,0:0:0:0:
293,108,102730,2,0,P|254:101|214:98,1,80,2|8,0:0|0:0,0:0:0:0:
125,33,103158,1,2,2:3:0:0:
125,33,103265,1,2,2:3:0:0:
125,33,103373,2,0,P|129:52|133:72,1,40,2|0,2:3|0:0,0:0:0:0:
84,174,103587,2,0,P|79:193|75:213,1,40,2|2,0:0|0:0,0:0:0:0:
182,259,103801,2,0,P|222:252|262:249,1,80,8|0,0:0|0:0,0:0:0:0:
232,369,104230,5,2,0:0:0:0:
151,333,104444,2,0,P|111:325|71:322,1,80,2|8,0:0|0:0,0:0:0:0:
21,245,104873,1,2,2:3:0:0:
21,245,104980,1,2,2:3:0:0:
21,245,105087,2,0,P|40:241|60:239,1,40,2|2,2:3|2:3,0:0:0:0:
137,181,105301,2,0,P|156:184|176:186,1,40,2|2,0:0|0:0,0:0:0:0:
279,234,105515,2,0,P|323:232|357:224,1,80,8|0,0:0|0:0,0:0:0:0:
464,112,105944,5,2,0:0:0:0:
384,75,106158,2,0,P|375:113|384:152,1,80,2|8,0:0|0:0,0:0:0:0:
467,240,106587,1,2,2:3:0:0:
467,240,106694,1,2,2:3:0:0:
467,240,106801,2,0,L|460:302,1,40,2|2,2:3|2:3,0:0:0:0:
396,366,107015,2,0,L|389:304,1,40,2|2,0:0|0:0,0:0:0:0:
318,266,107230,2,0,P|278:260|238:258,1,80,10|0,2:0|0:0,0:0:0:0:
160,355,107658,5,2,0:0:0:0:
142,267,107873,2,0,P|149:228|160:190,1,80,2|8,0:0|0:0,0:0:0:0:
228,66,108301,1,2,2:3:0:0:
228,66,108408,1,2,2:3:0:0:
228,66,108515,2,0,L|232:119,1,40,2|2,2:3|2:3,0:0:0:0:
312,187,108730,2,0,L|316:148,1,40,2|2,0:0|0:0,0:0:0:0:
411,96,108944,1,6,2:3:0:0:
411,96,109373,5,2,0:0:0:0:
411,96,109587,1,2,0:0:0:0:
411,96,109801,1,8,0:0:0:0:
473,196,110015,2,0,L|512:192,2,40,2|2|2,2:3|2:3|2:3,0:0:0:0:
411,96,110444,1,2,0:0:0:0:
391,93,110551,1,2,0:0:0:0:
371,90,110658,1,8,0:0:0:0:
292,129,110873,1,0,0:0:0:0:
210,13,111087,5,2,0:0:0:0:
210,13,111301,1,2,0:0:0:0:
210,13,111515,1,8,0:0:0:0:
125,99,111730,2,0,L|120:147,2,40,2|2|2,2:3|2:3|2:3,0:0:0:0:
21,36,112158,1,2,0:0:0:0:
23,55,112265,1,2,0:0:0:0:
25,74,112373,1,2,2:3:0:0:
111,211,112587,5,2,0:0:0:0:
109,230,112694,1,2,0:0:0:0:
107,249,112801,2,0,P|166:247|208:245,1,80,8|0,0:0|0:0,0:0:0:0:
250,150,113230,5,2,0:0:0:0:
248,169,113337,1,2,0:0:0:0:
246,188,113444,2,0,P|305:186|347:184,1,80,8|0,0:0|0:0,0:0:0:0:
389,89,113873,5,2,0:0:0:0:
387,108,113980,1,2,0:0:0:0:
385,127,114087,2,0,P|444:125|486:123,1,80,8|0,0:0|0:0,0:0:0:0:
308,33,114515,2,0,P|248:36|189:47,1,120,8|2,0:0|2:3,0:0:0:0:
155,153,115051,1,8,0:0:0:0:
155,153,115158,2,0,L|212:158,1,40,8|0,0:0|0:0,0:0:0:0:
308,33,115373,2,0,P|236:31|46:113,1,280,4|0,1:3|0:0,0:0:0:0:
39,191,116230,6,0,B|34:209|34:209|46:235,6,40,2|0|0|0|0|0|0,0:0|0:0|0:0|0:0|0:0|0:0|0:0,0:0:0:0:
118,203,116980,1,2,2:3:0:0:
118,203,117087,2,0,P|214:181|306:171,1,160,8|0,3:2|0:0,0:0:0:0:
408,30,117944,5,2,2:3:0:0:
407,49,118051,1,2,2:3:0:0:
406,68,118158,1,8,2:3:0:0:
485,196,118373,1,2,0:0:0:0:
361,147,118587,5,2,0:0:0:0:
360,166,118694,1,2,0:0:0:0:
359,185,118801,2,0,B|377:199|377:199|409:192,7,40,8|0|0|0|0|0|0|0,0:0|0:0|0:0|0:0|0:0|0:0|0:0|0:0,0:0:0:0:
280,141,119658,6,0,P|241:148|204:163,1,80,2|0,0:0|0:0,0:0:0:0:
153,225,119980,2,0,P|114:217|77:202,1,80,2|0,0:0|0:0,0:0:0:0:
19,131,120301,1,2,2:3:0:0:
19,131,120408,1,2,2:3:0:0:
19,131,120515,2,0,P|38:78|150:53,1,160,8|8,3:2|2:3,0:0:0:0:
282,102,121158,5,2,0:0:0:0:
281,121,121265,1,2,0:0:0:0:
280,141,121373,1,2,3:2:0:0:
225,35,121587,2,0,P|299:14|358:63,1,160,2|2,0:0|3:2,0:0:0:0:
457,202,122230,2,0,P|400:207|314:220,1,120,8|0,0:0|0:0,0:0:0:0:
275,261,122658,2,0,P|218:256|132:243,1,120,0|0,0:0|0:0,0:0:0:0:
90,209,123087,6,0,B|77:233|77:233|79:245,6,40,2|0|0|0|0|0|0,0:0|0:0|0:0|0:0|0:0|0:0|0:0,0:0:0:0:
155,247,123837,1,2,2:3:0:0:
155,247,123944,2,0,P|234:256|314:260,1,160,8|0,3:2|0:0,0:0:0:0:
473,359,124801,5,2,2:3:0:0:
471,339,124908,1,2,2:3:0:0:
469,319,125015,1,8,2:3:0:0:
340,173,125230,1,2,0:0:0:0:
396,279,125444,5,2,0:0:0:0:
394,259,125551,1,2,0:0:0:0:
392,239,125658,2,0,B|415:233|415:233|442:249,7,40,8|0|0|0|0|0|0|0,0:0|0:0|0:0|0:0|0:0|0:0|0:0|0:0,0:0:0:0:
340,173,126515,6,0,P|342:133|351:94,1,80,2|0,0:0|0:0,0:0:0:0:
426,78,126837,2,0,P|423:38|414:0,1,80,2|0,0:0|0:0,0:0:0:0:
298,30,127158,1,2,2:3:0:0:
298,30,127265,1,2,2:3:0:0:
298,30,127373,2,0,P|216:45|198:129,1,160,8|8,3:2|2:3,0:0:0:0:
72,174,128015,5,2,0:0:0:0:
75,193,128123,1,2,0:0:0:0:
84,210,128230,1,2,3:2:0:0:
301,168,128551,1,0,3:0:0:0:
228,376,128873,1,2,3:2:0:0:
173,279,129087,5,2,2:3:0:0:
173,279,129194,1,2,2:3:0:0:
173,279,129301,2,0,L|237:286,1,40,2|2,2:3|2:3,0:0:0:0:
307,296,129515,1,8,2:3:0:0:
307,296,129730,1,8,2:3:0:0:
433,371,129944,6,0,B|409:377|409:377|394:371,6,40,2|0|0|0|0|0|0,0:0|0:0|0:0|0:0|0:0|0:0|0:0,0:0:0:0:
414,297,130694,1,2,2:3:0:0:
414,296,130801,2,0,P|413:217|405:137,1,160,8|0,3:2|0:0,0:0:0:0:
255,18,131658,5,2,2:3:0:0:
250,37,131765,1,2,2:3:0:0:
247,56,131873,1,8,2:3:0:0:
405,137,132087,1,2,0:0:0:0:
281,140,132301,5,2,0:0:0:0:
276,159,132408,1,2,0:0:0:0:
273,178,132515,2,0,B|274:206|274:206|287:228,7,40,8|0|0|0|0|0|0|0,0:0|0:0|0:0|0:0|0:0|0:0|0:0|0:0,0:0:0:0:
340,262,133373,6,0,P|308:285|268:289,1,80,2|0,0:0|0:0,0:0:0:0:
200,327,133694,2,0,P|163:311|140:279,1,80,2|0,0:0|0:0,0:0:0:0:
80,224,134015,1,2,2:3:0:0:
80,224,134123,1,2,2:3:0:0:
80,224,134230,2,0,P|86:136|96:54,1,160,8|8,3:2|2:3,0:0:0:0:
250,11,134873,5,2,0:0:0:0:
256,29,134980,1,2,0:0:0:0:
258,48,135087,1,2,3:2:0:0:
174,111,135301,2,0,P|251:91|331:88,1,160,2|2,0:0|3:2,0:0:0:0:
437,175,135944,2,0,P|400:220|342:227,1,120,8|0,0:0|0:0,0:0:0:0:
306,295,136373,2,0,P|248:285|212:239,1,120,0|0,0:0|0:0,0:0:0:0:
158,157,136801,6,0,B|140:149|140:149|104:149,6,40,2|0|0|0|0|0|0,0:0|0:0|0:0|0:0|0:0|0:0|0:0,0:0:0:0:
127,225,137551,1,2,2:3:0:0:
127,225,137658,2,0,P|128:304|136:384,1,160,8|0,3:2|0:0,0:0:0:0:
331,288,138515,5,2,2:3:0:0:
351,290,138623,1,2,2:3:0:0:
370,292,138730,1,8,2:3:0:0:
459,220,138944,1,2,0:0:0:0:
429,359,139158,5,2,0:0:0:0:
449,361,139266,1,2,0:0:0:0:
468,363,139373,2,0,B|472:337|472:337|465:308,7,40,8|0|0|0|0|0|0|0,0:0|0:0|0:0|0:0|0:0|0:0|0:0|0:0,0:0:0:0:
410,266,140230,6,0,P|409:226|411:186,1,80,2|0,0:0|0:0,0:0:0:0:
462,129,140551,2,0,P|462:89|460:49,1,80,2|0,0:0|0:0,0:0:0:0:
390,4,140873,1,2,2:3:0:0:
390,4,140980,1,2,2:3:0:0:
390,4,141087,2,0,P|322:18|269:108,1,160,8|0,3:2|0:0,0:0:0:0:
203,222,141730,1,2,0:0:0:0:
204,241,141837,1,2,0:0:0:0:
210,259,141944,6,0,P|115:158|124:296,1,359.999989013672,2|0,0:0|0:0,0:0:0:0:
191,335,143658,6,0,B|281:326|281:326|359:354|359:354|461:313|461:313,1,280,2|0,0:0|0:0,0:0:0:0:
510,251,144515,2,0,P|465:235|419:244,1,95.9999970703126,8|0,0:0|0:0,0:0:0:0:
287,141,144944,1,2,0:0:0:0:
270,95,145051,1,2,0:0:0:0:
285,48,145158,6,0,P|353:33|407:77,1,143.999995605469,8|8,0:0|0:0,0:0:0:0:
418,152,145587,1,8,0:0:0:0:
243,245,145801,1,8,0:0:0:0:
195,242,145908,1,2,0:0:0:0:
147,239,146015,2,0,P|123:207|120:137,1,95.9999970703126,2|8,0:0|0:0,0:0:0:0:
19,372,146658,1,0,0:0:0:0:
19,372,146872,1,8,0:0:0:0:
12,283,147087,6,0,B|64:314|111:313|111:313|139:363|139:363|199:345|268:355,1,280,2|0,0:0|0:0,0:0:0:0:
334,377,147944,2,0,L|344:272,1,95.9999970703126,8|0,0:0|0:0,0:0:0:0:
278,115,148372,1,2,0:0:0:0:
278,115,148479,1,0,0:0:0:0:
278,115,148587,6,0,P|252:157|280:257,1,143.999995605469,8|8,0:0|0:0,0:0:0:0:
343,281,149015,1,8,0:0:0:0:
490,175,149230,1,8,0:0:0:0:
483,127,149337,1,2,0:0:0:0:
453,89,149444,2,0,L|330:76,1,95.9999970703126,2|8,0:0|0:0,0:0:0:0:
158,101,150087,2,0,L|74:111,2,63.9999980468751,8|8|8,0:0|0:0|0:0,0:0:0:0:
258,141,150515,6,0,P|273:192|269:245,2,106.666666666667,2|2|0,0:0|0:0|0:0,0:0:0:0:
113,192,151373,2,0,L|17:181,1,95.9999970703126,8|0,0:0|0:0,0:0:0:0:
126,331,151801,1,2,0:0:0:0:
173,325,151908,1,2,0:0:0:0:
221,320,152015,6,0,L|402:300,1,143.999995605469,8|8,0:0|0:0,0:0:0:0:
441,298,152444,1,8,0:0:0:0:
400,145,152658,1,8,0:0:0:0:
353,157,152765,1,2,0:0:0:0:
320,194,152873,2,0,P|310:240|320:287,1,95.9999970703126,2|8,0:0|0:0,0:0:0:0:
128,33,153515,1,0,0:0:0:0:
128,33,153729,1,8,0:0:0:0:
185,100,153944,6,0,P|238:101|288:85,2,106.666666666667,2|2|2,0:0|0:0|0:0,0:0:0:0:
59,216,154801,2,0,P|80:284|98:354,1,143.999995605469,8|0,0:0|0:0,0:0:0:0:
171,323,155230,2,0,L|177:275,1,47.9999985351563,0|0,0:0|0:0,0:0:0:0:
230,379,155444,6,0,P|265:316|303:255,1,143.999995605469,0|8,0:0|0:0,0:0:0:0:
379,231,155872,1,8,0:0:0:0:
252,71,156087,1,8,0:0:0:0:
242,117,156194,1,2,0:0:0:0:
254,163,156301,1,2,0:0:0:0:
393,51,156515,2,0,L|488:45,1,95.9999970703126,8|0,3:2|3:0,0:0:0:0:
344,154,156944,2,0,L|439:148,1,95.9999970703126,0|0,3:0|3:0,0:0:0:0:
251,70,157373,6,0,P|123:92|111:221,1,280,2|0,0:0|0:0,0:0:0:0:
185,251,158230,2,0,P|202:206|196:159,1,95.9999970703126,8|0,0:0|0:0,0:0:0:0:
62,317,158658,1,2,0:0:0:0:
100,345,158765,1,2,0:0:0:0:
148,341,158873,6,0,P|219:334|291:338,1,143.999995605469,8|0,0:0|0:0,0:0:0:0:
364,366,159301,1,8,0:0:0:0:
465,265,159515,1,8,0:0:0:0:
418,251,159623,1,2,0:0:0:0:
369,251,159730,2,0,P|321:256|273:252,1,95.9999970703126,2|0,0:0|0:0,0:0:0:0:
81,91,160372,1,0,0:0:0:0:
81,91,160587,1,8,0:0:0:0:
135,159,160801,6,0,B|267:156|236:47|423:62,1,280,2|0,0:0|0:0,0:0:0:0:
463,87,161658,2,0,P|449:133|444:180,1,95.9999970703126,8|0,0:0|0:0,0:0:0:0:
309,193,162087,1,2,0:0:0:0:
309,193,162194,1,0,0:0:0:0:
309,193,162301,6,0,P|328:262|343:332,1,143.999995605469,8|8,0:0|0:0,0:0:0:0:
285,384,162730,1,8,0:0:0:0:
505,367,162944,1,8,0:0:0:0:
512,319,163051,1,2,0:0:0:0:
502,272,163158,2,0,P|454:264|407:257,1,95.9999970703126,2|8,0:0|0:0,0:0:0:0:
111,188,163801,2,0,P|79:184|47:183,2,63.9999980468751,8|8|8,0:0|0:0|0:0,0:0:0:0:
179,268,164230,6,0,P|188:215|202:164,2,106.666666666667,2|2|0,0:0|0:0|0:0,0:0:0:0:
50,359,165087,2,0,P|97:353|145:351,1,95.9999970703126,8|0,0:0|0:0,0:0:0:0:
288,283,165515,1,2,0:0:0:0:
294,235,165623,1,2,0:0:0:0:
279,187,165730,6,0,P|265:117|273:46,1,143.999995605469,8|8,0:0|0:0,0:0:0:0:
345,11,166158,1,8,0:0:0:0:
453,103,166373,1,8,0:0:0:0:
441,149,166480,1,2,0:0:0:0:
457,193,166587,2,0,P|468:239|470:287,1,95.9999970703126,2|8,0:0|0:0,0:0:0:0:
240,366,167229,1,0,0:0:0:0:
240,366,167444,1,8,0:0:0:0:
180,301,167658,6,0,P|102:285|62:284,2,106.666666666667,2|2|2,0:0|0:0|0:0,0:0:0:0:
280,194,168515,2,0,P|284:122|293:50,1,143.999995605469,8|0,0:0|0:0,0:0:0:0:
233,1,168944,1,2,0:0:0:0:
156,114,169158,2,0,P|165:161|172:208,1,95.9999970703126,8|2,0:0|0:0,0:0:0:0:
256,192,169480,12,0,183516,0:0:0:0:
