osu file format v14

[General]
AudioFilename: audio.mp3
AudioLeadIn: 0
PreviewTime: 30408
Countdown: 0
SampleSet: Soft
StackLeniency: 0.7
Mode: 0
LetterboxInBreaks: 0
WidescreenStoryboard: 1

[Editor]
DistanceSpacing: 1
BeatDivisor: 4
GridSize: 32
TimelineZoom: 2.6

[Metadata]
Title:The Evil Spirit
TitleUnicode:The Evil Spirit
Artist:ALEPH
ArtistUnicode:ALEPH
Creator:Yugu
Version:Hard
Source:
Tags:DreaM117er m1223961117 Firika Oiso Electronic instrumental Vol. 1 featured artist
BeatmapID:2619226
BeatmapSetID:1233230

[Difficulty]
HPDrainRate:5
CircleSize:4
OverallDifficulty:6
ApproachRate:8
SliderMultiplier:1.6
SliderTickRate:1

[Events]
//Background and Video events
0,0,"1111111111111111.jpg",0,0
//Break Periods
2,89001,94908
//Storyboard Layer 0 (Background)
//Storyboard Layer 1 (Fail)
//Storyboard Layer 2 (Pass)
//Storyboard Layer 3 (Foreground)
//Storyboard Layer 4 (Overlay)
//Storyboard Sound Samples

[TimingPoints]
1373,428.571428571429,4,2,1,40,1,0
9944,-100,4,2,1,50,0,0
16801,-100,4,2,1,60,0,0
23658,-100,4,2,1,60,0,0
27087,-100,4,2,1,70,0,0
27515,-100,4,2,1,70,0,0
28158,-100,4,2,1,70,0,0
28801,-100,4,2,1,70,0,0
29658,-100,4,2,1,70,0,0
30515,-100,4,2,2,85,0,0
31373,-100,4,2,2,85,0,0
33945,-100,4,2,2,85,0,0
34802,-100,4,2,2,85,0,0
37373,-100,4,2,2,85,0,0
38231,-100,4,2,2,85,0,0
40802,-100,4,2,2,85,0,0
41659,-100,4,2,2,85,0,0
42515,-100,4,2,2,85,0,0
44230,-100,4,2,2,85,0,0
47658,-100,4,2,2,85,0,0
50230,-100,4,2,2,85,0,0
51087,-100,4,2,2,85,0,0
54515,-100,4,2,2,85,0,0
56230,-100,4,2,2,85,0,0
57944,-100,4,2,2,90,0,0
58801,-100,4,2,2,90,0,0
59230,-100,4,2,2,90,0,0
59444,-100,4,2,2,90,0,0
59765,-100,4,2,2,90,0,0
59873,-100,4,2,2,90,0,0
60301,-100,4,2,2,90,0,0
60515,-100,4,2,2,90,0,0
60623,-100,4,2,2,90,0,0
61373,-100,4,2,2,90,0,0
62230,-100,4,2,2,90,0,0
62551,-100,4,2,2,90,0,0
62658,-100,4,2,2,90,0,0
62873,-100,4,2,2,90,0,0
63194,-100,4,2,2,90,0,0
63301,-100,4,2,2,90,0,0
63944,-100,4,2,2,90,0,0
64373,-100,4,2,2,90,0,0
64515,-100,4,2,2,90,0,0
64658,-100,4,2,2,90,0,0
64801,-100,4,2,2,90,0,0
65087,-100,4,2,2,90,0,0
65658,-100,4,2,2,90,0,0
66087,-100,4,2,2,90,0,0
66301,-100,4,2,2,90,0,0
66623,-100,4,2,2,90,0,0
66730,-100,4,2,2,90,0,0
67158,-100,4,2,2,90,0,0
67373,-100,4,2,2,90,0,0
67480,-100,4,2,2,90,0,0
68230,-100,4,2,2,90,0,0
69087,-100,4,2,2,90,0,0
69515,-100,4,2,2,90,0,0
69730,-100,4,2,2,90,0,0
70051,-100,4,2,2,90,0,0
70158,-100,4,2,2,90,0,0
70801,-100,4,2,2,90,0,0
71015,-100,4,2,2,90,0,0
71230,-100,4,2,2,90,0,0
71444,-100,4,2,2,90,0,0
71658,-100,4,2,2,90,0,0
72515,-100,4,2,2,90,0,0
72944,-100,4,2,2,90,0,0
73158,-100,4,2,2,90,0,0
73480,-100,4,2,2,90,0,0
73587,-100,4,2,2,90,0,0
74015,-100,4,2,2,90,0,0
74230,-100,4,2,2,90,0,0
74337,-100,4,2,2,90,0,0
75087,-100,4,2,2,90,0,0
75944,-100,4,2,2,90,0,0
76265,-100,4,2,2,90,0,0
76373,-100,4,2,2,90,0,0
76587,-100,4,2,2,90,0,0
76908,-100,4,2,2,90,0,0
77015,-100,4,2,2,90,0,0
77658,-100,4,2,2,90,0,0
78087,-100,4,2,2,90,0,0
78230,-100,4,2,2,90,0,0
78373,-100,4,2,2,90,0,0
78515,-100,4,2,2,90,0,0
78801,-100,4,2,2,90,0,0
79373,-100,4,2,2,90,0,0
79801,-100,4,2,2,90,0,0
80015,-100,4,2,2,90,0,0
80337,-100,4,2,2,90,0,0
80444,-100,4,2,2,90,0,0
80873,-100,4,2,2,90,0,0
81087,-100,4,2,2,90,0,0
81194,-100,4,2,2,90,0,0
81944,-100,4,2,2,90,0,0
82801,-100,4,2,2,90,0,0
83230,-100,4,2,2,90,0,0
83444,-100,4,2,2,90,0,0
83658,-100,4,2,2,90,0,0
84087,-100,4,2,2,85,0,0
84515,-100,4,2,2,80,0,0
84944,-100,4,2,2,75,0,0
85373,-100,4,2,2,70,0,0
85801,-100,4,2,2,65,0,0
86230,-100,4,2,2,60,0,0
86658,-100,4,2,2,55,0,0
87087,-100,4,2,2,50,0,0
87515,-100,4,2,2,45,0,0
87944,-100,4,2,2,40,0,0
88373,-100,4,2,2,35,0,0
88801,-100,4,2,1,30,0,0
95658,-100,4,2,1,50,0,0
102515,-100,4,2,1,60,0,0
109373,-100,4,2,1,60,0,0
112801,-100,4,2,1,70,0,0
113230,-100,4,2,1,70,0,0
113872,-100,4,2,1,70,0,0
114515,-100,4,2,1,70,0,0
115373,-100,4,2,1,70,0,0
116229,-100,4,2,2,85,0,0
116283,-100,4,2,2,10,0,0
116337,-100,4,2,2,15,0,0
116390,-100,4,2,2,20,0,0
116444,-100,4,2,2,25,0,0
116498,-100,4,2,2,30,0,0
116551,-100,4,2,2,35,0,0
116605,-100,4,2,2,40,0,0
116658,-100,4,2,2,45,0,0
116712,-100,4,2,2,50,0,0
116765,-100,4,2,2,55,0,0
116819,-100,4,2,2,60,0,0
116873,-100,4,2,2,65,0,0
116980,-100,4,2,2,85,0,0
117087,-100,4,2,2,85,0,0
117944,-100,4,2,2,85,0,0
118801,-100,4,2,2,85,0,0
118855,-100,4,2,2,10,0,0
118908,-100,4,2,2,15,0,0
118962,-100,4,2,2,20,0,0
119015,-100,4,2,2,25,0,0
119069,-100,4,2,2,30,0,0
119123,-100,4,2,2,35,0,0
119176,-100,4,2,2,40,0,0
119230,-100,4,2,2,45,0,0
119283,-100,4,2,2,50,0,0
119337,-100,4,2,2,55,0,0
119390,-100,4,2,2,60,0,0
119444,-100,4,2,2,65,0,0
119498,-100,4,2,2,70,0,0
119551,-100,4,2,2,75,0,0
119658,-100,4,2,2,85,0,0
119712,-100,4,2,2,70,0,0
119980,-100,4,2,2,85,0,0
120034,-100,4,2,2,70,0,0
120408,-100,4,2,2,85,0,0
120515,-100,4,2,2,85,0,0
120944,-100,4,2,2,85,0,0
121373,-100,4,2,2,85,0,0
121426,-100,4,2,2,70,0,0
121587,-100,4,2,2,85,0,0
121640,-100,4,2,2,70,0,0
122015,-100,4,2,2,85,0,0
123087,-100,4,2,2,85,0,0
123140,-100,4,2,2,10,0,0
123194,-100,4,2,2,15,0,0
123247,-100,4,2,2,20,0,0
123301,-100,4,2,2,25,0,0
123355,-100,4,2,2,30,0,0
123408,-100,4,2,2,35,0,0
123462,-100,4,2,2,40,0,0
123515,-100,4,2,2,45,0,0
123569,-100,4,2,2,50,0,0
123622,-100,4,2,2,55,0,0
123676,-100,4,2,2,60,0,0
123730,-100,4,2,2,65,0,0
123837,-100,4,2,2,85,0,0
123944,-100,4,2,2,85,0,0
124801,-100,4,2,2,85,0,0
125658,-100,4,2,2,85,0,0
125712,-100,4,2,2,10,0,0
125765,-100,4,2,2,15,0,0
125819,-100,4,2,2,20,0,0
125872,-100,4,2,2,25,0,0
125926,-100,4,2,2,30,0,0
125980,-100,4,2,2,35,0,0
126033,-100,4,2,2,40,0,0
126087,-100,4,2,2,45,0,0
126140,-100,4,2,2,50,0,0
126194,-100,4,2,2,55,0,0
126247,-100,4,2,2,60,0,0
126301,-100,4,2,2,65,0,0
126355,-100,4,2,2,70,0,0
126408,-100,4,2,2,75,0,0
126515,-100,4,2,2,85,0,0
126569,-100,4,2,2,70,0,0
126837,-100,4,2,2,85,0,0
126891,-100,4,2,2,70,0,0
127265,-100,4,2,2,85,0,0
127372,-100,4,2,2,85,0,0
127801,-100,4,2,2,85,0,0
129944,-100,4,2,2,85,0,0
129998,-100,4,2,2,10,0,0
130052,-100,4,2,2,15,0,0
130105,-100,4,2,2,20,0,0
130159,-100,4,2,2,25,0,0
130213,-100,4,2,2,30,0,0
130266,-100,4,2,2,35,0,0
130320,-100,4,2,2,40,0,0
130373,-100,4,2,2,45,0,0
130427,-100,4,2,2,50,0,0
130480,-100,4,2,2,55,0,0
130534,-100,4,2,2,60,0,0
130588,-100,4,2,2,65,0,0
130694,-100,4,2,2,85,0,0
130801,-100,4,2,2,85,0,0
132515,-100,4,2,2,85,0,0
132569,-100,4,2,2,10,0,0
132622,-100,4,2,2,15,0,0
132676,-100,4,2,2,20,0,0
132729,-100,4,2,2,25,0,0
132783,-100,4,2,2,30,0,0
132837,-100,4,2,2,35,0,0
132890,-100,4,2,2,40,0,0
132944,-100,4,2,2,45,0,0
132997,-100,4,2,2,50,0,0
133051,-100,4,2,2,55,0,0
133104,-100,4,2,2,60,0,0
133158,-100,4,2,2,65,0,0
133212,-100,4,2,2,70,0,0
133265,-100,4,2,2,75,0,0
133373,-100,4,2,2,85,0,0
133426,-100,4,2,2,70,0,0
133694,-100,4,2,2,85,0,0
133747,-100,4,2,2,70,0,0
134123,-100,4,2,2,85,0,0
134230,-100,4,2,2,85,0,0
134658,-100,4,2,2,85,0,0
135087,-100,4,2,2,85,0,0
135140,-100,4,2,2,70,0,0
135301,-100,4,2,2,85,0,0
135354,-100,4,2,2,70,0,0
135730,-100,4,2,2,85,0,0
136801,-100,4,2,2,85,0,0
137658,-100,4,2,2,85,0,0
139373,-100,4,2,2,85,0,0
139426,-100,4,2,2,10,0,0
139480,-100,4,2,2,15,0,0
139533,-100,4,2,2,20,0,0
139587,-100,4,2,2,25,0,0
139641,-100,4,2,2,30,0,0
139694,-100,4,2,2,35,0,0
139748,-100,4,2,2,40,0,0
139801,-100,4,2,2,45,0,0
139855,-100,4,2,2,50,0,0
139908,-100,4,2,2,55,0,0
139962,-100,4,2,2,60,0,0
140016,-100,4,2,2,65,0,0
140069,-100,4,2,2,70,0,0
140123,-100,4,2,2,75,0,0
140230,-100,4,2,2,85,0,0
140283,-100,4,2,2,70,0,0
140551,-100,4,2,2,85,0,0
140604,-100,4,2,2,70,0,0
140980,-100,4,2,2,85,0,0
141087,-100,4,2,2,85,0,0
141515,-100,4,2,2,85,0,0
141944,-100,4,2,2,85,0,0
143658,-100,4,2,2,90,0,0
144515,-100,4,2,2,90,0,0
144944,-100,4,2,2,90,0,0
145158,-100,4,2,2,90,0,0
145480,-100,4,2,2,90,0,0
145587,-100,4,2,2,90,0,0
146015,-100,4,2,2,90,0,0
146230,-100,4,2,2,90,0,0
146337,-100,4,2,2,90,0,0
147087,-100,4,2,2,90,0,0
147944,-100,4,2,2,90,0,0
148265,-100,4,2,2,90,0,0
148373,-100,4,2,2,90,0,0
148587,-100,4,2,2,90,0,0
148908,-100,4,2,2,90,0,0
149015,-100,4,2,2,90,0,0
149658,-100,4,2,2,90,0,0
150087,-100,4,2,2,90,0,0
150230,-100,4,2,2,90,0,0
150373,-100,4,2,2,90,0,0
150515,-100,4,2,2,90,0,0
150801,-100,4,2,2,90,0,0
151373,-100,4,2,2,90,0,0
151801,-100,4,2,2,90,0,0
152015,-100,4,2,2,90,0,0
152337,-100,4,2,2,90,0,0
152444,-100,4,2,2,90,0,0
152873,-100,4,2,2,90,0,0
153087,-100,4,2,2,90,0,0
153194,-100,4,2,2,90,0,0
153944,-100,4,2,2,90,0,0
154801,-100,4,2,2,90,0,0
155230,-100,4,2,2,90,0,0
155444,-100,4,2,2,90,0,0
155765,-100,4,2,2,90,0,0
155873,-100,4,2,2,90,0,0
156515,-100,4,2,2,90,0,0
156730,-100,4,2,2,90,0,0
156944,-100,4,2,2,90,0,0
157158,-100,4,2,2,90,0,0
157373,-100,4,2,2,90,0,0
158230,-100,4,2,2,90,0,0
158658,-100,4,2,2,90,0,0
158873,-100,4,2,2,90,0,0
159194,-100,4,2,2,90,0,0
159301,-100,4,2,2,90,0,0
159730,-100,4,2,2,90,0,0
159944,-100,4,2,2,90,0,0
160051,-100,4,2,2,90,0,0
160801,-100,4,2,2,90,0,0
161658,-100,4,2,2,90,0,0
161980,-100,4,2,2,90,0,0
162087,-100,4,2,2,90,0,0
162301,-100,4,2,2,90,0,0
162623,-100,4,2,2,90,0,0
162730,-100,4,2,2,90,0,0
163373,-100,4,2,2,90,0,0
163801,-100,4,2,2,90,0,0
163944,-100,4,2,2,90,0,0
164087,-100,4,2,2,90,0,0
164230,-100,4,2,2,90,0,0
164515,-100,4,2,2,90,0,0
165087,-100,4,2,2,90,0,0
165515,-100,4,2,2,90,0,0
165730,-100,4,2,2,90,0,0
166051,-100,4,2,2,90,0,0
166158,-100,4,2,2,90,0,0
166587,-100,4,2,2,90,0,0
166801,-100,4,2,2,90,0,0
166908,-100,4,2,2,90,0,0
167658,-100,4,2,2,90,0,0
168515,-100,4,2,2,90,0,0
168944,-100,4,2,2,90,0,0
169158,-100,4,2,2,90,0,0
169373,-100,4,2,2,90,0,0
169801,-100,4,2,2,85,0,0
170229,-100,4,2,2,80,0,0
170658,-100,4,2,2,75,0,0
171087,-100,4,2,2,70,0,0
171515,-100,4,2,2,65,0,0
171944,-100,4,2,2,60,0,0
172372,-100,4,2,2,55,0,0
172801,-100,4,2,2,50,0,0
173229,-100,4,2,2,45,0,0
173658,-100,4,2,2,40,0,0
174515,-100,4,2,2,35,0,0
175373,-100,4,2,2,30,0,0
177087,-100,4,2,2,25,0,0
178801,-100,4,2,2,20,0,0
181373,-100,4,2,2,15,0,0
183515,-100,4,2,2,5,0,0

[Colours]
Combo1 : 198,250,194
Combo2 : 95,95,95
Combo3 : 218,218,218
Combo4 : 238,125,182

[HitObjects]
184,117,9944,6,0,P|146:109|112:88,2,80,2|2|8,0:0|0:0|0:0,0:0:0:0:
238,56,10587,1,2,2:3:0:0:
238,56,10694,1,2,2:3:0:0:
238,56,10801,2,0,P|311:68|316:142,1,160,2|8,2:3|0:0,0:0:0:0:
259,292,11658,6,0,P|256:331|262:371,2,80,2|2|8,0:0|0:0|0:0,0:0:0:0:
325,244,12301,1,2,2:3:0:0:
325,244,12408,1,2,2:3:0:0:
325,244,12515,2,0,L|491:235,1,160,2|8,2:3|0:0,0:0:0:0:
432,83,13373,6,0,P|436:44|454:1,2,80,2|2|8,0:0|0:0|0:0,0:0:0:0:
360,118,14015,1,2,2:3:0:0:
360,118,14123,1,2,2:3:0:0:
360,118,14230,2,0,B|322:102|289:96|289:96|191:126,1,160,2|8,2:3|0:0,0:0:0:0:
78,216,15087,6,0,L|-12:203,2,80,2|2|8,0:0|0:0|0:0,0:0:0:0:
125,281,15730,1,2,2:3:0:0:
125,281,15837,1,2,2:3:0:0:
125,281,15944,2,0,P|173:269|228:356,1,160,2|6,2:3|2:3,0:0:0:0:
388,370,16801,5,2,0:0:0:0:
388,370,17015,2,0,L|384:277,1,80,2|8,0:0|0:0,0:0:0:0:
341,222,17444,1,2,2:3:0:0:
341,222,17551,1,2,2:3:0:0:
341,222,17658,2,0,B|389:180|389:180|498:205,1,160,2|8,2:3|0:0,0:0:0:0:
449,44,18515,5,2,0:0:0:0:
449,44,18730,2,0,L|359:50,1,80,2|8,0:0|0:0,0:0:0:0:
304,96,19158,1,2,2:3:0:0:
304,96,19265,1,2,2:3:0:0:
304,96,19373,2,0,B|242:96|226:66|226:66|190:37|122:40,1,160,2|8,2:3|0:0,0:0:0:0:
180,199,20230,5,2,0:0:0:0:
180,199,20444,2,0,L|272:189,1,80,2|8,0:0|0:0,0:0:0:0:
326,234,20873,1,2,2:3:0:0:
326,234,20980,1,2,2:3:0:0:
326,234,21087,2,0,P|323:281|222:326,1,160,2|8,2:3|0:0,0:0:0:0:
81,273,21944,5,2,0:0:0:0:
81,273,22158,2,0,P|74:222|66:183,1,80,2|8,0:0|0:0,0:0:0:0:
23,127,22587,1,2,2:3:0:0:
23,127,22694,1,2,2:3:0:0:
23,126,22801,2,0,P|101:114|178:89,1,160,2|6,2:3|2:3,0:0:0:0:
327,32,23658,5,2,0:0:0:0:
327,32,23873,1,2,0:0:0:0:
327,32,24087,1,8,0:0:0:0:
385,86,24301,2,0,L|438:79,2,40,2|2|2,2:3|2:3|2:3,0:0:0:0:
337,150,24730,1,2,0:0:0:0:
337,150,24837,1,2,0:0:0:0:
337,150,24944,1,8,0:0:0:0:
193,222,25373,5,2,0:0:0:0:
193,222,25587,1,2,0:0:0:0:
193,222,25801,1,8,0:0:0:0:
135,276,26015,2,0,L|82:269,2,40,2|2|2,2:3|2:3|2:3,0:0:0:0:
183,340,26444,1,2,0:0:0:0:
183,340,26551,1,2,0:0:0:0:
183,340,26658,1,8,0:0:0:0:
241,286,26873,6,0,L|294:279,2,40,2|2|8,0:0|0:0|0:0,0:0:0:0:
111,192,27515,2,0,L|58:185,2,40,2|2|8,0:0|0:0|0:0,0:0:0:0:
246,106,28158,2,0,L|299:99,2,40,2|2|8,0:0|0:0|0:0,0:0:0:0:
111,19,28801,6,0,P|120:78|126:137,2,120,8|2|8,0:0|2:3|0:0,0:0:0:0:
193,34,29658,2,0,P|262:27|296:201,1,280,4|0,1:3|0:0,0:0:0:0:
264,198,30515,6,0,B|196:222|196:222|207:324|207:324|271:334,1,240,2|0,3:2|3:0,0:0:0:0:
339,291,31373,1,8,0:0:0:0:
339,291,32015,1,2,0:0:0:0:
260,275,32230,2,0,B|192:287|192:287|126:330,2,120,2|0|2,3:2|3:0|3:2,0:0:0:0:
339,291,33087,1,8,0:0:0:0:
339,291,33944,6,0,B|371:241|371:241|354:56,1,240,2|0,3:2|3:0,0:0:0:0:
288,16,34801,1,8,0:0:0:0:
288,16,35444,1,2,0:0:0:0:
288,16,35551,1,2,0:0:0:0:
288,16,35658,2,0,B|228:33|228:33|134:21,2,120,2|2|2,3:2|3:2|3:2,0:0:0:0:
354,61,36515,1,8,0:0:0:0:
275,287,37158,1,0,0:0:0:0:
225,350,37373,6,0,B|63:338|63:338|18:266,1,240,2|0,3:2|3:0,0:0:0:0:
48,196,38230,1,8,0:0:0:0:
48,196,38873,1,2,0:0:0:0:
120,162,39087,2,0,B|137:215|137:215|124:298,2,120,2|0|2,3:2|3:0|3:2,0:0:0:0:
48,196,39944,1,8,0:0:0:0:
47,195,40801,6,0,P|48:87|157:82,1,240,2|0,3:2|3:2,0:0:0:0:
231,52,41658,2,0,P|315:59|476:78,1,240,8|2,0:0|0:0,0:0:0:0:
497,105,42408,1,2,0:0:0:0:
497,105,42515,5,8,3:3:0:0:
431,205,42837,1,0,3:0:0:0:
315,174,43158,1,0,3:0:0:0:
308,53,43480,1,0,3:0:0:0:
421,9,43801,1,8,3:3:0:0:
421,9,44015,1,8,3:3:0:0:
421,9,44230,6,0,P|407:81|391:188,1,160,2|0,3:2|0:0,0:0:0:0:
338,224,44873,1,0,3:0:0:0:
338,224,45087,2,0,P|341:303|347:383,1,160,8|0,0:0|0:0,0:0:0:0:
268,368,45730,1,2,0:0:0:0:
218,306,45944,2,0,P|150:297|92:292,2,120,2|0|2,3:2|3:0|3:2,0:0:0:0:
258,236,46801,1,8,0:0:0:0:
258,235,47658,6,0,P|244:158|182:111,1,160,2|0,3:2|0:0,0:0:0:0:
130,50,48301,1,0,3:0:0:0:
130,50,48515,2,0,P|53:63|5:125,1,160,8|0,0:0|0:0,0:0:0:0:
38,198,49158,1,2,0:0:0:0:
38,198,49265,1,2,0:0:0:0:
38,198,49373,2,0,P|62:245|77:323,2,120,2|2|2,3:2|3:2|3:2,0:0:0:0:
114,172,50230,2,0,B|192:173|220:175|220:175|411:188,1,280,8|0,0:0|0:0,0:0:0:0:
416,152,51087,6,0,P|480:189|459:260,1,160,2|0,3:2|0:0,0:0:0:0:
420,331,51730,1,0,3:0:0:0:
420,331,51944,2,0,P|351:318|248:310,1,160,8|0,0:0|0:0,0:0:0:0:
195,356,52587,1,2,0:0:0:0:
157,285,52801,2,0,P|141:242|109:166,2,120,2|0|2,3:2|3:0|3:2,0:0:0:0:
102,343,53658,1,8,0:0:0:0:
299,91,54515,6,0,P|382:98|385:169,1,160,2|0,3:2|0:0,0:0:0:0:
324,208,55158,1,0,3:0:0:0:
324,208,55373,2,0,P|247:193|145:181,1,160,8|0,0:0|0:0,0:0:0:0:
98,225,56015,1,2,0:0:0:0:
98,225,56123,1,2,0:0:0:0:
98,225,56230,5,8,3:3:0:0:
30,125,56551,1,0,3:0:0:0:
104,29,56873,1,0,3:0:0:0:
218,69,57194,1,0,3:0:0:0:
215,189,57515,1,8,3:3:0:0:
215,189,57730,1,8,3:3:0:0:
215,189,57944,6,0,P|256:228|340:91,1,280,2|0,0:0|0:0,0:0:0:0:
310,78,58801,2,0,P|349:78|389:82,1,80,8|0,0:0|0:0,0:0:0:0:
465,55,59230,1,2,0:0:0:0:
502,69,59337,1,2,0:0:0:0:
507,108,59444,6,0,P|507:167|510:227,1,120,8|8,0:0|0:0,0:0:0:0:
495,265,59873,1,8,0:0:0:0:
440,323,60087,1,8,0:0:0:0:
406,300,60194,1,2,0:0:0:0:
366,294,60301,2,0,P|326:293|287:303,1,80,2|8,0:0|0:0,0:0:0:0:
145,376,60944,1,0,0:0:0:0:
145,376,61158,1,8,0:0:0:0:
145,376,61373,6,0,B|141:309|181:262|181:262|255:229|256:132,1,280,2|0,0:0|0:0,0:0:0:0:
286,108,62230,2,0,L|176:93,1,80,8|0,0:0|0:0,0:0:0:0:
152,38,62658,1,2,0:0:0:0:
152,38,62765,1,0,0:0:0:0:
152,38,62873,6,0,L|27:56,1,120,8|8,0:0|0:0,0:0:0:0:
0,78,63301,1,8,0:0:0:0:
62,134,63515,1,8,0:0:0:0:
93,159,63623,1,2,0:0:0:0:
97,198,63730,2,0,B|87:286,1,80,2|8,0:0|0:0,0:0:0:0:
214,375,64373,2,0,L|282:370,2,53.3333333333333,8|8|8,0:0|0:0|0:0,0:0:0:0:
178,334,64801,6,0,L|190:216,2,106.666666666667,2|2|0,0:0|0:0|0:0,0:0:0:0:
275,291,65658,2,0,L|383:283,1,80,8|0,0:0|0:0,0:0:0:0:
428,253,66087,1,2,0:0:0:0:
454,223,66194,1,2,0:0:0:0:
450,183,66301,6,0,L|330:192,1,120,8|8,0:0|0:0,0:0:0:0:
290,197,66730,1,8,0:0:0:0:
215,167,66944,1,8,0:0:0:0:
195,132,67051,1,2,0:0:0:0:
193,92,67158,2,0,P|200:43|217:6,1,80,2|8,0:0|0:0,0:0:0:0:
366,55,67801,1,0,0:0:0:0:
366,55,68015,1,8,0:0:0:0:
366,55,68230,6,0,P|448:46|494:45,2,106.666666666667,2|2|2,0:0|0:0|0:0,0:0:0:0:
260,39,69087,2,0,P|218:84|235:150,1,120,8|0,0:0|0:0,0:0:0:0:
260,159,69515,1,0,0:0:0:0:
319,212,69730,6,0,P|332:285|294:338,1,120,0|8,0:0|0:0,0:0:0:0:
273,329,70158,1,8,0:0:0:0:
204,286,70373,1,8,0:0:0:0:
164,284,70480,1,2,0:0:0:0:
126,296,70587,1,2,0:0:0:0:
66,349,70801,2,0,P|29:337|-1:312,3,80,8|0|0|0,3:2|3:0|3:0|3:0,0:0:0:0:
1,232,71658,6,0,P|78:125|205:160,1,280,2|0,0:0|0:0,0:0:0:0:
240,179,72515,2,0,P|279:179|315:162,1,80,8|0,0:0|0:0,0:0:0:0:
352,90,72944,1,2,0:0:0:0:
390,78,73051,1,2,0:0:0:0:
428,88,73158,6,0,P|446:149|450:228,1,120,8|8,0:0|0:0,0:0:0:0:
431,240,73587,1,8,0:0:0:0:
381,302,73801,1,8,0:0:0:0:
341,305,73908,1,2,0:0:0:0:
304,286,74015,2,0,P|301:247|308:207,1,80,2|8,0:0|0:0,0:0:0:0:
210,334,74658,1,0,0:0:0:0:
210,334,74873,1,8,0:0:0:0:
210,334,75087,6,0,B|218:272|185:217|185:217|150:160|151:98,1,240,2|0,0:0|0:0,0:0:0:0:
139,26,75944,2,0,P|178:30|212:51,1,80,8|0,0:0|0:0,0:0:0:0:
291,37,76373,1,2,0:0:0:0:
291,37,76480,1,0,0:0:0:0:
291,37,76587,6,0,P|305:95|307:154,1,120,8|8,0:0|0:0,0:0:0:0:
288,190,77015,1,8,0:0:0:0:
257,264,77230,1,8,0:0:0:0:
257,303,77337,1,2,0:0:0:0:
278,335,77444,2,0,P|317:327|356:322,1,80,2|8,0:0|0:0,0:0:0:0:
451,192,78087,2,0,P|478:192|504:197,2,53.3333333333333,8|8|8,0:0|0:0|0:0,0:0:0:0:
417,150,78515,6,0,P|420:98|405:46,2,106.666666666667,2|2|0,0:0|0:0|0:0,0:0:0:0:
332,215,79373,2,0,L|242:199,1,80,8|0,0:0|0:0,0:0:0:0:
194,147,79801,1,2,0:0:0:0:
154,153,79908,1,2,0:0:0:0:
120,175,80015,6,0,P|79:234|66:308,1,120,8|8,0:0|0:0,0:0:0:0:
79,318,80444,1,8,0:0:0:0:
139,369,80658,1,8,0:0:0:0:
178,366,80765,1,2,0:0:0:0:
211,343,80873,2,0,L|203:231,1,80,2|8,0:0|0:0,0:0:0:0:
285,124,81515,1,0,0:0:0:0:
285,124,81730,1,8,0:0:0:0:
285,123,81944,6,0,P|291:64|293:13,2,106.666666666667,2|2|2,0:0|0:0|0:0,0:0:0:0:
179,139,82801,2,0,P|121:116|57:113,1,120,8|0,0:0|0:0,0:0:0:0:
27,128,83230,1,2,0:0:0:0:
64,198,83444,2,0,P|79:237|82:288,1,80,8|2,0:0|0:0,0:0:0:0:
256,192,83765,12,4,88801,3:2:0:0:
328,117,95658,6,0,P|366:109|400:88,2,80,2|2|8,0:0|0:0|0:0,0:0:0:0:
274,56,96301,1,2,2:3:0:0:
274,56,96408,1,2,2:3:0:0:
274,56,96515,2,0,P|215:54|112:46,1,160,2|8,2:3|0:0,0:0:0:0:
71,200,97373,6,0,P|118:197|157:198,2,80,2|2|8,0:0|0:0|0:0,0:0:0:0:
51,277,98015,1,2,2:3:0:0:
51,277,98123,1,2,2:3:0:0:
51,277,98230,2,0,P|131:278|217:268,1,160,2|8,2:3|0:0,0:0:0:0:
351,193,99087,6,0,P|347:154|329:111,2,80,2|2|8,0:0|0:0|0:0,0:0:0:0:
306,260,99730,1,2,2:3:0:0:
306,260,99837,1,2,2:3:0:0:
306,260,99944,2,0,P|320:317|414:299,1,160,2|10,2:3|2:0,0:0:0:0:
462,160,100801,6,0,P|468:121|481:83,2,80,2|2|8,0:0|0:0|0:0,0:0:0:0:
414,226,101444,1,2,2:3:0:0:
414,226,101551,1,2,2:3:0:0:
414,226,101658,2,0,L|236:204,1,160,2|6,2:3|2:3,0:0:0:0:
163,75,102515,5,2,0:0:0:0:
163,75,102729,2,0,L|167:168,1,80,2|8,0:0|0:0,0:0:0:0:
140,231,103158,1,2,2:3:0:0:
140,231,103265,1,2,2:3:0:0:
140,231,103373,2,0,B|92:189|92:189|-17:214,1,160,2|8,2:3|0:0,0:0:0:0:
56,359,104230,5,2,0:0:0:0:
56,359,104444,2,0,L|154:352,1,80,2|8,0:0|0:0,0:0:0:0:
209,321,104873,1,2,2:3:0:0:
209,321,104980,1,2,2:3:0:0:
209,321,105087,2,0,B|252:298|317:301|317:301|342:332|356:365,1,160,2|8,2:3|0:0,0:0:0:0:
471,244,105944,5,2,0:0:0:0:
471,244,106158,2,0,L|379:234,1,80,2|8,0:0|0:0,0:0:0:0:
331,181,106587,1,2,2:3:0:0:
331,181,106694,1,2,2:3:0:0:
331,181,106801,2,0,B|280:163|280:163|223:175|158:169,1,160,2|10,2:3|2:0,0:0:0:0:
54,63,107658,5,2,0:0:0:0:
54,63,107873,2,0,P|100:62|154:64,1,80,2|8,0:0|0:0,0:0:0:0:
199,17,108301,1,2,2:3:0:0:
199,17,108408,1,2,2:3:0:0:
199,17,108515,2,0,P|254:26|330:102,1,160,2|6,2:3|2:3,0:0:0:0:
313,255,109373,5,2,0:0:0:0:
313,255,109587,1,2,0:0:0:0:
313,255,109801,1,8,0:0:0:0:
262,317,110015,2,0,L|209:310,2,40,2|2|2,2:3|2:3|2:3,0:0:0:0:
319,372,110444,1,2,0:0:0:0:
319,372,110551,1,2,0:0:0:0:
319,372,110658,1,8,0:0:0:0:
436,264,111087,5,2,0:0:0:0:
436,264,111301,1,2,0:0:0:0:
436,264,111515,1,8,0:0:0:0:
378,208,111730,2,0,L|371:155,2,40,2|2|2,2:3|2:3|2:3,0:0:0:0:
313,255,112158,1,2,0:0:0:0:
313,255,112265,1,2,0:0:0:0:
313,255,112372,1,2,2:3:0:0:
234,273,112587,6,0,L|227:326,2,40,2|2|8,0:0|0:0|0:0,0:0:0:0:
96,190,113230,2,0,L|89:137,2,40,2|2|8,0:0|0:0|0:0,0:0:0:0:
150,340,113873,2,0,L|143:393,2,40,2|0|8,0:0|0:0|0:0,0:0:0:0:
207,193,114515,2,0,P|264:174|322:163,2,120,8|2|8,0:0|2:3|0:0,0:0:0:0:
146,138,115373,2,0,P|279:96|418:82,1,280,4|0,1:3|0:0,0:0:0:0:
456,93,116230,6,0,B|462:150|462:150|447:182|447:182|461:224|461:224|440:259|440:259|464:290|464:290|442:328,1,240,2|0,0:0|0:0,0:0:0:0:
464,348,116980,1,2,2:3:0:0:
464,348,117087,2,0,P|368:326|276:316,1,160,8|0,3:2|0:0,0:0:0:0:
174,228,117944,5,2,2:3:0:0:
174,228,118051,1,2,2:3:0:0:
174,228,118158,1,8,2:3:0:0:
136,299,118373,1,2,0:0:0:0:
66,262,118587,1,2,0:0:0:0:
66,262,118694,1,2,0:0:0:0:
66,262,118801,2,0,B|56:238|56:238|76:222|76:222|51:188|51:188|79:172|79:172|59:142|59:142|84:115|84:115|54:90|54:90|78:54,1,280,8|0,0:0|0:0,0:0:0:0:
94,18,119658,6,0,P|133:25|170:40,1,80,2|0,0:0|0:0,0:0:0:0:
195,72,119980,2,0,P|234:64|271:49,1,80,2|0,0:0|0:0,0:0:0:0:
298,20,120301,1,2,2:3:0:0:
298,20,120408,1,2,2:3:0:0:
298,20,120515,2,0,L|459:33,1,160,8|8,3:2|2:3,0:0:0:0:
494,104,121158,1,2,0:0:0:0:
494,104,121265,1,2,0:0:0:0:
494,104,121373,5,2,3:2:0:0:
432,155,121587,2,0,B|360:163|360:163|332:175|332:175|275:181,1,160,2|2,0:0|3:2,0:0:0:0:
206,222,122230,2,0,P|168:288|298:336,1,240,8|0,0:0|0:0,0:0:0:0:
334,285,123087,2,0,B|401:279|442:326|442:326|442:243|475:180,1,240,2|0,0:0|0:0,0:0:0:0:
483,174,123837,1,2,2:3:0:0:
483,174,123944,2,0,P|423:124|347:140,1,160,8|0,3:2|0:0,0:0:0:0:
217,45,124801,5,2,2:3:0:0:
217,45,124908,1,2,2:3:0:0:
217,45,125015,1,8,2:3:0:0:
154,95,125230,1,2,0:0:0:0:
203,157,125444,1,2,0:0:0:0:
203,157,125551,1,2,0:0:0:0:
203,157,125658,2,0,B|217:204|217:204|201:237|201:237|231:268|231:268|188:308|188:308|231:330|231:330|215:372,1,280,8|0,0:0|0:0,0:0:0:0:
175,382,126515,6,0,P|136:374|98:363,1,80,2|0,0:0|0:0,0:0:0:0:
68,335,126837,2,0,P|75:295|86:257,1,80,2|0,0:0|0:0,0:0:0:0:
112,226,127158,1,2,2:3:0:0:
112,226,127265,1,2,2:3:0:0:
112,226,127373,2,0,P|105:134|94:49,1,160,8|8,3:2|2:3,0:0:0:0:
163,23,128015,1,2,0:0:0:0:
163,23,128123,1,2,0:0:0:0:
163,23,128230,5,2,3:2:0:0:
256,97,128551,1,0,3:0:0:0:
349,23,128873,1,2,3:2:0:0:
411,73,129087,1,2,2:3:0:0:
411,73,129194,1,2,2:3:0:0:
411,73,129301,2,0,L|404:118,1,40,2|2,2:3|2:3,0:0:0:0:
374,136,129515,2,0,L|393:247,1,80,8|8,2:3|2:3,0:0:0:0:
337,277,129944,6,0,B|282:296|282:296|251:268|251:268|192:273|192:273|167:246|161:242|161:242|102:249,1,240,2|0,0:0|0:0,0:0:0:0:
84,252,130694,1,2,2:3:0:0:
84,251,130801,2,0,P|80:172|67:93,1,160,8|0,3:2|0:0,0:0:0:0:
206,13,131658,5,2,2:3:0:0:
206,13,131765,1,2,2:3:0:0:
206,13,131873,1,8,2:3:0:0:
243,83,132087,1,2,0:0:0:0:
319,61,132301,1,2,0:0:0:0:
319,61,132408,1,2,0:0:0:0:
319,61,132515,2,0,B|361:111|361:111|333:168|333:168|370:207|370:207|355:278|355:278|367:329,1,280,8|0,0:0|0:0,0:0:0:0:
395,323,133373,6,0,L|288:308,1,80,2|0,0:0|0:0,0:0:0:0:
280,292,133694,2,0,L|173:307,1,80,2|0,0:0|0:0,0:0:0:0:
166,323,134015,1,2,2:3:0:0:
166,323,134122,1,2,2:3:0:0:
166,323,134230,2,0,L|153:162,1,160,8|8,3:2|2:3,0:0:0:0:
115,93,134873,1,2,0:0:0:0:
115,93,134980,1,2,0:0:0:0:
115,93,135087,5,2,3:2:0:0:
183,51,135301,2,0,B|255:59|255:59|283:71|283:71|340:77,1,160,2|2,0:0|3:2,0:0:0:0:
405,31,135944,2,0,P|461:37|447:188,1,240,8|0,0:0|0:0,0:0:0:0:
382,207,136801,6,0,B|320:243|320:243|294:341|294:341|224:324,1,240,2|0,0:0|0:0,0:0:0:0:
189,335,137551,1,2,2:3:0:0:
188,334,137658,2,0,P|116:302|37:295,1,160,8|0,3:2|0:0,0:0:0:0:
96,147,138515,5,2,2:3:0:0:
96,147,138622,1,2,2:3:0:0:
96,147,138729,1,8,2:3:0:0:
50,80,138944,1,2,0:0:0:0:
109,26,139158,1,2,0:0:0:0:
109,26,139265,1,2,0:0:0:0:
109,26,139373,2,0,B|200:40|200:40|223:84|223:84|383:74,1,280,8|0,0:0|0:0,0:0:0:0:
396,57,140230,6,0,P|414:100|413:148,1,80,2|0,0:0|0:0,0:0:0:0:
387,161,140551,2,0,P|369:204|370:252,1,80,2|0,0:0|0:0,0:0:0:0:
394,266,140873,1,2,2:3:0:0:
394,266,140980,1,2,2:3:0:0:
394,266,141087,2,0,P|340:260|234:249,1,160,8|0,3:2|0:0,0:0:0:0:
174,196,141729,1,2,0:0:0:0:
174,196,141837,1,2,0:0:0:0:
174,196,141944,2,0,P|82:4|102:215,1,600,2|0,0:0|0:0,0:0:0:0:
101,255,143658,6,0,P|168:273|380:348,1,280,2|0,0:0|0:0,0:0:0:0:
399,365,144515,2,0,P|387:326|378:287,1,80,8|0,0:0|0:0,0:0:0:0:
415,217,144944,1,2,0:0:0:0:
419,177,145051,1,2,0:0:0:0:
401,140,145158,6,0,P|368:90|321:37,1,120,8|8,0:0|0:0,0:0:0:0:
291,27,145587,1,8,0:0:0:0:
215,53,145801,1,8,0:0:0:0:
199,89,145908,1,2,0:0:0:0:
201,128,146015,2,0,P|219:183|243:231,1,80,2|8,0:0|0:0,0:0:0:0:
312,339,146658,1,0,0:0:0:0:
312,339,146872,1,8,0:0:0:0:
312,339,147087,6,0,B|252:318|252:318|131:334|131:334|79:304|79:304|42:311,1,280,2|0,0:0|0:0,0:0:0:0:
8,326,147944,2,0,P|14:267|32:231,1,80,8|0,0:0|0:0,0:0:0:0:
83,197,148373,1,2,0:0:0:0:
83,197,148479,1,0,0:0:0:0:
83,197,148587,6,0,L|208:215,1,120,8|8,0:0|0:0,0:0:0:0:
240,221,149015,1,8,0:0:0:0:
308,263,149230,1,8,0:0:0:0:
346,252,149337,1,2,0:0:0:0:
372,222,149444,2,0,L|391:126,1,80,2|8,0:0|0:0,0:0:0:0:
271,33,150087,2,0,L|205:28,2,53.3333333333333,8|8|8,0:0|0:0|0:0,0:0:0:0:
302,76,150515,6,0,P|359:69|423:48,2,106.666666666667,2|2|0,0:0|0:0|0:0,0:0:0:0:
231,156,151373,2,0,P|221:194|220:234,1,80,8|0,0:0|0:0,0:0:0:0:
269,298,151801,1,2,0:0:0:0:
308,295,151908,1,2,0:0:0:0:
341,273,152015,6,0,P|354:218|334:140,1,120,8|8,0:0|0:0,0:0:0:0:
320,122,152444,1,8,0:0:0:0:
258,70,152658,1,8,0:0:0:0:
218,73,152765,1,2,0:0:0:0:
177,76,152873,2,0,L|97:82,1,80,2|8,0:0|0:0,0:0:0:0:
47,234,153515,1,0,0:0:0:0:
47,234,153730,1,8,0:0:0:0:
47,234,153944,6,0,P|129:239|174:246,2,106.666666666667,2|2|2,0:0|0:0|0:0,0:0:0:0:
44,127,154801,2,0,P|109:124|194:129,1,120,8|0,0:0|0:0,0:0:0:0:
202,137,155230,1,0,0:0:0:0:
270,178,155444,6,0,P|283:251|245:304,1,120,0|8,0:0|0:0,0:0:0:0:
229,310,155872,1,8,0:0:0:0:
272,377,156087,1,8,0:0:0:0:
311,369,156194,1,2,0:0:0:0:
343,346,156301,1,2,0:0:0:0:
375,273,156515,2,0,L|358:178,3,80,8|0|0|0,3:2|3:0|3:0|3:0,0:0:0:0:
424,145,157373,6,0,P|387:21|258:31,1,280,2|0,0:0|0:0,0:0:0:0:
239,67,158230,2,0,P|196:81|150:81,1,80,8|0,0:0|0:0,0:0:0:0:
90,46,158658,1,2,0:0:0:0:
76,83,158765,1,2,0:0:0:0:
76,123,158873,6,0,P|86:179|100:270,1,120,8|0,0:0|0:0,0:0:0:0:
83,279,159301,1,8,0:0:0:0:
149,323,159515,1,8,0:0:0:0:
184,303,159623,1,2,0:0:0:0:
223,295,159730,2,0,L|326:310,1,80,2|0,0:0|0:0,0:0:0:0:
437,220,160373,1,0,0:0:0:0:
437,220,160587,1,8,0:0:0:0:
437,220,160801,6,0,P|357:211|265:55,1,240,2|0,0:0|0:0,0:0:0:0:
237,15,161658,2,0,P|276:12|313:27,1,80,8|0,0:0|0:0,0:0:0:0:
393,28,162087,1,2,0:0:0:0:
393,28,162194,1,0,0:0:0:0:
393,28,162301,6,0,P|392:102|389:161,1,120,8|8,0:0|0:0,0:0:0:0:
364,178,162729,1,8,0:0:0:0:
312,239,162944,1,8,0:0:0:0:
312,278,163051,1,2,0:0:0:0:
333,310,163158,2,0,P|284:302|232:298,1,80,2|8,0:0|0:0,0:0:0:0:
100,251,163801,2,0,P|73:251|37:257,2,53.3333333333333,8|8|8,0:0|0:0|0:0,0:0:0:0:
144,221,164230,6,0,P|137:275|133:340,2,106.666666666667,2|2|0,0:0|0:0|0:0,0:0:0:0:
195,127,165087,2,0,P|188:87|179:48,1,80,8|0,0:0|0:0,0:0:0:0:
105,18,165515,1,2,0:0:0:0:
70,39,165623,1,2,0:0:0:0:
55,76,165730,6,0,P|57:138|82:223,1,120,8|8,0:0|0:0,0:0:0:0:
99,221,166158,1,8,0:0:0:0:
177,202,166373,1,8,0:0:0:0:
216,209,166480,1,2,0:0:0:0:
247,233,166587,2,0,P|255:294|254:327,1,80,2|8,0:0|0:0,0:0:0:0:
408,355,167230,1,0,0:0:0:0:
408,355,167444,1,8,0:0:0:0:
408,355,167658,6,0,P|417:298|434:229,2,106.666666666667,2|2|2,0:0|0:0|0:0,0:0:0:0:
308,317,168515,2,0,P|248:305|171:294,1,120,8|0,0:0|0:0,0:0:0:0:
150,305,168944,1,2,0:0:0:0:
95,246,169158,2,0,P|91:190|94:149,1,80,8|2,0:0|0:0,0:0:0:0:
256,192,169479,12,0,183515,0:0:0:0:
