osu file format v14

[General]
AudioFilename: audio.mp3
AudioLeadIn: 0
PreviewTime: 30408
Countdown: 0
SampleSet: Soft
StackLeniency: 0.3
Mode: 0
LetterboxInBreaks: 0
WidescreenStoryboard: 0

[Editor]
DistanceSpacing: 1
BeatDivisor: 4
GridSize: 32
TimelineZoom: 2.7

[Metadata]
Title:The Evil Spirit
TitleUnicode:The Evil Spirit
Artist:ALEPH
ArtistUnicode:ALEPH
Creator:Yugu
Version:Extra
Source:
Tags:DreaM117er m1223961117 Firika Oiso Electronic instrumental Vol. 1 featured artist
BeatmapID:2619225
BeatmapSetID:1233230

[Difficulty]
HPDrainRate:6
CircleSize:5
OverallDifficulty:8.5
ApproachRate:9.5
SliderMultiplier:2.8
SliderTickRate:1

[Events]
//Background and Video events
0,0,"1111111111111111.jpg",0,0
//Break Periods
2,89001,95104
//Storyboard Layer 0 (Background)
//Storyboard Layer 1 (Fail)
//Storyboard Layer 2 (Pass)
//Storyboard Layer 3 (Foreground)
//Storyboard Layer 4 (Overlay)
//Storyboard Sound Samples

[TimingPoints]
1373,428.571428571429,4,2,1,40,1,0
9944,-166.666666666667,4,2,1,50,0,0
16694,-166.666666666667,4,2,1,5,0,0
16801,-166.666666666667,4,2,1,60,0,0
23551,-166.666666666667,4,2,1,5,0,0
23658,-166.666666666667,4,2,1,60,0,0
27087,-133.333333333333,4,2,1,70,0,0
27408,-133.333333333333,4,2,1,5,0,0
27515,-133.333333333333,4,2,1,70,0,0
28051,-133.333333333333,4,2,1,5,0,0
28158,-133.333333333333,4,2,1,70,0,0
28694,-133.333333333333,4,2,1,5,0,0
28801,-133.333333333333,4,2,1,70,0,0
29658,-200,4,2,1,70,0,0
30408,-200,4,2,1,5,0,0
30515,-333.333333333333,4,2,2,85,0,0
31265,-333.333333333333,4,2,2,5,0,0
31373,-333.333333333333,4,2,2,85,0,0
33837,-333.333333333333,4,2,2,5,0,0
33945,-333.333333333333,4,2,2,85,0,0
34694,-333.333333333333,4,2,2,5,0,0
34802,-333.333333333333,4,2,2,85,0,0
37265,-333.333333333333,4,2,2,5,0,0
37373,-333.333333333333,4,2,2,85,0,0
38123,-333.333333333333,4,2,2,5,0,0
38231,-333.333333333333,4,2,2,85,0,0
40694,-333.333333333333,4,2,2,5,0,0
40802,-333.333333333333,4,2,2,85,0,0
41551,-333.333333333333,4,2,2,5,0,0
41659,-333.333333333333,4,2,2,85,0,0
42515,-133.333333333333,4,2,2,85,0,0
44230,-333.333333333333,4,2,2,85,0,0
47587,-333.333333333333,4,2,2,5,0,0
47658,-333.333333333333,4,2,2,85,0,0
50230,-133.333333333333,4,2,2,85,0,0
50980,-133.333333333333,4,2,2,5,0,0
51087,-333.333333333333,4,2,2,85,0,0
54444,-333.333333333333,4,2,2,5,0,0
54515,-333.333333333333,4,2,2,85,0,0
56230,-133.333333333333,4,2,2,85,0,0
57944,-200,4,2,2,90,0,0
58694,-200,4,2,2,5,0,0
58801,-133.333333333333,4,2,2,90,0,0
59123,-133.333333333333,4,2,2,5,0,0
59230,-133.333333333333,4,2,2,90,0,0
59444,-66.6666666666667,4,2,2,90,0,0
59658,-66.6666666666667,4,2,2,5,0,0
59765,-66.6666666666667,4,2,2,90,0,0
59873,-50,4,2,2,90,0,0
60301,-133.333333333333,4,2,2,90,0,0
60444,-133.333333333333,4,2,2,5,0,0
60515,-133.333333333333,4,2,2,90,0,0
60623,-200,4,2,2,90,0,0
61373,-100,4,2,2,90,0,0
62123,-100,4,2,2,5,0,0
62230,-83.3333333333333,4,2,2,90,0,0
62444,-83.3333333333333,4,2,2,5,0,0
62551,-100,4,2,2,90,0,0
62658,-100,4,2,2,90,0,0
62873,-66.6666666666667,4,2,2,90,0,0
63087,-66.6666666666667,4,2,2,5,0,0
63194,-83.3333333333333,4,2,2,90,0,0
63301,-83.3333333333333,4,2,2,90,0,0
63944,-100,4,2,2,90,0,0
64265,-100,4,2,2,5,0,0
64373,-83.3333333333333,4,2,2,90,0,0
64444,-83.3333333333333,4,2,2,5,0,0
64515,-83.3333333333333,4,2,2,90,0,0
64587,-83.3333333333333,4,2,2,5,0,0
64658,-83.3333333333333,4,2,2,90,0,0
64730,-83.3333333333333,4,2,2,5,0,0
64801,-133.333333333333,4,2,2,90,0,0
65015,-133.333333333333,4,2,2,5,0,0
65087,-133.333333333333,4,2,2,90,0,0
65587,-133.333333333333,4,2,2,5,0,0
65658,-133.333333333333,4,2,2,90,0,0
65980,-133.333333333333,4,2,2,5,0,0
66087,-133.333333333333,4,2,2,90,0,0
66301,-66.6666666666667,4,2,2,90,0,0
66515,-66.6666666666667,4,2,2,5,0,0
66623,-66.6666666666667,4,2,2,90,0,0
66730,-50,4,2,2,90,0,0
67158,-133.333333333333,4,2,2,90,0,0
67301,-133.333333333333,4,2,2,5,0,0
67373,-133.333333333333,4,2,2,90,0,0
67480,-200,4,2,2,90,0,0
68230,-100,4,2,2,90,0,0
69087,-133.333333333333,4,2,2,90,0,0
69444,-133.333333333333,4,2,2,5,0,0
69515,-83.3333333333333,4,2,2,90,0,0
69623,-83.3333333333333,4,2,2,5,0,0
69730,-66.6666666666667,4,2,2,90,0,0
69944,-66.6666666666667,4,2,2,5,0,0
70051,-83.3333333333333,4,2,2,90,0,0
70158,-83.3333333333333,4,2,2,90,0,0
70801,-50,4,2,2,90,0,0
70944,-50,4,2,2,5,0,0
71015,-55.5555555555556,4,2,2,90,0,0
71158,-55.5555555555556,4,2,2,5,0,0
71230,-62.5,4,2,2,90,0,0
71373,-62.5,4,2,2,5,0,0
71444,-71.4285714285714,4,2,2,90,0,0
71587,-71.4285714285714,4,2,2,5,0,0
71658,-200,4,2,2,90,0,0
72408,-200,4,2,2,5,0,0
72515,-133.333333333333,4,2,2,90,0,0
72837,-133.333333333333,4,2,2,5,0,0
72944,-133.333333333333,4,2,2,90,0,0
73158,-66.6666666666667,4,2,2,90,0,0
73373,-66.6666666666667,4,2,2,5,0,0
73480,-66.6666666666667,4,2,2,90,0,0
73587,-50,4,2,2,90,0,0
74015,-133.333333333333,4,2,2,90,0,0
74158,-133.333333333333,4,2,2,5,0,0
74230,-133.333333333333,4,2,2,90,0,0
74337,-200,4,2,2,90,0,0
75087,-100,4,2,2,90,0,0
75837,-100,4,2,2,5,0,0
75944,-83.3333333333333,4,2,2,90,0,0
76158,-83.3333333333333,4,2,2,5,0,0
76265,-83.3333333333333,4,2,2,90,0,0
76373,-100,4,2,2,90,0,0
76587,-66.6666666666667,4,2,2,90,0,0
76801,-66.6666666666667,4,2,2,5,0,0
76908,-66.6666666666667,4,2,2,90,0,0
77015,-83.3333333333333,4,2,2,90,0,0
77658,-100,4,2,2,90,0,0
77980,-100,4,2,2,5,0,0
78087,-83.3333333333333,4,2,2,90,0,0
78158,-83.3333333333333,4,2,2,5,0,0
78230,-83.3333333333333,4,2,2,90,0,0
78301,-83.3333333333333,4,2,2,5,0,0
78373,-83.3333333333333,4,2,2,90,0,0
78444,-83.3333333333333,4,2,2,5,0,0
78515,-133.333333333333,4,2,2,90,0,0
78730,-133.333333333333,4,2,2,5,0,0
78801,-133.333333333333,4,2,2,90,0,0
79301,-133.333333333333,4,2,2,5,0,0
79373,-133.333333333333,4,2,2,90,0,0
79694,-133.333333333333,4,2,2,5,0,0
79801,-133.333333333333,4,2,2,90,0,0
80015,-66.6666666666667,4,2,2,90,0,0
80230,-66.6666666666667,4,2,2,5,0,0
80337,-66.6666666666667,4,2,2,90,0,0
80444,-50,4,2,2,90,0,0
80873,-133.333333333333,4,2,2,90,0,0
81015,-133.333333333333,4,2,2,5,0,0
81087,-133.333333333333,4,2,2,90,0,0
81194,-200,4,2,2,90,0,0
81944,-100,4,2,2,90,0,0
82801,-133.333333333333,4,2,2,90,0,0
83158,-133.333333333333,4,2,2,5,0,0
83230,-83.3333333333333,4,2,2,90,0,0
83337,-83.3333333333333,4,2,2,5,0,0
83444,-66.6666666666667,4,2,2,90,0,0
83587,-66.6666666666667,4,2,2,5,0,0
83658,-66.6666666666667,4,2,2,90,0,0
84087,-66.6666666666667,4,2,2,85,0,0
84515,-66.6666666666667,4,2,2,80,0,0
84944,-66.6666666666667,4,2,2,75,0,0
85373,-66.6666666666667,4,2,2,70,0,0
85801,-66.6666666666667,4,2,2,65,0,0
86230,-66.6666666666667,4,2,2,60,0,0
86658,-66.6666666666667,4,2,2,55,0,0
87087,-66.6666666666667,4,2,2,50,0,0
87515,-66.6666666666667,4,2,2,45,0,0
87944,-66.6666666666667,4,2,2,40,0,0
88373,-66.6666666666667,4,2,2,35,0,0
88801,-66.6666666666667,4,2,1,30,0,0
95658,-166.666666666667,4,2,1,50,0,0
102408,-166.666666666667,4,2,1,5,0,0
102515,-166.666666666667,4,2,1,60,0,0
109265,-166.666666666667,4,2,1,5,0,0
109373,-166.666666666667,4,2,1,60,0,0
112801,-133.333333333333,4,2,1,70,0,0
113123,-133.333333333333,4,2,1,5,0,0
113230,-133.333333333333,4,2,1,70,0,0
113765,-133.333333333333,4,2,1,5,0,0
113872,-133.333333333333,4,2,1,70,0,0
114408,-133.333333333333,4,2,1,5,0,0
114515,-133.333333333333,4,2,1,70,0,0
115373,-200,4,2,1,70,0,0
116123,-200,4,2,1,5,0,0
116229,-50,4,2,2,85,0,0
116283,-50,4,2,2,10,0,0
116337,-50,4,2,2,15,0,0
116390,-50,4,2,2,20,0,0
116444,-50,4,2,2,25,0,0
116498,-50,4,2,2,30,0,0
116551,-50,4,2,2,35,0,0
116605,-50,4,2,2,40,0,0
116658,-50,4,2,2,45,0,0
116712,-50,4,2,2,50,0,0
116765,-50,4,2,2,55,0,0
116819,-50,4,2,2,60,0,0
116873,-50,4,2,2,65,0,0
116980,-50,4,2,2,85,0,0
117087,-100,4,2,2,85,0,0
117837,-100,4,2,2,5,0,0
117944,-100,4,2,2,85,0,0
118801,-200,4,2,2,85,0,0
118855,-200,4,2,2,10,0,0
118908,-200,4,2,2,15,0,0
118962,-200,4,2,2,20,0,0
119015,-200,4,2,2,25,0,0
119069,-200,4,2,2,30,0,0
119123,-200,4,2,2,35,0,0
119176,-200,4,2,2,40,0,0
119230,-200,4,2,2,45,0,0
119283,-200,4,2,2,50,0,0
119337,-200,4,2,2,55,0,0
119390,-200,4,2,2,60,0,0
119444,-200,4,2,2,65,0,0
119498,-200,4,2,2,70,0,0
119551,-200,4,2,2,75,0,0
119658,-50,4,2,2,85,0,0
119712,-50,4,2,2,70,0,0
119980,-50,4,2,2,85,0,0
120034,-50,4,2,2,70,0,0
120408,-50,4,2,2,85,0,0
120515,-100,4,2,2,85,0,0
120890,-100,4,2,2,5,0,0
120944,-100,4,2,2,85,0,0
121373,-50,4,2,2,85,0,0
121426,-50,4,2,2,70,0,0
121587,-50,4,2,2,85,0,0
121640,-50,4,2,2,70,0,0
122015,-100,4,2,2,85,0,0
122980,-100,4,2,2,5,0,0
123087,-50,4,2,2,85,0,0
123140,-50,4,2,2,10,0,0
123194,-50,4,2,2,15,0,0
123247,-50,4,2,2,20,0,0
123301,-50,4,2,2,25,0,0
123355,-50,4,2,2,30,0,0
123408,-50,4,2,2,35,0,0
123462,-50,4,2,2,40,0,0
123515,-50,4,2,2,45,0,0
123569,-50,4,2,2,50,0,0
123622,-50,4,2,2,55,0,0
123676,-50,4,2,2,60,0,0
123730,-50,4,2,2,65,0,0
123837,-50,4,2,2,85,0,0
123944,-100,4,2,2,85,0,0
124694,-100,4,2,2,5,0,0
124801,-100,4,2,2,85,0,0
125658,-200,4,2,2,85,0,0
125712,-200,4,2,2,10,0,0
125765,-200,4,2,2,15,0,0
125819,-200,4,2,2,20,0,0
125872,-200,4,2,2,25,0,0
125926,-200,4,2,2,30,0,0
125980,-200,4,2,2,35,0,0
126033,-200,4,2,2,40,0,0
126087,-200,4,2,2,45,0,0
126140,-200,4,2,2,50,0,0
126194,-200,4,2,2,55,0,0
126247,-200,4,2,2,60,0,0
126301,-200,4,2,2,65,0,0
126355,-200,4,2,2,70,0,0
126408,-200,4,2,2,75,0,0
126515,-50,4,2,2,85,0,0
126569,-50,4,2,2,70,0,0
126837,-50,4,2,2,85,0,0
126891,-50,4,2,2,70,0,0
127265,-50,4,2,2,85,0,0
127372,-100,4,2,2,85,0,0
127748,-100,4,2,2,5,0,0
127801,-100,4,2,2,85,0,0
129944,-50,4,2,2,85,0,0
129998,-50,4,2,2,10,0,0
130052,-50,4,2,2,15,0,0
130105,-50,4,2,2,20,0,0
130159,-50,4,2,2,25,0,0
130213,-50,4,2,2,30,0,0
130266,-50,4,2,2,35,0,0
130320,-50,4,2,2,40,0,0
130373,-50,4,2,2,45,0,0
130427,-50,4,2,2,50,0,0
130480,-50,4,2,2,55,0,0
130534,-50,4,2,2,60,0,0
130588,-50,4,2,2,65,0,0
130694,-50,4,2,2,85,0,0
130801,-100,4,2,2,85,0,0
132515,-200,4,2,2,85,0,0
132569,-200,4,2,2,10,0,0
132622,-200,4,2,2,15,0,0
132676,-200,4,2,2,20,0,0
132729,-200,4,2,2,25,0,0
132783,-200,4,2,2,30,0,0
132837,-200,4,2,2,35,0,0
132890,-200,4,2,2,40,0,0
132944,-200,4,2,2,45,0,0
132997,-200,4,2,2,50,0,0
133051,-200,4,2,2,55,0,0
133104,-200,4,2,2,60,0,0
133158,-200,4,2,2,65,0,0
133212,-200,4,2,2,70,0,0
133265,-200,4,2,2,75,0,0
133373,-50,4,2,2,85,0,0
133426,-50,4,2,2,70,0,0
133694,-50,4,2,2,85,0,0
133747,-50,4,2,2,70,0,0
134123,-50,4,2,2,85,0,0
134230,-100,4,2,2,85,0,0
134605,-100,4,2,2,5,0,0
134658,-100,4,2,2,85,0,0
135087,-50,4,2,2,85,0,0
135140,-50,4,2,2,70,0,0
135301,-50,4,2,2,85,0,0
135354,-50,4,2,2,70,0,0
135730,-100,4,2,2,85,0,0
136801,-50,4,2,2,85,0,0
137658,-100,4,2,2,85,0,0
139373,-200,4,2,2,85,0,0
139426,-50,4,2,2,10,0,0
139480,-50,4,2,2,15,0,0
139533,-50,4,2,2,20,0,0
139587,-50,4,2,2,25,0,0
139641,-50,4,2,2,30,0,0
139694,-50,4,2,2,35,0,0
139748,-50,4,2,2,40,0,0
139801,-50,4,2,2,45,0,0
139855,-50,4,2,2,50,0,0
139908,-50,4,2,2,55,0,0
139962,-50,4,2,2,60,0,0
140016,-50,4,2,2,65,0,0
140069,-50,4,2,2,70,0,0
140123,-50,4,2,2,75,0,0
140230,-50,4,2,2,85,0,0
140283,-50,4,2,2,70,0,0
140551,-50,4,2,2,85,0,0
140604,-50,4,2,2,70,0,0
140980,-50,4,2,2,85,0,0
141087,-100,4,2,2,85,0,0
141462,-100,4,2,2,5,0,0
141515,-100,4,2,2,85,0,0
141944,-200,4,2,2,85,0,0
143605,-200,4,2,2,5,0,0
143658,-200,4,2,2,90,0,0
144408,-200,4,2,2,5,0,0
144515,-133.333333333333,4,2,2,90,0,0
144837,-133.333333333333,4,2,2,5,0,0
144944,-133.333333333333,4,2,2,90,0,0
145158,-66.6666666666667,4,2,2,90,0,0
145373,-66.6666666666667,4,2,2,5,0,0
145480,-66.6666666666667,4,2,2,90,0,0
145587,-50,4,2,2,90,0,0
146015,-133.333333333333,4,2,2,90,0,0
146158,-133.333333333333,4,2,2,5,0,0
146230,-133.333333333333,4,2,2,90,0,0
146337,-200,4,2,2,90,0,0
147087,-100,4,2,2,90,0,0
147837,-100,4,2,2,5,0,0
147944,-83.3333333333333,4,2,2,90,0,0
148158,-83.3333333333333,4,2,2,5,0,0
148265,-83.3333333333333,4,2,2,90,0,0
148373,-100,4,2,2,90,0,0
148587,-66.6666666666667,4,2,2,90,0,0
148801,-66.6666666666667,4,2,2,5,0,0
148908,-66.6666666666667,4,2,2,90,0,0
149015,-83.3333333333333,4,2,2,90,0,0
149658,-100,4,2,2,90,0,0
149980,-100,4,2,2,5,0,0
150087,-83.3333333333333,4,2,2,90,0,0
150158,-83.3333333333333,4,2,2,5,0,0
150230,-83.3333333333333,4,2,2,90,0,0
150301,-83.3333333333333,4,2,2,5,0,0
150373,-83.3333333333333,4,2,2,90,0,0
150444,-83.3333333333333,4,2,2,5,0,0
150515,-133.333333333333,4,2,2,90,0,0
150730,-133.333333333333,4,2,2,5,0,0
150801,-133.333333333333,4,2,2,90,0,0
151301,-133.333333333333,4,2,2,5,0,0
151373,-133.333333333333,4,2,2,90,0,0
151730,-133.333333333333,4,2,2,5,0,0
151801,-133.333333333333,4,2,2,90,0,0
152015,-66.6666666666667,4,2,2,90,0,0
152230,-66.6666666666667,4,2,2,5,0,0
152337,-66.6666666666667,4,2,2,90,0,0
152444,-50,4,2,2,90,0,0
152873,-133.333333333333,4,2,2,90,0,0
153015,-133.333333333333,4,2,2,5,0,0
153087,-133.333333333333,4,2,2,90,0,0
153194,-200,4,2,2,90,0,0
153944,-100,4,2,2,90,0,0
154801,-133.333333333333,4,2,2,90,0,0
155158,-133.333333333333,4,2,2,5,0,0
155230,-83.3333333333333,4,2,2,90,0,0
155337,-83.3333333333333,4,2,2,5,0,0
155444,-66.6666666666667,4,2,2,90,0,0
155658,-66.6666666666667,4,2,2,5,0,0
155765,-66.6666666666667,4,2,2,90,0,0
155873,-83.3333333333333,4,2,2,90,0,0
156515,-50,4,2,2,90,0,0
156658,-50,4,2,2,5,0,0
156730,-55.5555555555556,4,2,2,90,0,0
156873,-55.5555555555556,4,2,2,5,0,0
156944,-62.5,4,2,2,90,0,0
157087,-62.5,4,2,2,5,0,0
157158,-71.4285714285714,4,2,2,90,0,0
157301,-71.4285714285714,4,2,2,5,0,0
157373,-200,4,2,2,90,0,0
158123,-200,4,2,2,5,0,0
158230,-133.333333333333,4,2,2,90,0,0
158551,-133.333333333333,4,2,2,5,0,0
158658,-133.333333333333,4,2,2,90,0,0
158873,-66.6666666666667,4,2,2,90,0,0
159087,-66.6666666666667,4,2,2,5,0,0
159194,-66.6666666666667,4,2,2,90,0,0
159301,-50,4,2,2,90,0,0
159730,-133.333333333333,4,2,2,90,0,0
159873,-133.333333333333,4,2,2,5,0,0
159944,-133.333333333333,4,2,2,90,0,0
160051,-200,4,2,2,90,0,0
160801,-100,4,2,2,90,0,0
161551,-100,4,2,2,5,0,0
161658,-83.3333333333333,4,2,2,90,0,0
161873,-83.3333333333333,4,2,2,5,0,0
161980,-83.3333333333333,4,2,2,90,0,0
162087,-100,4,2,2,90,0,0
162301,-66.6666666666667,4,2,2,90,0,0
162515,-66.6666666666667,4,2,2,5,0,0
162623,-66.6666666666667,4,2,2,90,0,0
162730,-83.3333333333333,4,2,2,90,0,0
163373,-100,4,2,2,90,0,0
163694,-100,4,2,2,5,0,0
163801,-83.3333333333333,4,2,2,90,0,0
163873,-83.3333333333333,4,2,2,5,0,0
163944,-83.3333333333333,4,2,2,90,0,0
164015,-83.3333333333333,4,2,2,5,0,0
164087,-83.3333333333333,4,2,2,90,0,0
164158,-83.3333333333333,4,2,2,5,0,0
164230,-133.333333333333,4,2,2,90,0,0
164444,-133.333333333333,4,2,2,5,0,0
164515,-133.333333333333,4,2,2,90,0,0
165015,-133.333333333333,4,2,2,5,0,0
165087,-133.333333333333,4,2,2,90,0,0
165408,-133.333333333333,4,2,2,5,0,0
165515,-133.333333333333,4,2,2,90,0,0
165730,-66.6666666666667,4,2,2,90,0,0
165944,-66.6666666666667,4,2,2,5,0,0
166051,-66.6666666666667,4,2,2,90,0,0
166158,-50,4,2,2,90,0,0
166587,-133.333333333333,4,2,2,90,0,0
166730,-133.333333333333,4,2,2,5,0,0
166801,-133.333333333333,4,2,2,90,0,0
166908,-200,4,2,2,90,0,0
167658,-100,4,2,2,90,0,0
168515,-133.333333333333,4,2,2,90,0,0
168873,-133.333333333333,4,2,2,5,0,0
168944,-83.3333333333333,4,2,2,90,0,0
169051,-83.3333333333333,4,2,2,5,0,0
169158,-66.6666666666667,4,2,2,90,0,0
169301,-66.6666666666667,4,2,2,5,0,0
169373,-66.6666666666667,4,2,2,90,0,0
169801,-66.6666666666667,4,2,2,85,0,0
170229,-66.6666666666667,4,2,2,80,0,0
170658,-66.6666666666667,4,2,2,75,0,0
171087,-66.6666666666667,4,2,2,70,0,0
171515,-66.6666666666667,4,2,2,65,0,0
171944,-66.6666666666667,4,2,2,60,0,0
172372,-66.6666666666667,4,2,2,55,0,0
172801,-66.6666666666667,4,2,2,50,0,0
173229,-66.6666666666667,4,2,2,45,0,0
173658,-66.6666666666667,4,2,2,40,0,0
174515,-66.6666666666667,4,2,2,35,0,0
175373,-66.6666666666667,4,2,2,30,0,0
177087,-66.6666666666667,4,2,2,25,0,0
178801,-66.6666666666667,4,2,2,20,0,0
181373,-66.6666666666667,4,2,2,15,0,0
183515,-66.6666666666667,4,2,2,5,0,0

[Colours]
Combo1 : 198,250,194
Combo2 : 95,95,95
Combo3 : 218,218,218
Combo4 : 238,125,182

[HitObjects]
101,136,3087,5,4,3:2:0:0:
195,115,3408,1,0,3:2:0:0:
216,209,3730,1,0,3:2:0:0:
122,230,4051,1,0,3:2:0:0:
159,173,4373,5,0,3:2:0:0:
159,173,4587,1,0,3:2:0:0:
411,136,4801,5,0,3:2:0:0:
317,115,5122,1,0,3:2:0:0:
296,209,5444,1,0,3:2:0:0:
390,230,5765,1,0,3:2:0:0:
353,173,6087,5,0,3:2:0:0:
353,173,6301,1,0,3:2:0:0:
300,358,6515,5,0,3:2:0:0:
212,246,6837,1,0,3:2:0:0:
212,358,7158,1,0,3:2:0:0:
300,246,7480,1,0,3:2:0:0:
256,302,7801,5,0,3:2:0:0:
256,302,8015,1,0,3:2:0:0:
212,138,8230,5,0,3:2:0:0:
300,26,8552,1,0,3:2:0:0:
300,138,8873,1,0,3:2:0:0:
212,26,9194,1,0,3:2:0:0:
256,82,9515,5,0,3:2:0:0:
256,82,9730,1,0,3:2:0:0:
130,187,9944,6,0,L|142:278,2,83.9999974365235,2|2|8,0:0|0:0|0:0,0:0:0:0:
213,242,10587,2,0,L|207:200,1,41.9999987182618,2|2,2:3|2:3,0:0:0:0:
58,220,10801,2,0,L|63:261,1,41.9999987182618,2|2,2:3|2:3,0:0:0:0:
256,305,11015,1,2,0:0:0:0:
256,305,11123,1,2,0:0:0:0:
256,305,11230,1,8,0:0:0:0:
256,382,11444,1,0,0:0:0:0:
382,187,11658,6,0,L|370:278,2,83.9999974365235,2|2|8,0:0|0:0|0:0,0:0:0:0:
299,242,12301,2,0,L|304:200,1,41.9999987182618,2|2,2:3|2:3,0:0:0:0:
454,220,12515,2,0,L|448:261,1,41.9999987182618,2|2,2:3|2:3,0:0:0:0:
256,305,12729,1,2,0:0:0:0:
256,305,12837,1,2,0:0:0:0:
256,305,12944,1,8,0:0:0:0:
256,382,13158,1,0,0:0:0:0:
256,160,13373,6,0,L|256:64,2,83.9999974365235,2|2|8,0:0|0:0|0:0,0:0:0:0:
183,98,14015,2,0,L|183:140,1,41.9999987182618,2|2,2:3|2:3,0:0:0:0:
329,140,14230,2,0,L|329:98,1,41.9999987182618,2|2,2:3|2:3,0:0:0:0:
256,0,14444,1,2,0:0:0:0:
256,0,14551,1,2,0:0:0:0:
256,0,14658,1,8,0:0:0:0:
256,76,14873,1,0,0:0:0:0:
256,224,15087,6,0,L|256:320,2,83.9999974365235,2|2|8,0:0|0:0|0:0,0:0:0:0:
183,286,15729,2,0,L|183:244,1,41.9999987182618,2|2,2:3|2:3,0:0:0:0:
329,244,15944,2,0,L|329:286,1,41.9999987182618,2|2,2:3|2:3,0:0:0:0:
256,384,16158,1,2,0:0:0:0:
256,384,16265,1,2,0:0:0:0:
256,308,16373,2,0,L|256:152,1,125.999996154785,6|0,2:3|0:0,0:0:0:0:
199,133,16801,5,2,0:0:0:0:
126,175,17015,1,2,0:0:0:0:
44,153,17230,1,8,0:0:0:0:
116,46,17444,2,0,L|170:53,1,41.9999987182618,2|2,2:3|2:3,0:0:0:0:
256,64,17658,2,0,L|310:71,1,41.9999987182618,2|2,2:3|2:3,0:0:0:0:
396,82,17873,1,2,0:0:0:0:
396,82,17980,1,2,0:0:0:0:
396,82,18087,1,8,0:0:0:0:
459,137,18301,1,0,0:0:0:0:
411,353,18515,5,2,0:0:0:0:
329,375,18730,1,2,0:0:0:0:
256,333,18944,1,8,0:0:0:0:
214,201,19158,2,0,L|221:147,1,41.9999987182618,2|2,2:3|2:3,0:0:0:0:
232,61,19372,2,0,L|239:7,1,41.9999987182618,2|2,2:3|2:3,0:0:0:0:
140,0,19587,1,2,0:0:0:0:
140,0,19694,1,2,0:0:0:0:
140,0,19801,1,8,0:0:0:0:
71,48,20015,1,0,0:0:0:0:
65,241,20230,5,2,0:0:0:0:
148,252,20444,1,2,0:0:0:0:
214,201,20658,1,8,0:0:0:0:
322,120,20873,2,0,L|380:135,1,41.9999987182618,2|2,2:3|2:3,0:0:0:0:
431,202,21087,2,0,L|489:187,1,41.9999987182618,2|2,2:3|2:3,0:0:0:0:
509,98,21301,1,2,0:0:0:0:
509,98,21408,1,2,0:0:0:0:
509,98,21515,1,8,0:0:0:0:
440,48,21730,1,0,0:0:0:0:
256,64,21944,5,2,0:0:0:0:
256,147,22158,1,2,0:0:0:0:
256,231,22373,1,8,0:0:0:0:
311,367,22587,2,0,L|350:352,1,41.9999987182618,2|2,2:3|2:3,0:0:0:0:
443,319,22801,2,0,L|482:304,1,41.9999987182618,2|2,2:3|2:3,0:0:0:0:
510,209,23015,1,2,0:0:0:0:
510,209,23123,1,2,0:0:0:0:
464,149,23230,2,0,L|316:96,1,125.999996154785,6|0,2:3|0:0,0:0:0:0:
333,32,23658,5,2,0:0:0:0:
287,154,23873,1,2,0:0:0:0:
204,54,24087,1,8,0:0:0:0:
66,227,24301,2,0,L|57:157,1,41.9999987182618,2|2,2:3|2:3,0:0:0:0:
38,18,24515,2,0,L|43:59,1,41.9999987182618,2|2,2:3|2:3,0:0:0:0:
149,209,24730,1,2,0:0:0:0:
149,209,24837,1,2,0:0:0:0:
149,209,24944,1,8,0:0:0:0:
121,36,25158,1,0,0:0:0:0:
241,276,25373,5,2,0:0:0:0:
287,154,25588,1,2,0:0:0:0:
370,254,25802,1,8,0:0:0:0:
468,99,26015,2,0,L|462:140,1,41.9999987182618,2|2,2:3|2:3,0:0:0:0:
440,308,26230,2,0,L|449:238,1,41.9999987182618,2|2,2:3|2:3,0:0:0:0:
388,105,26444,1,2,0:0:0:0:
388,105,26551,1,2,0:0:0:0:
388,105,26658,1,8,0:0:0:0:
512,231,26873,1,2,0:0:0:0:
512,231,26980,1,2,0:0:0:0:
445,266,27087,6,0,B|353:269|384:220|298:223,1,157.500006008148,8|0,0:0|0:0,0:0:0:0:
276,343,27515,1,2,0:0:0:0:
276,343,27622,1,2,0:0:0:0:
209,308,27729,2,0,B|117:305|148:354|62:351,1,157.500006008148,8|0,0:0|0:0,0:0:0:0:
226,232,28158,1,2,0:0:0:0:
226,232,28265,1,2,0:0:0:0:
193,162,28373,2,0,B|196:70|147:101|150:15,1,157.500006008148,8|0,0:0|0:0,0:0:0:0:
227,30,28801,5,8,0:0:0:0:
15,97,29123,1,2,2:3:0:0:
112,145,29337,1,8,0:0:0:0:
112,145,29444,1,8,0:0:0:0:
37,293,29658,6,0,B|6:284|6:284|24:225|80:201|103:240|152:221|179:186,1,245,4|0,1:3|0:0,0:0:0:0:
258,303,30515,6,0,B|311:307|332:356|332:356|348:333|371:325,1,146.999995513916,2|0,3:2|0:0,0:0:0:0:
512,214,31373,2,0,P|449:216|397:250,1,125.999996154785,8|2,0:0|0:0,0:0:0:0:
245,0,32230,2,0,B|250:43|282:61|282:61|296:90|290:111,1,125.999996154785,2|2,3:2|3:2,0:0:0:0:
223,365,33087,1,8,0:0:0:0:
226,357,33515,2,0,P|191:350|158:360,1,69.9999978637696,0|0,0:0|0:0,0:0:0:0:
158,360,33944,6,0,P|227:340|295:366,1,146.999995513916,2|0,3:2|0:0,0:0:0:0:
434,223,34801,2,0,B|419:216|419:216|302:227,1,125.999996154785,8|2,0:0|0:0,0:0:0:0:
257,275,35551,1,2,0:0:0:0:
144,182,35658,2,0,B|62:174,2,62.9999980773926,2|2|2,3:2|3:2|3:2,0:0:0:0:
484,132,36515,1,8,0:0:0:0:
486,123,36944,2,0,L|407:108,1,69.9999978637696,0|0,0:0|0:0,0:0:0:0:
417,109,37373,6,0,B|406:172|406:172|413:199|413:199|404:254,1,146.999995513916,2|0,3:2|0:0,0:0:0:0:
273,365,38230,2,0,B|239:361|218:334|218:334|151:320,1,125.999996154785,8|2,0:0|0:0,0:0:0:0:
34,102,39087,2,0,B|65:90|83:63|83:63|108:84|139:88,1,125.999996154785,2|2,3:2|3:2,0:0:0:0:
51,375,39944,1,8,0:0:0:0:
44,369,40373,2,0,B|45:302|49:370|48:299,1,69.9999978637696
48,299,40801,6,0,B|136:290|103:345|184:336,1,146.999995513916,2|0,3:2|0:0,0:0:0:0:
333,248,41658,2,0,P|392:266|429:316,1,125.999996154785,8|2,0:0|0:0,0:0:0:0:
404,383,42408,1,2,0:0:0:0:
494,280,42515,6,0,P|494:228|473:180,1,105.000004005432,8|0,3:3|0:0,0:0:0:0:
512,77,42837,2,0,P|459:76|411:97,1,105.000004005432,0|0,3:0|0:0,0:0:0:0:
308,60,43158,2,0,P|307:112|328:160,1,105.000004005432,0|0,3:0|0:0,0:0:0:0:
291,264,43480,2,0,P|343:264|391:243,1,105.000004005432,0|0,3:0|0:0,0:0:0:0:
381,24,43801,1,8,3:3:0:0:
381,24,44015,1,8,3:3:0:0:
199,108,44230,6,0,L|172:104,7,20.9999993591309,2|0|0|0|0|0|0|0,3:2|0:0|0:0|3:0|0:0|0:0|3:0|0:0,0:0:0:0:
35,30,45087,2,0,L|8:34,5,20.9999993591309,8|0|0|0|0|0,0:0|0:0|0:0|0:0|0:0|0:0,0:0:0:0:
199,108,45730,2,0,L|226:112,1,20.9999993591309,2|0,0:0|0:0,0:0:0:0:
83,166,45944,5,2,3:2:0:0:
85,171,46051,1,0,0:0:0:0:
86,177,46158,1,0,0:0:0:0:
87,183,46265,1,0,3:0:0:0:
87,189,46373,1,0,0:0:0:0:
86,195,46480,1,0,0:0:0:0:
85,201,46587,1,2,3:2:0:0:
83,207,46694,1,0,0:0:0:0:
18,185,46801,5,8,0:0:0:0:
13,191,47230,2,0,B|6:217|6:217|6:239|23:264,1,69.9999978637696
18,257,47658,6,0,L|9:289,7,20.9999993591309,2|0|0|0|0|0|0|0,3:2|0:0|0:0|3:0|0:0|0:0|3:0|0:0,0:0:0:0:
212,314,48515,2,0,L|221:346,5,20.9999993591309,8|0|0|0|0|0,0:0|0:0|0:0|0:0|0:0|0:0,0:0:0:0:
313,333,49158,1,2,0:0:0:0:
252,255,49265,1,2,0:0:0:0:
391,274,49373,6,0,L|400:242,2,20.9999993591309,2|0|0,3:2|0:0|0:0,0:0:0:0:
366,119,49694,2,0,L|389:142,2,20.9999993591309,2|0|0,3:2|0:0|0:0,0:0:0:0:
512,174,50015,2,0,L|479:182,1,20.9999993591309,2|0,3:2|0:0,0:0:0:0:
292,198,50230,6,0,B|284:187|260:174|260:174|232:128|279:75|279:75|352:99|327:187|327:187|287:202|271:246,1,367.500014019013,8|0,0:0|0:0,0:0:0:0:
306,349,51087,6,0,L|329:341,7,20.9999993591309,2|0|0|0|0|0|0|0,3:2|0:0|0:0|3:0|0:0|0:0|3:0|0:0,0:0:0:0:
158,276,51944,2,0,L|135:268,5,20.9999993591309,8|0|0|0|0|0,0:0|0:0|0:0|0:0|0:0|0:0,0:0:0:0:
236,372,52587,2,0,L|213:380,1,20.9999993591309,2|0,0:0|0:0,0:0:0:0:
0,377,52801,5,2,3:2:0:0:
0,370,52908,1,0,0:0:0:0:
1,363,53015,1,0,0:0:0:0:
3,357,53123,1,0,3:0:0:0:
6,351,53230,1,0,0:0:0:0:
9,346,53337,1,0,0:0:0:0:
13,341,53444,1,2,3:2:0:0:
18,337,53551,1,0,0:0:0:0:
87,353,53658,5,8,0:0:0:0:
95,350,54087,2,0,B|112:348|124:338|124:338|170:344,1,69.9999978637696
161,342,54515,6,0,L|150:317,7,20.9999993591309,2|0|0|0|0|0|0|0,3:2|0:0|0:0|3:0|0:0|0:0|3:0|0:0,0:0:0:0:
280,216,55373,2,0,L|290:191,5,20.9999993591309,8|0|0|0|0|0,0:0|0:0|0:0|0:0|0:0|0:0,0:0:0:0:
193,272,56015,1,2,0:0:0:0:
280,216,56123,1,2,0:0:0:0:
122,208,56230,6,0,P|69:202|17:198,1,105.000004005432,8|0,3:3|0:0,0:0:0:0:
186,137,56551,2,0,P|191:84|195:32,1,105.000004005432,0|0,3:0|0:0,0:0:0:0:
257,201,56873,2,0,P|309:206|361:210,1,105.000004005432,0|0,3:0|0:0,0:0:0:0:
193,272,57194,2,0,P|187:324|183:376,1,105.000004005432,0|0,3:0|0:0,0:0:0:0:
263,126,57515,1,8,3:3:0:0:
263,126,57730,1,8,3:3:0:0:
482,294,57944,6,0,P|415:365|406:268,1,245,2|0,0:0|0:0,0:0:0:0:
462,127,58801,2,0,P|399:100|391:167,1,157.500006008148,8|0,0:0|0:0,0:0:0:0:
458,199,59230,1,2,0:0:0:0:
467,217,59337,1,2,0:0:0:0:
475,124,59444,2,0,P|391:88|381:178,1,210.000008010865,8|0,0:0|0:0,0:0:0:0:
476,235,59765,5,8,0:0:0:0:
392,350,59873,2,0,P|329:329|329:263,1,140,8|0,0:0|0:0,0:0:0:0:
285,17,60087,2,0,P|222:37|222:103,1,140,8|2,0:0|0:0,0:0:0:0:
152,250,60301,2,0,P|187:254|219:241,1,70.0000026702882,2|0,0:0|0:0,0:0:0:0:
219,173,60515,1,8,0:0:0:0:
205,169,60623,2,0,L|150:156,4,35,0|0|0|0|0,0:0|0:0|0:0|0:0|0:0,0:0:0:0:
298,89,61158,1,8,0:0:0:0:
60,149,61373,6,0,B|-25:149|-39:72|-30:0|58:-24|122:11|131:71|114:110|114:110|130:34|43:5|7:60,1,490,2|0,0:0|0:0,0:0:0:0:
67,312,62230,2,0,P|141:285|140:206,1,167.999994873047,8|0,0:0|0:0,0:0:0:0:
131,192,62551,1,0,0:0:0:0:
74,239,62658,2,0,P|39:235|9:217,1,70,2|0,0:0|0:0,0:0:0:0:
198,8,62873,6,0,P|253:93|214:187,1,210.000008010865,8|0,0:0|0:0,0:0:0:0:
0,143,63194,1,8,0:0:0:0:
160,86,63301,2,0,P|127:59|113:20,1,83.9999974365235,8|0,0:0|0:0,0:0:0:0:
379,53,63515,1,8,0:0:0:0:
379,53,63623,2,0,P|346:80|332:119,2,83.9999974365235,2|2|0,0:0|0:0|0:0,0:0:0:0:
495,245,63944,2,0,P|506:149|413:125,1,210,8|0,0:0|0:0,0:0:0:0:
314,315,64373,6,0,P|319:342|319:370,1,55.9999982910157,8|0,0:0|0:0,0:0:0:0:
379,259,64515,6,0,P|405:268|429:281,1,55.9999982910157,8|0,0:0|0:0,0:0:0:0:
233,286,64658,6,0,P|211:304|187:318,1,55.9999982910157,8|0,0:0|0:0,0:0:0:0:
379,259,64801,6,0,P|362:212|314:197,1,105.000004005432,2|0,0:0|0:0,0:0:0:0:
256,144,65087,2,0,P|160:197|112:98,1,245.000009346009,2|0,0:0|0:0,0:0:0:0:
40,103,65658,2,0,P|13:40|80:32,1,157.500006008148,8|0,0:0|0:0,0:0:0:0:
111,98,66087,1,2,0:0:0:0:
109,117,66194,1,2,0:0:0:0:
36,116,66301,2,0,P|0:32|90:22,1,210.000008010865,8|0,0:0|0:0,0:0:0:0:
107,136,66622,5,8,0:0:0:0:
259,128,66730,2,0,P|238:65|172:65,1,140,8|0,0:0|0:0,0:0:0:0:
30,348,66944,2,0,P|94:362|127:305,1,140,8|2,0:0|0:0,0:0:0:0:
107,136,67158,2,0,P|72:134|39:147,1,70.0000026702882,2|0,0:0|0:0,0:0:0:0:
44,226,67372,1,8,0:0:0:0:
58,227,67480,2,0,L|114:233,4,35,0|0|0|0|0,0:0|0:0|0:0|0:0|0:0,0:0:0:0:
184,174,68015,1,8,0:0:0:0:
408,346,68230,6,0,P|436:274|360:285,2,186.666666666667,2|2|2,0:0|0:0|0:0,0:0:0:0:
137,322,69087,2,0,P|184:252|268:252,1,175.00000667572,8|0,0:0|0:0,0:0:0:0:
271,326,69515,2,0,P|231:315|203:285,1,83.9999974365235,0|0,0:0|0:0,0:0:0:0:
278,95,69730,2,0,P|350:167|338:268,1,210.000008010865,0|0,0:0|0:0,0:0:0:0:
184,174,70051,5,8,0:0:0:0:
442,258,70158,2,0,P|424:295|393:323,1,83.9999974365235,8|0,0:0|0:0,0:0:0:0:
233,360,70373,1,8,0:0:0:0:
233,360,70480,2,0,P|225:319|202:284,2,83.9999974365235,2|2|0,0:0|0:0|0:0,0:0:0:0:
64,242,70801,6,0,P|127:249|64:257,1,186.666666666667,8|0,3:2|0:0,0:0:0:0:
67,242,71015,6,0,P|124:249|67:256,1,167.999994873047,0|0,3:0|0:0,0:0:0:0:
70,243,71230,6,0,P|121:249|70:255,1,149.333333333333,0|0,3:0|0:0,0:0:0:0:
73,244,71444,6,0,P|117:249|73:255,1,130.666662679037,0|0,3:0|0:0,0:0:0:0:
54,260,71658,6,0,P|137:249|54:239,1,245,2|0,0:0|0:0,0:0:0:0:
210,176,72515,2,0,P|232:102|193:36,1,157.500006008148,8|0,0:0|0:0,0:0:0:0:
129,86,72944,1,2,0:0:0:0:
125,106,73051,1,2,0:0:0:0:
214,197,73158,2,0,P|248:101|192:16,1,210.000008010865,8|0,0:0|0:0,0:0:0:0:
121,125,73479,5,8,0:0:0:0:
198,300,73587,2,0,P|265:286|310:234,1,140,8|0,0:0|0:0,0:0:0:0:
32,63,73801,2,0,P|10:128|33:192,1,140,8|2,0:0|0:0,0:0:0:0:
58,364,74015,2,0,P|92:359|120:339,1,70.0000026702882,2|0,0:0|0:0,0:0:0:0:
116,269,74229,1,8,0:0:0:0:
102,265,74337,2,0,L|47:252,4,35,0|0|0|0|0,0:0|0:0|0:0|0:0|0:0,0:0:0:0:
237,379,74873,1,8,0:0:0:0:
461,214,75087,6,0,B|472:168|418:150|418:150|356:131|372:56|372:56|430:25|430:25|479:44|472:84|472:84|449:160|418:150|418:150|380:139|365:191,1,490,2|0,0:0|0:0,0:0:0:0:
379,329,75944,2,0,P|451:359|504:300,1,167.999994873047,8|0,0:0|0:0,0:0:0:0:
498,283,76265,1,0,0:0:0:0:
397,246,76373,2,0,L|305:258,1,70,2|0,0:0|0:0,0:0:0:0:
7,261,76587,6,0,P|39:351|132:329,1,210.000008010865,8|0,0:0|0:0,0:0:0:0:
104,138,76908,1,8,0:0:0:0:
165,265,77015,2,0,P|195:293|203:334,1,83.9999974365235,8|0,0:0|0:0,0:0:0:0:
345,384,77230,1,8,0:0:0:0:
345,384,77337,2,0,P|352:343|383:315,2,83.9999974365235,2|2|0,0:0|0:0|0:0,0:0:0:0:
404,163,77658,2,0,P|307:159|286:253,1,210,8|0,0:0|0:0,0:0:0:0:
456,219,78087,6,0,P|472:196|480:169,1,55.9999982910157,8|0,0:0|0:0,0:0:0:0:
340,250,78230,6,0,P|312:246|285:253,1,55.9999982910157,8|0,0:0|0:0,0:0:0:0:
425,335,78373,6,0,P|436:360|455:380,1,55.9999982910157,8|0,0:0|0:0,0:0:0:0:
479,145,78515,6,0,P|470:94|464:42,1,105.000004005432,2|0,0:0|0:0,0:0:0:0:
394,5,78801,2,0,P|385:127|368:248,1,245.000009346009,2|0,0:0|0:0,0:0:0:0:
306,295,79373,2,0,P|234:283|236:210,1,157.500006008148,8|0,0:0|0:0,0:0:0:0:
267,144,79801,1,2,0:0:0:0:
287,146,79908,1,2,0:0:0:0:
314,311,80015,2,0,P|218:293|221:197,1,210.000008010865,8|0,0:0|0:0,0:0:0:0:
307,148,80337,5,8,0:0:0:0:
149,44,80444,2,0,P|213:25|261:72,1,140,8|0,0:0|0:0,0:0:0:0:
4,208,80658,2,0,P|20:143|84:124,1,140,8|2,0:0|0:0,0:0:0:0:
221,197,80873,2,0,P|224:231|211:263,1,70.0000026702882,2|0,0:0|0:0,0:0:0:0:
136,294,81087,1,8,0:0:0:0:
122,291,81194,2,0,L|67:275,4,35,0|0|0|0|0,0:0|0:0|0:0|0:0|0:0,0:0:0:0:
210,366,81729,1,8,0:0:0:0:
469,261,81944,6,0,P|415:205|393:278,2,186.666666666667,2|2|2,0:0|0:0|0:0,0:0:0:0:
425,35,82801,2,0,P|346:52|343:137,1,175.00000667572,8|0,0:0|0:0,0:0:0:0:
395,176,83230,2,0,P|407:137|397:97,1,83.9999974365235,2|0,0:0|0:0,0:0:0:0:
263,269,83444,2,0,P|329:285|391:254,1,140.000005340576,8|0,0:0|0:0,0:0:0:0:
396,96,83658,1,2,0:0:0:0:
256,192,83765,12,4,88801,3:2:0:0:
137,118,95658,6,0,P|101:138|77:172,2,83.9999974365235,2|2|8,0:0|0:0|0:0,0:0:0:0:
24,105,96301,2,0,P|16:124|12:145,1,41.9999987182618,2|2,2:3|2:3,0:0:0:0:
175,210,96515,2,0,P|154:213|134:220,1,41.9999987182618,2|2,2:3|2:3,0:0:0:0:
181,300,96729,1,2,0:0:0:0:
181,300,96837,1,2,0:0:0:0:
181,300,96944,1,8,0:0:0:0:
256,300,97158,1,0,0:0:0:0:
374,118,97373,6,0,P|410:138|434:172,2,83.9999974365235,2|2|8,0:0|0:0|0:0,0:0:0:0:
488,105,98015,2,0,P|495:124|499:145,1,41.9999987182618,2|2,2:3|2:3,0:0:0:0:
337,210,98230,2,0,P|357:213|377:220,1,41.9999987182618,2|2,2:3|2:3,0:0:0:0:
331,300,98444,1,2,0:0:0:0:
331,300,98551,1,2,0:0:0:0:
331,300,98659,1,8,0:0:0:0:
256,300,98873,1,0,0:0:0:0:
190,102,99087,6,0,P|206:64|245:50,2,83.9999974365235,2|2|8,0:0|0:0|0:0,0:0:0:0:
255,161,99730,2,0,P|261:140|259:120,1,41.9999987182618,2|2,2:3|2:3,0:0:0:0:
116,34,99944,2,0,P|114:54|119:74,1,41.9999987182618,2|2,2:3|2:3,0:0:0:0:
186,228,100158,1,2,0:0:0:0:
186,228,100265,1,2,0:0:0:0:
186,228,100372,1,10,2:0:0:0:
171,302,100587,1,0,0:0:0:0:
322,102,100801,6,0,P|305:64|266:50,2,83.9999974365235,2|2|8,0:0|0:0|0:0,0:0:0:0:
256,161,101444,2,0,P|250:140|252:120,1,41.9999987182618,2|2,2:3|2:3,0:0:0:0:
396,34,101658,2,0,P|397:54|392:74,1,41.9999987182618,2|2,2:3|2:3,0:0:0:0:
326,228,101873,1,2,0:0:0:0:
326,228,101980,1,2,0:0:0:0:
357,296,102087,2,0,L|500:313,1,125.999996154785,6|0,2:3|0:0,0:0:0:0:
445,377,102515,5,2,0:0:0:0:
361,383,102729,1,2,0:0:0:0:
288,339,102944,1,8,0:0:0:0:
137,360,103158,2,0,L|144:306,1,41.9999987182618,2|2,2:3|2:3,0:0:0:0:
155,220,103373,2,0,L|162:166,1,41.9999987182618,2|0,2:3|0:0,0:0:0:0:
173,80,103587,1,2,0:0:0:0:
173,80,103694,1,2,0:0:0:0:
173,80,103801,1,8,0:0:0:0:
239,29,104015,1,0,0:0:0:0:
41,36,104229,5,2,0:0:0:0:
80,110,104444,1,2,0:0:0:0:
69,192,104658,1,8,0:0:0:0:
0,318,104873,2,0,L|54:325,1,41.9999987182618,2|0,2:3|0:0,0:0:0:0:
140,336,105087,2,0,L|194:343,1,41.9999987182618,2|2,2:3|2:3,0:0:0:0:
280,354,105301,1,2,0:0:0:0:
280,354,105408,1,2,0:0:0:0:
280,354,105515,1,8,0:0:0:0:
355,317,105729,1,0,0:0:0:0:
512,381,105944,5,2,0:0:0:0:
466,310,106158,1,2,0:0:0:0:
469,225,106373,1,8,0:0:0:0:
512,69,106587,2,0,L|454:84,1,41.9999987182618,2|2,2:3|2:3,0:0:0:0:
392,137,106801,2,0,L|334:122,1,41.9999987182618,2|2,2:3|2:3,0:0:0:0:
256,103,107015,1,2,0:0:0:0:
256,103,107122,1,2,0:0:0:0:
256,103,107229,1,10,2:0:0:0:
211,31,107444,1,0,0:0:0:0:
96,182,107658,5,2,0:0:0:0:
21,142,107873,1,2,0:0:0:0:
26,225,108087,1,8,0:0:0:0:
200,205,108301,2,0,L|190:267,1,41.9999987182618,2|2,2:3|2:3,0:0:0:0:
145,344,108515,2,0,L|203:321,1,41.9999987182618,2|2,2:3|2:3,0:0:0:0:
292,323,108730,1,2,0:0:0:0:
292,323,108837,1,2,0:0:0:0:
354,281,108944,2,0,L|514:309,1,125.999996154785,6|0,2:3|0:0,0:0:0:0:
512,224,109373,5,2,0:0:0:0:
390,172,109587,1,2,0:0:0:0:
494,92,109801,1,8,0:0:0:0:
314,211,110015,2,0,L|244:201,1,41.9999987182618,2|2,2:3|2:3,0:0:0:0:
104,183,110230,2,0,L|144:188,1,41.9999987182618,2|2,2:3|2:3,0:0:0:0:
318,126,110444,1,2,0:0:0:0:
318,126,110551,1,2,0:0:0:0:
318,126,110658,1,8,0:0:0:0:
200,251,110873,1,0,0:0:0:0:
150,61,111087,5,2,0:0:0:0:
104,183,111302,1,2,0:0:0:0:
21,83,111515,1,8,0:0:0:0:
65,338,111730,2,0,L|71:297,1,41.9999987182618,2|2,2:3|2:3,0:0:0:0:
93,129,111944,2,0,L|84:199,1,41.9999987182618,2|2,2:3|2:3,0:0:0:0:
145,332,112158,1,2,0:0:0:0:
145,332,112265,1,2,0:0:0:0:
145,332,112373,1,2,2:3:0:0:
277,187,112587,1,2,0:0:0:0:
277,187,112694,1,2,0:0:0:0:
344,222,112801,6,0,B|409:215|409:215|444:199|444:199|497:192,1,157.500006008148,8|0,0:0|0:0,0:0:0:0:
467,323,113230,1,2,0:0:0:0:
467,323,113337,1,2,0:0:0:0:
400,358,113444,2,0,B|335:351|335:351|300:335|300:335|246:328,1,157.500006008148,8|0,0:0|0:0,0:0:0:0:
277,187,113873,1,2,0:0:0:0:
277,187,113980,1,2,0:0:0:0:
210,152,114087,2,0,B|145:159|145:159|110:175|110:175|56:181,1,157.500006008148,8|0,0:0|0:0,0:0:0:0:
76,105,114515,5,8,0:0:0:0:
121,363,114837,1,2,2:3:0:0:
178,229,115051,1,8,0:0:0:0:
178,229,115158,1,8,0:0:0:0:
35,359,115373,6,0,B|12:361|-4:378|-4:378|-11:328|20:278|73:284|73:284|132:290,1,245,4|0,1:3|0:0,0:0:0:0:
210,350,116230,6,0,P|236:326|270:327,12,70,2|0|0|0|0|0|0|0|0|0|0|0|0,0:0|0:0|0:0|0:0|0:0|0:0|0:0|0:0|0:0|0:0|0:0|0:0|0:0,0:0:0:0:
243,254,116980,1,2,2:3:0:0:
243,254,117033,1,2,2:3:0:0:
243,254,117087,2,0,P|309:91|312:267,1,490,8|0,3:2|0:0,0:0:0:0:
293,179,117944,5,2,2:3:0:0:
293,179,118051,1,2,2:3:0:0:
293,179,118158,1,8,2:3:0:0:
324,371,118373,1,2,0:0:0:0:
468,203,118587,1,2,0:0:0:0:
460,279,118694,1,2,0:0:0:0:
452,355,118801,6,0,L|479:351,14,17.5,8|0|0|0|0|0|0|0|0|0|0|0|0|0|0,0:0|0:0|0:0|0:0|0:0|0:0|0:0|0:0|0:0|0:0|0:0|0:0|0:0|0:0|0:0,0:0:0:0:
374,262,119658,2,0,P|341:272|322:304,4,70,2|0|0|0|0,0:0|0:0|0:0|0:0|0:0,0:0:0:0:
247,320,119980,2,0,P|239:354|254:384,6,70,2|0|0|0|0|0|0,0:0|0:0|0:0|0:0|0:0|0:0|0:0,0:0:0:0:
161,344,120408,1,2,2:3:0:0:
161,344,120462,1,2,2:3:0:0:
161,344,120515,2,0,B|1:325|1:325|102:327,1,245,8|0,3:2|0:0,0:0:0:0:
129,268,120944,1,8,2:3:0:0:
403,104,121158,1,2,0:0:0:0:
326,111,121265,1,2,0:0:0:0:
248,118,121373,6,0,L|257:41,2,70,2|0|0,3:2|0:0|0:0,0:0:0:0:
154,65,121587,2,0,L|72:71,6,70,2|0|0|0|0|0|0,0:0|0:0|3:0|0:0|0:0|0:0|0:0,0:0:0:0:
186,170,122015,2,0,P|152:161|126:138,1,70,2|0,3:2|0:0,0:0:0:0:
62,63,122176,1,0,0:0:0:0:
62,63,122230,2,0,B|279:48|279:48|-6:60,1,490,8|0,0:0|0:0,0:0:0:0:
0,216,123087,6,0,L|82:222,12,70,2|0|0|0|0|0|0|0|0|0|0|0|0,0:0|0:0|0:0|0:0|0:0|0:0|0:0|0:0|0:0|0:0|0:0|0:0|0:0,0:0:0:0:
137,326,123837,1,2,2:3:0:0:
137,326,123890,1,2,2:3:0:0:
137,326,123944,2,0,P|203:163|206:339,1,490,8|0,3:2|0:0,0:0:0:0:
186,251,124801,5,2,2:3:0:0:
186,251,124908,1,2,2:3:0:0:
186,251,125015,1,8,2:3:0:0:
360,215,125230,1,2,0:0:0:0:
96,381,125444,1,2,0:0:0:0:
88,305,125551,1,2,0:0:0:0:
80,229,125658,6,0,L|107:233,14,17.5,8|0|0|0|0|0|0|0|0|0|0|0|0|0|0,0:0|0:0|0:0|0:0|0:0|0:0|0:0|0:0|0:0|0:0|0:0|0:0|0:0|0:0|0:0,0:0:0:0:
202,322,126515,2,0,P|235:312|254:280,4,70,2|0|0|0|0,0:0|0:0|0:0|0:0|0:0,0:0:0:0:
329,263,126837,2,0,P|337:230|319:197,6,70,2|0|0|0|0|0|0,0:0|0:0|0:0|0:0|0:0|0:0|0:0,0:0:0:0:
412,305,127265,1,2,3:0:0:0:
412,305,127319,1,2,3:0:0:0:
412,305,127373,2,0,B|447:186|360:125|360:125|382:146|386:171,1,245,8|0,3:2|0:0,0:0:0:0:
317,181,127801,1,8,2:3:0:0:
457,44,128015,1,2,0:0:0:0:
380,51,128123,1,2,0:0:0:0:
303,58,128230,6,0,P|234:62|183:108,1,140,2|2,3:2|0:0,0:0:0:0:
45,115,128551,2,0,P|13:176|28:243,1,140,0|0,3:0|0:0,0:0:0:0:
195,244,128873,2,0,P|211:213|211:178,1,70,2|0,3:2|0:0,0:0:0:0:
3,316,129087,1,2,2:3:0:0:
58,357,129194,1,2,2:3:0:0:
127,355,129301,1,2,2:3:0:0:
180,312,129408,1,2,2:3:0:0:
195,244,129515,1,8,2:3:0:0:
195,244,129730,1,8,2:3:0:0:
327,319,129944,6,0,P|362:324|388:346,12,70,2|0|0|0|0|0|0|0|0|0|0|0|0,0:0|0:0|0:0|0:0|0:0|0:0|0:0|0:0|0:0|0:0|0:0|0:0|0:0,0:0:0:0:
418,269,130694,1,2,2:3:0:0:
418,269,130748,1,2,2:3:0:0:
418,269,130801,2,0,P|442:94|351:245,1,490,8|0,3:2|0:0,0:0:0:0:
412,179,131658,5,2,2:3:0:0:
412,179,131765,1,2,2:3:0:0:
412,179,131873,1,8,2:3:0:0:
256,119,132087,1,2,0:0:0:0:
116,331,132301,1,2,0:0:0:0:
108,255,132408,1,2,0:0:0:0:
100,179,132515,6,0,L|127:183,14,17.5,8|0|0|0|0|0|0|0|0|0|0|0|0|0|0,0:0|0:0|0:0|0:0|0:0|0:0|0:0|0:0|0:0|0:0|0:0|0:0|0:0|0:0|0:0,0:0:0:0:
0,122,133373,2,0,P|33:112|52:80,4,70,2|0|0|0|0,0:0|0:0|0:0|0:0|0:0,0:0:0:0:
127,63,133694,2,0,P|135:30|117:-3,6,70,2|0|0|0|0|0|0,0:0|0:0|0:0|0:0|0:0|0:0|0:0,0:0:0:0:
217,41,134123,1,2,2:3:0:0:
217,41,134176,1,2,2:3:0:0:
217,41,134230,2,0,B|393:57|393:57|308:60,1,245,8|0,3:2|0:0,0:0:0:0:
285,118,134658,1,8,2:3:0:0:
195,302,134873,1,2,0:0:0:0:
272,309,134980,1,2,0:0:0:0:
350,316,135087,6,0,L|341:239,2,70,2|0|0,3:2|0:0|0:0,0:0:0:0:
214,157,135301,2,0,L|205:234,6,70,2|0|0|0|0|0|0,0:0|0:0|3:0|0:0|0:0|0:0|0:0,0:0:0:0:
118,295,135730,2,0,P|84:286|58:263,1,70,2|0,3:2|0:0,0:0:0:0:
34,176,135890,1,0,0:0:0:0:
34,176,135944,2,0,B|50:-20|50:-20|33:297,1,490,8|0,0:0|0:0,0:0:0:0:
121,364,136801,6,0,B|118:295,12,70,2|0|0|0|0|0|0|0|0|0|0|0|0,0:0|0:0|0:0|0:0|0:0|0:0|0:0|0:0|0:0|0:0|0:0|0:0|0:0,0:0:0:0:
206,326,137551,1,2,2:3:0:0:
206,326,137605,1,2,2:3:0:0:
206,326,137658,2,0,P|369:260|193:257,1,490,8|0,3:2|0:0,0:0:0:0:
281,276,138515,5,2,2:3:0:0:
281,276,138623,1,2,2:3:0:0:
281,276,138730,1,8,2:3:0:0:
317,115,138944,1,2,0:0:0:0:
86,203,139158,1,2,0:0:0:0:
163,196,139265,1,2,0:0:0:0:
240,189,139373,6,0,L|264:187,14,17.5,8|0|0|0|0|0|0|0|0|0|0|0|0|0|0,0:0|0:0|0:0|0:0|0:0|0:0|0:0|0:0|0:0|0:0|0:0|0:0|0:0|0:0|0:0,0:0:0:0:
171,57,140230,2,0,P|138:67|119:99,4,70,2|0|0|0|0,0:0|0:0|0:0|0:0|0:0,0:0:0:0:
44,116,140551,2,0,P|36:149|54:182,6,70,2|0|0|0|0|0|0,0:0|0:0|0:0|0:0|0:0|0:0|0:0,0:0:0:0:
134,189,140980,1,2,2:3:0:0:
134,189,141033,1,2,2:3:0:0:
134,189,141087,2,0,B|71:174|14:221|5:271|17:318|17:318|23:297|52:274,1,245,8|0,3:2|0:0,0:0:0:0:
85,340,141515,1,0,0:0:0:0:
237,267,141730,1,2,0:0:0:0:
313,272,141837,1,2,0:0:0:0:
389,277,141944,6,0,B|420:257|470:264|470:264|443:263|430:267|430:267|433:237|421:216|421:216|442:198|492:209|492:209|449:203|439:213|439:213|441:182|424:157|424:157|450:143|487:150|487:150|483:147|483:147|488:139|485:131|485:131|489:129|489:129|486:121|491:113|491:113|487:111|487:111|493:102|489:90|489:90|493:89|493:89|489:77|495:67|495:67|491:66|491:66|496:56|493:43,1,542.5,2|0,0:0|0:0,0:0:0:0:
378,0,143658,6,0,L|129:16,1,245,2|0,0:0|0:0,0:0:0:0:
0,82,144515,2,0,L|174:93,1,157.500006008148,8|0,0:0|0:0,0:0:0:0:
262,101,144944,1,2,0:0:0:0:
283,103,145051,1,2,0:0:0:0:
400,171,145158,2,0,L|155:186,1,210.000008010865,8|0,0:0|0:0,0:0:0:0:
304,104,145480,5,8,0:0:0:0:
342,262,145587,2,0,L|482:271,1,140,8|0,0:0|0:0,0:0:0:0:
103,351,145801,2,0,L|243:343,1,140,8|2,0:0|0:0,0:0:0:0:
482,271,146015,2,0,L|412:266,1,70.0000026702882,2|0,0:0|0:0,0:0:0:0:
271,259,146230,1,8,0:0:0:0:
257,258,146337,2,0,L|201:254,4,35,0|0|0|0|0,0:0|0:0|0:0|0:0|0:0,0:0:0:0:
327,337,146872,1,8,0:0:0:0:
17,90,147087,6,0,B|28:90|128:92|184:156|213:249|210:321|183:363|140:383|91:391|55:296|85:261|127:229,1,490,2|0,0:0|0:0,0:0:0:0:
231,85,147944,2,0,P|267:159|268:243,1,167.999994873047,8|0,0:0|0:0,0:0:0:0:
262,258,148265,1,0,0:0:0:0:
332,286,148373,2,0,P|351:258|361:224,1,70,2|0,0:0|0:0,0:0:0:0:
133,367,148587,6,0,P|220:310|324:307,1,210.000008010865,8|0,0:0|0:0,0:0:0:0:
483,265,148908,1,8,0:0:0:0:
350,129,149015,2,0,P|386:146|417:176,1,83.9999974365235,8|0,0:0|0:0,0:0:0:0:
400,379,149230,1,8,0:0:0:0:
400,379,149337,2,0,P|397:338|407:297,2,83.9999974365235,2|2|0,0:0|0:0|0:0,0:0:0:0:
311,186,149658,2,0,P|290:94|381:67,1,210,8|0,0:0|0:0,0:0:0:0:
497,44,150087,6,0,P|483:68|463:87,1,55.9999982910157,8|0,0:0|0:0,0:0:0:0:
365,193,150230,6,0,P|337:193|311:186,1,55.9999982910157,8|0,0:0|0:0,0:0:0:0:
170,154,150373,6,0,P|155:129|148:102,1,55.9999982910157,8|0,0:0|0:0,0:0:0:0:
18,14,150515,6,0,P|34:63|31:115,1,105.000004005432,2|0,0:0|0:0,0:0:0:0:
1,181,150801,2,0,P|106:138|141:255,1,245.000009346009,2|0,0:0|0:0,0:0:0:0:
147,306,151373,2,0,P|69:291|75:212,1,175.00000667572,8|0,0:0|0:0,0:0:0:0:
222,245,151801,1,2,0:0:0:0:
224,264,151908,1,2,0:0:0:0:
144,375,152015,2,0,P|45:355|-6:267,1,210.000008010865,8|0,0:0|0:0,0:0:0:0:
226,283,152337,5,8,0:0:0:0:
229,113,152444,2,0,P|250:50|316:50,1,140,8|0,0:0|0:0,0:0:0:0:
437,353,152658,2,0,P|371:351|351:289,1,140,8|2,0:0|0:0,0:0:0:0:
409,141,152873,2,0,P|444:139|477:152,1,70.0000026702882,2|0,0:0|0:0,0:0:0:0:
472,231,153086,1,8,0:0:0:0:
458,232,153194,2,0,L|402:238,4,35,0|0|0|0|0,0:0|0:0|0:0|0:0|0:0,0:0:0:0:
292,150,153729,1,8,0:0:0:0:
288,356,153944,6,0,P|291:265|354:199,2,186.666666666667,2|2|2,0:0|0:0|0:0,0:0:0:0:
172,234,154801,2,0,P|87:228|45:155,1,175.00000667572,8|0,0:0|0:0,0:0:0:0:
108,116,155230,2,0,P|118:156|106:195,1,83.9999974365235,0|0,0:0|0:0,0:0:0:0:
98,39,155444,2,0,P|198:45|249:133,1,210.000008010865,0|0,0:0|0:0,0:0:0:0:
163,316,155765,5,8,0:0:0:0:
311,182,155873,2,0,P|352:185|381:213,1,83.9999974365235,8|0,0:0|0:0,0:0:0:0:
417,360,156087,1,8,0:0:0:0:
417,360,156194,2,0,P|398:323|408:283,2,83.9999974365235,2|2|0,0:0|0:0|0:0,0:0:0:0:
488,178,156515,6,0,P|473:239|502:183,1,186.666666666667,8|0,3:2|0:0,0:0:0:0:
486,180,156730,6,0,P|473:235|499:184,1,167.999994873047,0|0,3:0|0:0,0:0:0:0:
486,183,156944,6,0,P|474:232|497:187,1,149.333333333333,0|0,3:0|0:0,0:0:0:0:
486,187,157158,6,0,P|475:230|496:190,1,130.666662679037,0|0,3:0|0:0,0:0:0:0:
507,173,157373,6,0,P|468:247|489:166,1,245,2|0,0:0|0:0,0:0:0:0:
502,314,158230,2,0,P|426:302|377:241,1,157.500006008148,8|0,0:0|0:0,0:0:0:0:
356,158,158658,1,2,0:0:0:0:
362,138,158765,1,2,0:0:0:0:
344,384,158873,2,0,P|291:294|284:190,1,210.000008010865,8|0,0:0|0:0,0:0:0:0:
368,118,159194,5,8,0:0:0:0:
159,276,159301,2,0,P|174:207|208:146,1,140,8|0,0:0|0:0,0:0:0:0:
454,33,159515,2,0,P|384:34|317:55,1,140,8|2,0:0|0:0,0:0:0:0:
133,128,159730,2,0,P|99:120|71:100,1,70.0000026702882,2|0,0:0|0:0,0:0:0:0:
76,31,159943,1,8,0:0:0:0:
90,27,160051,2,0,L|145:14,4,35,0|0|0|0|0,0:0|0:0|0:0|0:0|0:0,0:0:0:0:
243,79,160587,1,8,0:0:0:0:
12,154,160801,6,0,B|8:198|59:227|62:225|91:223|91:223|151:235|154:242|161:324|167:333|102:359|92:355|49:325|49:317|65:264|62:257|108:245|105:250|140:254|194:293,1,490,2|0,0:0|0:0,0:0:0:0:
299,363,161658,2,0,P|379:345|423:276,1,167.999994873047,8|0,0:0|0:0,0:0:0:0:
417,260,161980,1,0,0:0:0:0:
250,266,162087,2,0,P|281:283|316:287,1,70,2|0,0:0|0:0,0:0:0:0:
489,176,162301,2,0,P|477:74|402:4,1,210.000008010865,8|0,0:0|0:0,0:0:0:0:
304,209,162622,5,8,0:0:0:0:
374,75,162730,2,0,P|404:103|415:143,1,83.9999974365235,8|0,0:0|0:0,0:0:0:0:
205,89,162944,1,8,0:0:0:0:
205,89,163051,2,0,P|235:60|246:20,2,83.9999974365235,2|2|0,0:0|0:0|0:0,0:0:0:0:
68,253,163373,2,0,P|136:176|238:166,1,210,8|0,0:0|0:0,0:0:0:0:
73,130,163801,6,0,P|46:122|22:107,1,55.9999982910157,8|0,0:0|0:0,0:0:0:0:
149,254,163944,6,0,P|175:246|199:231,1,55.9999982910157,8|0,0:0|0:0,0:0:0:0:
131,80,164087,6,0,P|124:52|125:24,1,55.9999982910157,8|0,0:0|0:0,0:0:0:0:
226,233,164230,6,0,P|215:285|208:337,1,105.000004005432,2|0,0:0|0:0,0:0:0:0:
276,384,164515,2,0,P|292:262|323:144,1,245.000009346009,2|0,0:0|0:0,0:0:0:0:
410,172,165087,2,0,P|482:160|480:87,1,157.500006008148,8|0,0:0|0:0,0:0:0:0:
402,49,165515,1,2,0:0:0:0:
381,42,165623,1,2,0:0:0:0:
400,177,165730,2,0,P|492:161|475:69,1,210.000008010865,8|0,0:0|0:0,0:0:0:0:
360,35,166052,5,8,0:0:0:0:
241,278,166158,2,0,P|270:218|336:216,1,140,8|0,0:0|0:0,0:0:0:0:
126,364,166373,2,0,P|59:362|30:302,1,140,8|0,0:0|0:0,0:0:0:0:
158,138,166587,2,0,P|167:171|161:205,1,70.0000026702882,2|0,0:0|0:0,0:0:0:0:
87,236,166801,1,8,0:0:0:0:
73,233,166908,2,0,L|18:217,4,35,0|0|0|0|0,0:0|0:0|0:0|0:0|0:0,0:0:0:0:
107,71,167443,1,8,0:0:0:0:
318,298,167658,6,0,P|402:303|408:219,2,186.666666666667,2|2|2,0:0|0:0|0:0,0:0:0:0:
217,44,168515,2,0,P|295:39|301:117,1,175.00000667572,8|0,0:0|0:0,0:0:0:0:
239,158,168944,2,0,P|200:143|183:106,1,83.9999974365235,2|0,0:0|0:0,0:0:0:0:
381,36,169158,2,0,P|388:104|357:166,1,140.000005340576,8|0,0:0|0:0,0:0:0:0:
183,106,169373,1,2,0:0:0:0:
256,192,169480,12,0,183515,0:0:0:0:
