osu file format v14

[General]
AudioFilename: audio.mp3
AudioLeadIn: 0
PreviewTime: 55634
Countdown: 0
SampleSet: Normal
StackLeniency: 0.7
Mode: 1
LetterboxInBreaks: 0
WidescreenStoryboard: 0

[Editor]
Bookmarks: 42026,69455,83169,93455,131169,144884
DistanceSpacing: 1
BeatDivisor: 4
GridSize: 32
TimelineZoom: 0.5999998

[Metadata]
Title:Scintillations
TitleUnicode:Scintillations
Artist:ALEPH
ArtistUnicode:ALEPH
Creator:Nardoxyribonucleic
Version:Volta's Kantan
Source:osu!
Tags:Taiko Featured Artist FA Volta cut version
BeatmapID:2169170
BeatmapSetID:1037567

[Difficulty]
HPDrainRate:7.5
CircleSize:5
OverallDifficulty:3
ApproachRate:3
SliderMultiplier:1.4
SliderTickRate:1

[Events]
//Background and Video events
0,0,"bg.jpg",0,0
//Break Periods
2,1084,5872
2,7941,12301
//Storyboard Layer 0 (Background)
//Storyboard Layer 1 (Fail)
//Storyboard Layer 2 (Pass)
//Storyboard Layer 3 (Foreground)
//Storyboard Layer 4 (Overlay)
//Storyboard Sound Samples

[TimingPoints]
884,428.571428571429,4,1,0,40,1,0
14598,-100,4,1,0,50,0,0
28312,-100,4,1,0,60,0,0
55741,-95.2380952380952,4,1,0,70,0,1
81455,-95.2380952380952,4,1,0,60,0,0
81669,-95.2380952380952,4,1,0,15,0,0
83062,-100,4,1,0,60,0,0
103741,-100,4,1,0,55,0,0
114026,-100,4,1,0,45,0,0
117455,-100,4,1,0,40,0,0

[HitObjects]
180,143,884,5,4,0:0:0:0:
186,139,7312,5,0,0:0:0:0:
186,139,7741,1,0,0:0:0:0:
206,116,13741,5,0,0:0:0:0:
206,116,14169,1,0,0:0:0:0:
206,116,14598,1,0,0:0:0:0:
188,137,16312,1,0,0:0:0:0:
296,97,18026,1,0,0:0:0:0:
296,97,19741,1,0,0:0:0:0:
256,75,21026,1,0,0:0:0:0:
205,112,21455,1,0,0:0:0:0:
202,148,22741,1,8,0:0:0:0:
307,122,23169,1,0,0:0:0:0:
227,82,24455,1,8,0:0:0:0:
364,152,24884,1,0,0:0:0:0:
364,152,26169,1,8,0:0:0:0:
364,152,26598,1,0,0:0:0:0:
372,111,27455,1,8,0:0:0:0:
372,111,28312,1,4,0:0:0:0:
183,105,30026,1,0,0:0:0:0:
299,94,30348,1,0,0:0:0:0:
299,94,31741,1,0,0:0:0:0:
299,94,33455,1,0,0:0:0:0:
299,94,33776,1,0,0:0:0:0:
184,269,34312,1,8,0:0:0:0:
300,83,35169,1,0,0:0:0:0:
300,83,36884,1,0,0:0:0:0:
300,83,37205,1,0,0:0:0:0:
300,83,38598,1,0,0:0:0:0:
300,83,40312,1,0,0:0:0:0:
300,83,40634,1,0,0:0:0:0:
162,171,41169,1,8,0:0:0:0:
156,112,42026,1,4,0:0:0:0:
258,82,43741,1,0,0:0:0:0:
258,82,44062,1,0,0:0:0:0:
252,85,45455,1,0,0:0:0:0:
117,128,47169,1,0,0:0:0:0:
207,115,47491,1,0,0:0:0:0:
225,128,48026,1,8,0:0:0:0:
207,115,48884,1,0,0:0:0:0:
207,115,50598,1,0,0:0:0:0:
263,99,50919,1,0,0:0:0:0:
263,99,52312,1,0,0:0:0:0:
210,93,54026,1,0,0:0:0:0:
96,128,54669,1,8,0:0:0:0:
220,81,55741,5,4,0:0:0:0:
254,79,56598,5,8,0:0:0:0:
254,79,57455,1,0,0:0:0:0:
64,130,57884,1,0,0:0:0:0:
254,79,58312,1,8,0:0:0:0:
254,79,59169,1,0,0:0:0:0:
197,70,60026,1,8,0:0:0:0:
228,77,60455,1,0,0:0:0:0:
197,70,60884,1,8,0:0:0:0:
236,150,61741,1,8,0:0:0:0:
181,62,62598,5,4,0:0:0:0:
181,62,63455,1,8,0:0:0:0:
181,62,64312,1,0,0:0:0:0:
205,95,64741,1,0,0:0:0:0:
181,62,65169,1,8,0:0:0:0:
205,95,66026,1,8,0:0:0:0:
205,95,66455,1,0,0:0:0:0:
205,95,66884,1,8,0:0:0:0:
179,65,67741,1,8,0:0:0:0:
213,162,69455,1,4,0:0:0:0:
175,139,70312,1,8,0:0:0:0:
175,139,71169,1,0,0:0:0:0:
220,94,71598,1,0,0:0:0:0:
220,94,72026,1,8,0:0:0:0:
220,94,72884,5,0,0:0:0:0:
245,156,73741,5,8,0:0:0:0:
220,94,74598,1,0,0:0:0:0:
128,128,75026,1,0,0:0:0:0:
177,91,75455,1,8,0:0:0:0:
207,95,76312,1,4,0:0:0:0:
207,95,77169,1,8,0:0:0:0:
213,69,78026,1,0,0:0:0:0:
213,69,78455,1,0,0:0:0:0:
213,69,78884,1,8,0:0:0:0:
224,32,79741,1,8,0:0:0:0:
224,32,80169,1,0,0:0:0:0:
213,69,80598,1,8,0:0:0:0:
182,87,81026,1,0,0:0:0:0:
182,87,81455,1,8,0:0:0:0:
223,113,83169,1,4,0:0:0:0:
231,72,84026,1,8,0:0:0:0:
138,126,84669,1,0,0:0:0:0:
227,88,85312,1,8,0:0:0:0:
284,60,85741,1,0,0:0:0:0:
153,118,87241,1,0,0:0:0:0:
251,61,87884,1,8,0:0:0:0:
251,61,88312,1,0,0:0:0:0:
218,84,89169,1,8,0:0:0:0:
286,42,89812,1,0,0:0:0:0:
286,42,90455,1,8,0:0:0:0:
286,42,90884,1,0,0:0:0:0:
272,74,91741,1,8,0:0:0:0:
272,74,92169,1,8,0:0:0:0:
274,70,93455,1,4,0:0:0:0:
265,53,94312,1,8,0:0:0:0:
184,69,94955,1,0,0:0:0:0:
227,88,95598,1,8,0:0:0:0:
284,60,96026,1,0,0:0:0:0:
208,113,97526,1,0,0:0:0:0:
251,61,98169,1,8,0:0:0:0:
251,61,98598,1,0,0:0:0:0:
289,52,99455,1,8,0:0:0:0:
286,42,100098,1,0,0:0:0:0:
286,42,100741,1,8,0:0:0:0:
286,42,101169,1,0,0:0:0:0:
165,127,102026,1,8,0:0:0:0:
320,64,102669,1,8,0:0:0:0:
96,128,103741,1,4,0:0:0:0:
128,160,105026,1,8,0:0:0:0:
96,160,105884,1,8,0:0:0:0:
224,128,106741,1,8,0:0:0:0:
224,128,108455,1,8,0:0:0:0:
192,64,109312,1,8,0:0:0:0:
32,128,110169,1,8,0:0:0:0:
160,128,111884,1,8,0:0:0:0:
224,64,112741,1,8,0:0:0:0:
32,128,113598,1,8,0:0:0:0:
32,128,115312,1,8,0:0:0:0:
256,0,116169,1,8,0:0:0:0:
300,131,116598,5,12,0:0:0:0:
300,131,117455,1,4,0:0:0:0:
192,160,119169,1,8,0:0:0:0:
192,128,120026,1,8,0:0:0:0:
160,128,120884,1,0,0:0:0:0:
160,128,122598,5,8,0:0:0:0:
160,128,123455,1,0,0:0:0:0:
270,114,124312,5,4,0:0:0:0:
160,128,126026,1,8,0:0:0:0:
96,96,126884,1,0,0:0:0:0:
160,128,127741,1,8,0:0:0:0:
160,96,129455,5,0,0:0:0:0:
238,81,130312,5,12,0:0:0:0:
238,81,131169,1,4,0:0:0:0:
192,96,132884,1,8,0:0:0:0:
236,88,133741,1,12,0:0:0:0:
192,96,134598,1,0,0:0:0:0:
192,96,136312,1,0,0:0:0:0:
205,103,137169,1,12,0:0:0:0:
192,96,138026,1,4,0:0:0:0:
192,96,139741,1,8,0:0:0:0:
221,88,140598,1,12,0:0:0:0:
192,96,141455,1,8,0:0:0:0:
192,96,143169,1,0,0:0:0:0:
221,94,144026,1,12,0:0:0:0:
221,94,144884,1,4,0:0:0:0:
