osu file format v14

[General]
AudioFilename: audio.mp3
AudioLeadIn: 0
PreviewTime: 67981
Countdown: 0
SampleSet: Soft
StackLeniency: 0.7
Mode: 0
LetterboxInBreaks: 0
WidescreenStoryboard: 0

[Editor]
Bookmarks: 23138,38138,51731,68138,75638,83138,96263
DistanceSpacing: 1
BeatDivisor: 3
GridSize: 8
TimelineZoom: 1

[Metadata]
Title:RE-BYE
TitleUnicode:RE-BYE
Artist:AKMU
ArtistUnicode:악동뮤지션
Creator:Firetruck
Version:Easy
Source:
Tags:YG Entertainment Short Cut Version K-pop Kpop Akdong Musician Suhyun Chanhyuk 이찬혁 이수현 1940 Xiaolin -Vanilla
BeatmapID:1420818
BeatmapSetID:672084

[Difficulty]
HPDrainRate:3
CircleSize:3
OverallDifficulty:2
ApproachRate:3
SliderMultiplier:1
SliderTickRate:1

[Events]
//Background and Video events
0,0,"dfdfd.png",0,0
//Break Periods
//Storyboard Layer 0 (Background)
//Storyboard Layer 1 (Fail)
//Storyboard Layer 2 (Pass)
//Storyboard Layer 3 (Foreground)
//Storyboard Sound Samples

[TimingPoints]
15638,468.75,4,2,0,5,1,0
68138,-100,4,2,0,5,0,1
75169,-100,4,2,0,5,0,0
75638,-100,4,2,0,5,0,1
82669,-100,4,2,0,5,0,0
83138,-100,4,2,0,5,0,1
90638,-100,4,2,0,5,0,0

[Colours]
Combo1 : 241,65,126
Combo2 : 250,27,27
Combo3 : 168,28,28
Combo4 : 32,223,108
Combo5 : 33,116,218

[HitObjects]
256,192,15638,12,0,18919,0:0:0:0:
256,192,19388,12,0,21263,0:0:0:0:
43,166,23138,6,0,L|249:149,1,200
322,89,24544,1,0,0:0:0:0:
375,173,25013,2,0,P|387:228|374:284,1,100
296,326,25950,2,0,P|284:271|297:215,1,100
375,173,26888,6,0,L|375:69,1,100
276,58,27825,1,0,0:0:0:0:
148,211,28763,1,0,0:0:0:0:
148,211,30638,6,0,B|242:178|239:247|353:210,1,200
442,230,32044,1,0,0:0:0:0:
406,136,32513,2,0,P|355:123|308:129,1,100
218,173,33450,2,0,P|167:186|120:180,1,100
39,121,34388,5,0,0:0:0:0:
39,121,38138,6,0,L|148:112,1,100
230,151,39075,2,0,L|339:142,1,100
362,48,40013,2,0,P|432:136|400:215,1,200
326,271,41419,1,0,0:0:0:0:
241,218,41888,6,0,L|129:211,2,100
323,276,43294,1,0,0:0:0:0:
372,189,43763,1,0,0:0:0:0:
372,189,45638,6,0,P|386:138|372:80,1,100
289,139,46575,2,0,P|275:190|289:248,1,100
334,321,47513,1,0,0:0:0:0:
334,321,49388,6,0,B|239:284|241:353|135:313,1,200
52,264,50794,2,0,L|55:151,1,100
125,93,51731,2,0,B|174:83|174:83|241:88,2,100
58,167,53138,6,0,B|81:225|59:302|59:302|87:288|131:304,1,200
210,342,54544,1,0,0:0:0:0:
285,276,55013,2,0,B|297:242|283:214|283:214|360:236|418:213,1,200
477,133,56419,1,0,0:0:0:0:
394,75,56888,6,0,P|346:63|276:66,1,100
216,123,57825,2,0,P|168:135|98:132,1,100
58,54,58763,2,0,L|64:283,1,200
30,348,60169,1,0,0:0:0:0:
129,343,60638,6,0,B|202:334|202:334|260:343|260:343|335:335,1,200
411,281,62044,1,0,0:0:0:0:
388,183,62513,2,0,B|315:192|315:192|257:183|257:183|182:191,1,200
101,141,63919,1,0,0:0:0:0:
70,236,64388,6,0,L|67:352,1,100
167,344,65325,2,0,P|241:315|327:327,1,166.666666666667
325,326,68138,6,0,L|328:200,1,100
386,145,69075,2,0,L|389:19,1,100
297,86,70013,2,0,P|254:111|110:74,1,200
29,27,71419,1,0,0:0:0:0:
25,126,71888,6,0,B|19:201|19:201|39:246|39:246|26:328,1,200
111,373,73294,1,0,0:0:0:0:
190,312,73763,2,0,P|239:304|312:311,1,100
381,345,74700,2,0,P|430:353|503:346,1,100
493,251,75638,6,0,L|497:136,1,100
408,103,76575,2,0,L|404:218,1,100
493,251,77513,2,0,P|399:241|307:294,1,200
249,370,78919,1,0,0:0:0:0:
152,345,79388,6,0,B|143:284|143:284|171:145,1,200
123,59,80794,1,0,0:0:0:0:
217,25,81263,2,0,L|334:22,1,100
399,79,82200,2,0,L|516:76,1,100
484,175,83138,6,0,B|484:216|473:234|473:234|472:250|482:270|482:270|471:287|472:316|472:316|460:342|460:342|443:327|407:314|407:314|382:321|362:337|362:337|340:324|340:324|322:323|322:323|264:306,1,366.666666666667
190,282,85325,2,0,P|178:222|206:140,1,133.333333333333
244,65,86419,1,0,0:0:0:0:
329,116,86888,6,0,B|343:208|343:208|321:317,2,200
130,89,89700,2,0,P|129:167|61:231,1,166.666666666667
256,192,90638,12,0,93919,0:0:0:0:
256,192,94388,12,0,96263,0:0:0:0:
