osu file format v14

[General]
AudioFilename: audio.mp3
AudioLeadIn: 0
PreviewTime: -1
Countdown: 1
SampleSet: Soft
StackLeniency: 0.7
Mode: 3
LetterboxInBreaks: 0
SpecialStyle: 0
WidescreenStoryboard: 1

[Editor]
DistanceSpacing: 1
BeatDivisor: 4
GridSize: 8
TimelineZoom: 1.4

[Metadata]
Title:HOW PEOPLE MOVE
TitleUnicode:‘사람들이 움직이는 게
Artist:AKMU
ArtistUnicode:AKMU
Creator:minibethangel
Version:NOVICE
Source:
Tags:akmu yg kpop
BeatmapID:973929
BeatmapSetID:454247

[Difficulty]
HPDrainRate:5
CircleSize:4
OverallDifficulty:5
ApproachRate:5
SliderMultiplier:1.4
SliderTickRate:1

[Events]
//Background and Video events
0,0,"maxresdefault.jpg",0,0
//Break Periods
//Storyboard Layer 0 (Background)
//Storyboard Layer 1 (Fail)
//Storyboard Layer 2 (Pass)
//Storyboard Layer 3 (Foreground)
//Storyboard Sound Samples

[TimingPoints]
36935.3606557377,983.606557377049,4,2,0,100,1,0

[HitObjects]
64,192,32509,5,0,0:0:0:0:
448,192,34476,1,0,0:0:0:0:
192,192,36443,128,0,37673:0:0:0:0:
320,192,36443,128,0,37673:0:0:0:0:
192,192,37918,1,0,0:0:0:0:
320,192,37918,1,0,0:0:0:0:
192,192,38410,1,0,0:0:0:0:
320,192,38410,1,0,0:0:0:0:
448,192,38656,1,0,0:0:0:0:
64,192,38656,1,0,0:0:0:0:
192,192,38902,1,0,0:0:0:0:
320,192,38902,1,0,0:0:0:0:
64,192,39148,1,0,0:0:0:0:
448,192,39148,1,0,0:0:0:0:
192,192,39394,1,0,0:0:0:0:
64,192,39886,1,0,0:0:0:0:
192,192,40377,1,0,0:0:0:0:
320,192,40869,1,0,0:0:0:0:
448,192,41361,1,0,0:0:0:0:
64,192,41853,128,0,42591:0:0:0:0:
448,192,42836,128,0,43574:0:0:0:0:
448,192,43820,1,0,0:0:0:0:
64,192,44312,1,0,0:0:0:0:
448,192,44312,1,0,0:0:0:0:
192,192,44804,128,0,45787:0:0:0:0:
320,192,44804,128,0,45787:0:0:0:0:
64,192,46033,1,0,0:0:0:0:
448,192,46033,1,0,0:0:0:0:
448,192,46279,1,0,0:0:0:0:
64,192,46279,1,0,0:0:0:0:
192,192,46771,1,0,0:0:0:0:
320,192,46771,1,0,0:0:0:0:
192,192,47017,1,0,0:0:0:0:
320,192,47017,1,0,0:0:0:0:
448,192,47509,1,0,0:0:0:0:
64,192,47509,1,0,0:0:0:0:
64,192,47755,1,0,0:0:0:0:
448,192,47755,1,0,0:0:0:0:
192,192,48000,128,0,49230:0:0:0:0:
192,192,49476,1,0,0:0:0:0:
64,192,49722,1,0,0:0:0:0:
192,192,49968,1,0,0:0:0:0:
320,192,50214,128,0,51443:0:0:0:0:
320,192,51689,1,0,0:0:0:0:
64,192,51935,1,0,0:0:0:0:
192,192,52181,1,0,0:0:0:0:
320,192,52427,1,0,0:0:0:0:
448,192,52673,1,0,0:0:0:0:
64,192,52918,1,0,0:0:0:0:
192,192,53164,1,0,0:0:0:0:
320,192,53410,1,0,0:0:0:0:
448,192,53656,1,0,0:0:0:0:
192,192,54148,1,0,0:0:0:0:
320,192,54148,1,0,0:0:0:0:
448,192,54394,1,0,0:0:0:0:
320,192,54640,1,0,0:0:0:0:
192,192,54886,1,0,0:0:0:0:
64,192,55132,1,0,0:0:0:0:
448,192,55377,1,0,0:0:0:0:
320,192,55623,1,0,0:0:0:0:
192,192,55869,1,0,0:0:0:0:
64,192,56115,1,0,0:0:0:0:
64,192,56361,1,0,0:0:0:0:
448,192,56361,1,0,0:0:0:0:
192,192,56607,128,0,57345:0:0:0:0:
320,192,56607,128,0,57345:0:0:0:0:
192,192,57591,1,0,0:0:0:0:
320,192,57591,1,0,0:0:0:0:
64,192,57836,128,0,58574:0:0:0:0:
448,192,57836,128,0,58574:0:0:0:0:
64,192,58820,1,0,0:0:0:0:
448,192,58820,1,0,0:0:0:0:
192,192,59066,1,0,0:0:0:0:
320,192,59066,1,0,0:0:0:0:
192,192,59312,1,0,0:0:0:0:
320,192,59312,1,0,0:0:0:0:
64,192,59558,128,0,60296:0:0:0:0:
64,192,60541,1,0,0:0:0:0:
192,192,60787,1,0,0:0:0:0:
320,192,61033,1,0,0:0:0:0:
448,192,61279,1,0,0:0:0:0:
64,192,61525,128,0,62263:0:0:0:0:
448,192,62509,1,0,0:0:0:0:
320,192,62755,1,0,0:0:0:0:
192,192,62755,1,0,0:0:0:0:
448,192,63000,1,0,0:0:0:0:
320,192,63246,1,0,0:0:0:0:
192,192,63492,1,0,0:0:0:0:
64,192,63738,1,0,0:0:0:0:
192,192,63984,128,0,65214:0:0:0:0:
320,192,63984,128,0,65214:0:0:0:0:
448,192,65214,1,0,0:0:0:0:
64,192,65214,1,0,0:0:0:0:
320,192,65705,1,0,0:0:0:0:
192,192,65705,1,0,0:0:0:0:
448,192,65951,128,0,67181:0:0:0:0:
64,192,65951,128,0,67181:0:0:0:0:
192,192,67181,1,0,0:0:0:0:
320,192,67181,1,0,0:0:0:0:
64,192,67673,1,0,0:0:0:0:
448,192,67673,1,0,0:0:0:0:
192,192,67918,1,0,0:0:0:0:
320,192,67918,1,0,0:0:0:0:
192,192,68164,1,0,0:0:0:0:
320,192,68164,1,0,0:0:0:0:
192,192,68410,1,0,0:0:0:0:
320,192,68410,1,0,0:0:0:0:
64,192,68656,1,0,0:0:0:0:
448,192,68656,1,0,0:0:0:0:
192,192,68902,1,0,0:0:0:0:
320,192,68902,1,0,0:0:0:0:
192,192,69148,1,0,0:0:0:0:
320,192,69148,1,0,0:0:0:0:
64,192,69394,1,0,0:0:0:0:
64,192,69640,128,0,70377:0:0:0:0:
192,192,70377,1,0,0:0:0:0:
320,192,70377,1,0,0:0:0:0:
448,192,70377,1,0,0:0:0:0:
192,192,70623,1,0,0:0:0:0:
320,192,70869,1,0,0:0:0:0:
192,192,71115,1,0,0:0:0:0:
320,192,71361,1,0,0:0:0:0:
64,192,71607,1,0,0:0:0:0:
448,192,71607,1,0,0:0:0:0:
192,192,71853,1,0,0:0:0:0:
320,192,71853,1,0,0:0:0:0:
448,192,72099,1,0,0:0:0:0:
64,192,72099,1,0,0:0:0:0:
192,192,72345,128,0,73328:0:0:0:0:
320,192,72345,128,0,73328:0:0:0:0:
192,192,73574,1,0,0:0:0:0:
320,192,73574,1,0,0:0:0:0:
448,192,73820,1,0,0:0:0:0:
192,192,74066,1,0,0:0:0:0:
320,192,74312,1,0,0:0:0:0:
64,192,74558,1,0,0:0:0:0:
64,192,74804,128,0,75296:0:0:0:0:
448,192,74804,128,0,75296:0:0:0:0:
192,192,75541,1,0,0:0:0:0:
320,192,75541,1,0,0:0:0:0:
64,192,75787,128,0,76525:0:0:0:0:
192,192,76771,1,0,0:0:0:0:
320,192,77017,128,0,77755:0:0:0:0:
448,192,78000,1,0,0:0:0:0:
320,192,78246,128,0,78984:0:0:0:0:
192,192,78246,128,0,78984:0:0:0:0:
64,192,79230,1,0,0:0:0:0:
448,192,79230,1,0,0:0:0:0:
192,192,79476,128,0,80214:0:0:0:0:
320,192,80459,1,0,0:0:0:0:
192,192,80705,1,0,0:0:0:0:
64,192,80951,1,0,0:0:0:0:
320,192,81197,1,0,0:0:0:0:
448,192,81443,1,0,0:0:0:0:
192,192,81689,1,0,0:0:0:0:
320,192,81689,1,0,0:0:0:0:
192,192,81935,128,0,82918:0:0:0:0:
320,192,82918,128,0,83410:0:0:0:0:
64,192,83656,1,0,0:0:0:0:
448,192,83656,1,0,0:0:0:0:
192,192,83902,1,0,0:0:0:0:
320,192,83902,1,0,0:0:0:0:
64,192,84148,1,0,0:0:0:0:
448,192,84148,1,0,0:0:0:0:
64,192,84394,128,0,85132:0:0:0:0:
448,192,85132,1,0,0:0:0:0:
448,192,85377,128,0,86115:0:0:0:0:
64,192,86115,1,0,0:0:0:0:
192,192,86361,128,0,87099:0:0:0:0:
320,192,86361,128,0,87099:0:0:0:0:
64,192,87099,1,0,0:0:0:0:
448,192,87099,1,0,0:0:0:0:
64,192,87345,1,0,0:0:0:0:
448,192,87345,1,0,0:0:0:0:
64,192,87591,1,0,0:0:0:0:
448,192,87591,1,0,0:0:0:0:
448,192,87836,1,0,0:0:0:0:
64,192,87836,1,0,0:0:0:0:
192,192,88082,1,0,0:0:0:0:
320,192,88082,1,0,0:0:0:0:
192,192,88328,1,0,0:0:0:0:
320,192,88328,1,0,0:0:0:0:
192,192,88574,1,0,0:0:0:0:
320,192,88574,1,0,0:0:0:0:
64,192,88820,1,0,0:0:0:0:
448,192,89066,1,0,0:0:0:0:
448,192,89312,1,0,0:0:0:0:
64,192,89558,1,0,0:0:0:0:
192,192,89804,1,0,0:0:0:0:
320,192,90050,1,0,0:0:0:0:
448,192,90296,1,0,0:0:0:0:
192,192,90541,1,0,0:0:0:0:
320,192,90541,1,0,0:0:0:0:
64,192,90787,1,0,0:0:0:0:
448,192,90787,1,0,0:0:0:0:
64,192,91033,1,0,0:0:0:0:
448,192,91033,1,0,0:0:0:0:
192,192,91279,128,0,91771:0:0:0:0:
320,192,91279,128,0,91771:0:0:0:0:
64,192,92017,1,0,0:0:0:0:
448,192,92017,1,0,0:0:0:0:
192,192,92263,128,0,93000:0:0:0:0:
64,192,93246,1,0,0:0:0:0:
448,192,93246,1,0,0:0:0:0:
448,192,93492,1,0,0:0:0:0:
64,192,93492,1,0,0:0:0:0:
64,192,93738,1,0,0:0:0:0:
448,192,93738,1,0,0:0:0:0:
320,192,93984,128,0,94968:0:0:0:0:
64,192,95214,1,0,0:0:0:0:
448,192,95214,1,0,0:0:0:0:
64,192,95459,1,0,0:0:0:0:
448,192,95459,1,0,0:0:0:0:
64,192,95705,1,0,0:0:0:0:
448,192,95705,1,0,0:0:0:0:
192,192,95951,128,0,96689:0:0:0:0:
320,192,95951,128,0,96689:0:0:0:0:
192,192,96935,1,0,0:0:0:0:
320,192,96935,1,0,0:0:0:0:
192,192,97181,1,0,0:0:0:0:
320,192,97181,1,0,0:0:0:0:
64,192,97427,1,0,0:0:0:0:
448,192,97427,1,0,0:0:0:0:
64,192,97673,1,0,0:0:0:0:
448,192,97673,1,0,0:0:0:0:
192,192,97918,128,0,98902:0:0:0:0:
320,192,98902,1,0,0:0:0:0:
64,192,99148,1,0,0:0:0:0:
448,192,99394,1,0,0:0:0:0:
64,192,99640,1,0,0:0:0:0:
448,192,99886,1,0,0:0:0:0:
64,192,100132,128,0,100869:0:0:0:0:
64,192,101115,1,0,0:0:0:0:
448,192,101361,1,0,0:0:0:0:
320,192,101607,1,0,0:0:0:0:
192,192,101853,1,0,0:0:0:0:
64,192,102099,1,0,0:0:0:0:
192,192,102345,1,0,0:0:0:0:
320,192,102591,1,0,0:0:0:0:
448,192,102836,1,0,0:0:0:0:
192,192,103082,1,0,0:0:0:0:
320,192,103082,1,0,0:0:0:0:
192,192,103328,1,0,0:0:0:0:
320,192,103328,1,0,0:0:0:0:
64,192,103574,1,0,0:0:0:0:
448,192,103820,1,0,0:0:0:0:
64,192,104066,1,0,0:0:0:0:
448,192,104312,1,0,0:0:0:0:
64,192,104558,1,0,0:0:0:0:
448,192,104804,128,0,105296:0:0:0:0:
320,192,105541,1,0,0:0:0:0:
192,192,105787,128,0,106279:0:0:0:0:
64,192,106525,1,0,0:0:0:0:
320,192,106771,1,0,0:0:0:0:
448,192,106771,1,0,0:0:0:0:
320,192,107017,1,0,0:0:0:0:
448,192,107017,1,0,0:0:0:0:
64,192,107263,1,0,0:0:0:0:
192,192,107509,1,0,0:0:0:0:
64,192,107755,1,0,0:0:0:0:
192,192,108000,1,0,0:0:0:0:
448,192,108246,1,0,0:0:0:0:
320,192,108492,1,0,0:0:0:0:
448,192,108738,1,0,0:0:0:0:
320,192,108984,1,0,0:0:0:0:
192,192,109230,128,0,109968:0:0:0:0:
320,192,109230,128,0,109968:0:0:0:0:
192,192,110214,1,0,0:0:0:0:
320,192,110214,1,0,0:0:0:0:
64,192,110459,1,0,0:0:0:0:
448,192,110459,1,0,0:0:0:0:
192,192,110705,1,0,0:0:0:0:
320,192,110705,1,0,0:0:0:0:
64,192,110951,128,0,111689:0:0:0:0:
448,192,111689,1,0,0:0:0:0:
448,192,111935,128,0,112673:0:0:0:0:
64,192,112918,1,0,0:0:0:0:
192,192,113164,1,0,0:0:0:0:
320,192,113164,1,0,0:0:0:0:
192,192,113410,1,0,0:0:0:0:
320,192,113410,1,0,0:0:0:0:
64,192,113656,1,0,0:0:0:0:
192,192,113902,1,0,0:0:0:0:
64,192,114148,1,0,0:0:0:0:
320,192,114394,1,0,0:0:0:0:
448,192,114640,1,0,0:0:0:0:
320,192,114886,1,0,0:0:0:0:
64,192,115132,128,0,115869:0:0:0:0:
448,192,115132,128,0,115869:0:0:0:0:
192,192,115869,1,0,0:0:0:0:
320,192,115869,1,0,0:0:0:0:
320,192,116115,128,0,116853:0:0:0:0:
192,192,116115,128,0,116853:0:0:0:0:
64,192,116853,1,0,0:0:0:0:
448,192,116853,1,0,0:0:0:0:
192,192,117099,1,0,0:0:0:0:
320,192,117345,1,0,0:0:0:0:
192,192,117591,1,0,0:0:0:0:
320,192,117836,1,0,0:0:0:0:
64,192,118082,1,0,0:0:0:0:
448,192,118082,1,0,0:0:0:0:
64,192,118328,1,0,0:0:0:0:
448,192,118328,1,0,0:0:0:0:
192,192,118574,128,0,119312:0:0:0:0:
320,192,119312,1,0,0:0:0:0:
320,192,119558,128,0,120296:0:0:0:0:
192,192,120296,1,0,0:0:0:0:
64,192,120541,1,0,0:0:0:0:
448,192,120787,1,0,0:0:0:0:
64,192,121033,1,0,0:0:0:0:
448,192,121279,1,0,0:0:0:0:
192,192,121525,1,0,0:0:0:0:
320,192,121525,1,0,0:0:0:0:
320,192,121771,1,0,0:0:0:0:
192,192,121771,1,0,0:0:0:0:
64,192,122017,1,0,0:0:0:0:
448,192,122017,1,0,0:0:0:0:
64,192,122263,1,0,0:0:0:0:
448,192,122263,1,0,0:0:0:0:
448,192,122509,1,0,0:0:0:0:
64,192,123000,1,0,0:0:0:0:
448,192,123492,1,0,0:0:0:0:
64,192,123984,1,0,0:0:0:0:
448,192,124476,1,0,0:0:0:0:
192,192,124722,128,0,125705:0:0:0:0:
320,192,124722,128,0,125705:0:0:0:0:
192,192,125951,1,0,0:0:0:0:
320,192,125951,1,0,0:0:0:0:
192,192,126197,1,0,0:0:0:0:
320,192,126197,1,0,0:0:0:0:
64,192,126689,1,0,0:0:0:0:
192,192,126935,1,0,0:0:0:0:
320,192,127181,1,0,0:0:0:0:
448,192,127427,1,0,0:0:0:0:
64,192,127673,1,0,0:0:0:0:
192,192,127918,1,0,0:0:0:0:
320,192,128164,1,0,0:0:0:0:
448,192,128410,1,0,0:0:0:0:
192,192,128656,1,0,0:0:0:0:
320,192,128902,1,0,0:0:0:0:
192,192,129148,1,0,0:0:0:0:
320,192,129394,1,0,0:0:0:0:
320,192,129886,1,0,0:0:0:0:
192,192,129886,1,0,0:0:0:0:
320,192,130377,1,0,0:0:0:0:
192,192,130377,1,0,0:0:0:0:
448,192,130623,1,0,0:0:0:0:
320,192,130869,1,0,0:0:0:0:
192,192,131115,1,0,0:0:0:0:
64,192,131361,1,0,0:0:0:0:
448,192,131607,1,0,0:0:0:0:
320,192,131853,1,0,0:0:0:0:
192,192,132099,1,0,0:0:0:0:
64,192,132345,1,0,0:0:0:0:
320,192,132591,1,0,0:0:0:0:
192,192,132836,1,0,0:0:0:0:
320,192,133082,1,0,0:0:0:0:
192,192,133328,1,0,0:0:0:0:
192,192,133820,1,0,0:0:0:0:
320,192,133820,1,0,0:0:0:0:
192,192,134312,1,0,0:0:0:0:
320,192,134312,1,0,0:0:0:0:
64,192,134804,1,0,0:0:0:0:
448,192,134804,1,0,0:0:0:0:
192,192,135050,1,0,0:0:0:0:
320,192,135050,1,0,0:0:0:0:
64,192,135296,128,0,136033:0:0:0:0:
448,192,135296,128,0,136033:0:0:0:0:
192,192,136279,1,0,0:0:0:0:
320,192,136279,1,0,0:0:0:0:
64,192,136525,1,0,0:0:0:0:
448,192,136771,1,0,0:0:0:0:
64,192,137017,1,0,0:0:0:0:
448,192,137263,1,0,0:0:0:0:
64,192,137509,128,0,138246:0:0:0:0:
448,192,138246,1,0,0:0:0:0:
64,192,138492,1,0,0:0:0:0:
448,192,138738,1,0,0:0:0:0:
64,192,138984,1,0,0:0:0:0:
448,192,139230,128,0,139968:0:0:0:0:
64,192,139968,1,0,0:0:0:0:
192,192,140214,128,0,141197:0:0:0:0:
320,192,140214,128,0,141197:0:0:0:0:
192,192,141689,1,0,0:0:0:0:
320,192,141689,1,0,0:0:0:0:
192,192,141935,1,0,0:0:0:0:
320,192,141935,1,0,0:0:0:0:
64,192,142181,1,0,0:0:0:0:
448,192,142181,1,0,0:0:0:0:
192,192,142427,1,0,0:0:0:0:
320,192,142673,1,0,0:0:0:0:
192,192,142918,1,0,0:0:0:0:
320,192,143164,1,0,0:0:0:0:
192,192,143410,1,0,0:0:0:0:
320,192,143410,1,0,0:0:0:0:
64,192,143656,1,0,0:0:0:0:
448,192,143902,1,0,0:0:0:0:
64,192,144148,1,0,0:0:0:0:
448,192,144394,1,0,0:0:0:0:
64,192,144640,1,0,0:0:0:0:
448,192,144886,1,0,0:0:0:0:
192,192,145132,1,0,0:0:0:0:
320,192,145132,1,0,0:0:0:0:
192,192,145377,1,0,0:0:0:0:
320,192,145377,1,0,0:0:0:0:
64,192,145623,128,0,146361:0:0:0:0:
448,192,145623,128,0,146361:0:0:0:0:
192,192,146607,128,0,147345:0:0:0:0:
320,192,146607,128,0,147345:0:0:0:0:
64,192,147591,1,0,0:0:0:0:
448,192,147591,1,0,0:0:0:0:
64,192,147836,1,0,0:0:0:0:
448,192,147836,1,0,0:0:0:0:
192,192,148082,128,0,148574:0:0:0:0:
320,192,148082,128,0,148574:0:0:0:0:
192,192,148820,1,0,0:0:0:0:
320,192,148820,1,0,0:0:0:0:
448,192,149066,1,0,0:0:0:0:
64,192,149066,1,0,0:0:0:0:
192,192,149312,128,0,150050:0:0:0:0:
320,192,150050,1,0,0:0:0:0:
320,192,150296,128,0,151033:0:0:0:0:
192,192,151033,1,0,0:0:0:0:
64,192,151279,1,0,0:0:0:0:
192,192,151525,1,0,0:0:0:0:
320,192,151771,1,0,0:0:0:0:
448,192,152017,1,0,0:0:0:0:
448,192,152263,1,0,0:0:0:0:
320,192,152509,1,0,0:0:0:0:
192,192,152755,1,0,0:0:0:0:
64,192,153000,1,0,0:0:0:0:
64,192,153246,1,0,0:0:0:0:
192,192,153492,1,0,0:0:0:0:
320,192,153738,1,0,0:0:0:0:
448,192,153984,1,0,0:0:0:0:
192,192,154230,1,0,0:0:0:0:
320,192,154230,1,0,0:0:0:0:
192,192,154476,1,0,0:0:0:0:
320,192,154476,1,0,0:0:0:0:
192,192,154722,1,0,0:0:0:0:
320,192,154722,1,0,0:0:0:0:
64,192,154968,128,0,155705:0:0:0:0:
448,192,154968,128,0,155705:0:0:0:0:
192,192,155951,1,0,0:0:0:0:
320,192,155951,1,0,0:0:0:0:
64,192,156197,1,0,0:0:0:0:
448,192,156197,1,0,0:0:0:0:
320,192,156443,1,0,0:0:0:0:
192,192,156689,1,0,0:0:0:0:
64,192,156935,1,0,0:0:0:0:
448,192,157181,1,0,0:0:0:0:
192,192,157427,1,0,0:0:0:0:
448,192,157673,1,0,0:0:0:0:
64,192,157918,1,0,0:0:0:0:
320,192,158164,1,0,0:0:0:0:
192,192,158410,128,0,159148:0:0:0:0:
320,192,159148,1,0,0:0:0:0:
320,192,159394,128,0,160132:0:0:0:0:
192,192,160132,1,0,0:0:0:0:
64,192,160377,1,0,0:0:0:0:
448,192,160377,1,0,0:0:0:0:
192,192,160623,1,0,0:0:0:0:
320,192,160869,1,0,0:0:0:0:
192,192,161115,1,0,0:0:0:0:
448,192,161361,1,0,0:0:0:0:
64,192,161361,1,0,0:0:0:0:
64,192,161607,1,0,0:0:0:0:
448,192,161607,1,0,0:0:0:0:
64,192,161853,1,0,0:0:0:0:
448,192,161853,1,0,0:0:0:0:
192,192,162099,128,0,162836:0:0:0:0:
320,192,163082,1,0,0:0:0:0:
448,192,163328,1,0,0:0:0:0:
64,192,163574,128,0,164066:0:0:0:0:
64,192,164312,1,0,0:0:0:0:
320,192,164558,1,0,0:0:0:0:
192,192,164804,1,0,0:0:0:0:
320,192,165050,1,0,0:0:0:0:
192,192,165296,1,0,0:0:0:0:
320,192,165541,1,0,0:0:0:0:
192,192,165787,1,0,0:0:0:0:
448,192,166033,1,0,0:0:0:0:
64,192,166033,1,0,0:0:0:0:
192,192,166279,128,0,166771:0:0:0:0:
320,192,166771,128,0,167263:0:0:0:0:
192,192,167263,128,0,167755:0:0:0:0:
320,192,167755,128,0,168246:0:0:0:0:
64,192,168246,1,0,0:0:0:0:
448,192,168738,1,0,0:0:0:0:
64,192,168738,1,0,0:0:0:0:
64,192,169230,1,0,0:0:0:0:
448,192,169230,1,0,0:0:0:0:
192,192,169722,1,0,0:0:0:0:
320,192,169722,1,0,0:0:0:0:
64,192,169968,1,0,0:0:0:0:
448,192,169968,1,0,0:0:0:0:
64,192,170214,128,0,171443:0:0:0:0:
192,192,171689,1,0,0:0:0:0:
320,192,171689,1,0,0:0:0:0:
448,192,171935,1,0,0:0:0:0:
64,192,171935,1,0,0:0:0:0:
192,192,172181,1,0,0:0:0:0:
320,192,172181,1,0,0:0:0:0:
448,192,172427,128,0,173656:0:0:0:0:
192,192,173902,1,0,0:0:0:0:
320,192,173902,1,0,0:0:0:0:
448,192,174148,1,0,0:0:0:0:
64,192,174148,1,0,0:0:0:0:
192,192,174394,1,0,0:0:0:0:
320,192,174394,1,0,0:0:0:0:
192,192,174640,128,0,176853:0:0:0:0:
320,192,174640,128,0,176853:0:0:0:0:
192,192,177099,1,0,0:0:0:0:
320,192,177099,1,0,0:0:0:0:
64,192,177345,128,0,179558:0:0:0:0:
448,192,177345,128,0,179558:0:0:0:0:
64,192,179804,1,0,0:0:0:0:
448,192,179804,1,0,0:0:0:0:
192,192,180050,1,0,0:0:0:0:
320,192,180050,1,0,0:0:0:0:
192,192,180296,1,0,0:0:0:0:
320,192,180296,1,0,0:0:0:0:
64,192,180541,128,0,181771:0:0:0:0:
192,192,180541,128,0,181771:0:0:0:0:
448,192,182017,1,0,0:0:0:0:
320,192,182017,1,0,0:0:0:0:
64,192,182509,1,0,0:0:0:0:
192,192,182509,1,0,0:0:0:0:
320,192,183000,1,0,0:0:0:0:
448,192,183000,1,0,0:0:0:0:
192,192,183492,1,0,0:0:0:0:
320,192,183492,1,0,0:0:0:0:
320,192,183984,128,0,184968:0:0:0:0:
192,192,183984,128,0,184968:0:0:0:0:
192,192,185214,1,0,0:0:0:0:
320,192,185214,1,0,0:0:0:0:
64,192,185459,1,0,0:0:0:0:
448,192,185459,1,0,0:0:0:0:
320,192,185705,1,0,0:0:0:0:
192,192,185705,1,0,0:0:0:0:
64,192,185951,128,0,186689:0:0:0:0:
448,192,185951,128,0,186689:0:0:0:0:
192,192,186935,128,0,187673:0:0:0:0:
320,192,186935,128,0,187673:0:0:0:0:
64,192,187918,1,0,0:0:0:0:
320,192,188164,1,0,0:0:0:0:
320,192,188410,1,0,0:0:0:0:
192,192,188656,1,0,0:0:0:0:
192,192,188902,1,0,0:0:0:0:
448,192,189148,1,0,0:0:0:0:
448,192,189394,1,0,0:0:0:0:
64,192,189640,1,0,0:0:0:0:
64,192,189886,1,0,0:0:0:0:
320,192,190132,128,0,190869:0:0:0:0:
64,192,190869,1,0,0:0:0:0:
64,192,191115,1,0,0:0:0:0:
448,192,191361,1,0,0:0:0:0:
320,192,191607,1,0,0:0:0:0:
64,192,191853,1,0,0:0:0:0:
192,192,192099,1,0,0:0:0:0:
320,192,192345,1,0,0:0:0:0:
448,192,192345,1,0,0:0:0:0:
320,192,192591,1,0,0:0:0:0:
448,192,192591,1,0,0:0:0:0:
64,192,192836,128,0,193574:0:0:0:0:
192,192,193574,1,0,0:0:0:0:
448,192,193820,128,0,194558:0:0:0:0:
320,192,194558,1,0,0:0:0:0:
64,192,194804,1,0,0:0:0:0:
192,192,194804,1,0,0:0:0:0:
192,192,195296,1,0,0:0:0:0:
320,192,195296,1,0,0:0:0:0:
64,192,195787,1,0,0:0:0:0:
448,192,195787,1,0,0:0:0:0:
192,192,196033,128,0,197017:0:0:0:0:
192,192,197263,1,0,0:0:0:0:
192,192,197509,128,0,198492:0:0:0:0:
192,192,198738,1,0,0:0:0:0:
320,192,198984,1,0,0:0:0:0:
320,192,199230,128,0,200214:0:0:0:0:
320,192,200459,1,0,0:0:0:0:
320,192,200705,128,0,201689:0:0:0:0:
320,192,201935,1,0,0:0:0:0:
64,192,202181,1,0,0:0:0:0:
448,192,202427,1,0,0:0:0:0:
64,192,202673,128,0,203410:0:0:0:0:
448,192,202673,128,0,203410:0:0:0:0:
64,192,203656,1,0,0:0:0:0:
448,192,203656,1,0,0:0:0:0:
64,192,203902,128,0,204640:0:0:0:0:
448,192,203902,128,0,204640:0:0:0:0:
64,192,204886,1,0,0:0:0:0:
448,192,204886,1,0,0:0:0:0:
448,192,205132,1,0,0:0:0:0:
64,192,205132,1,0,0:0:0:0:
192,192,205377,1,0,0:0:0:0:
320,192,205623,1,0,0:0:0:0:
192,192,205869,1,0,0:0:0:0:
320,192,206115,1,0,0:0:0:0:
64,192,206361,1,0,0:0:0:0:
192,192,206361,1,0,0:0:0:0:
320,192,206607,1,0,0:0:0:0:
448,192,206607,1,0,0:0:0:0:
64,192,206853,1,0,0:0:0:0:
192,192,206853,1,0,0:0:0:0:
320,192,207099,1,0,0:0:0:0:
448,192,207099,1,0,0:0:0:0:
64,192,207591,128,0,208082:0:0:0:0:
448,192,208082,128,0,208574:0:0:0:0:
64,192,208574,128,0,209066:0:0:0:0:
448,192,209066,128,0,209558:0:0:0:0:
64,192,209558,128,0,210050:0:0:0:0:
192,192,210296,1,0,0:0:0:0:
320,192,210296,1,0,0:0:0:0:
192,192,210541,1,0,0:0:0:0:
320,192,210541,1,0,0:0:0:0:
64,192,211033,1,0,0:0:0:0:
192,192,211279,1,0,0:0:0:0:
320,192,211525,1,0,0:0:0:0:
448,192,211771,1,0,0:0:0:0:
64,192,212017,1,0,0:0:0:0:
192,192,212263,1,0,0:0:0:0:
320,192,212509,1,0,0:0:0:0:
448,192,212755,1,0,0:0:0:0:
320,192,213000,1,0,0:0:0:0:
192,192,213246,1,0,0:0:0:0:
320,192,213492,1,0,0:0:0:0:
192,192,213738,1,0,0:0:0:0:
64,192,213984,1,0,0:0:0:0:
448,192,213984,1,0,0:0:0:0:
192,192,214476,1,0,0:0:0:0:
320,192,214476,1,0,0:0:0:0:
192,192,214968,1,0,0:0:0:0:
320,192,214968,1,0,0:0:0:0:
448,192,215214,1,0,0:0:0:0:
320,192,215459,1,0,0:0:0:0:
192,192,215705,1,0,0:0:0:0:
64,192,215951,1,0,0:0:0:0:
448,192,216197,1,0,0:0:0:0:
320,192,216443,1,0,0:0:0:0:
192,192,216689,1,0,0:0:0:0:
64,192,216935,1,0,0:0:0:0:
192,192,217181,1,0,0:0:0:0:
320,192,217427,1,0,0:0:0:0:
192,192,217673,1,0,0:0:0:0:
320,192,217918,1,0,0:0:0:0:
64,192,218164,1,0,0:0:0:0:
448,192,218164,1,0,0:0:0:0:
192,192,218410,1,0,0:0:0:0:
320,192,218410,1,0,0:0:0:0:
192,192,218902,1,0,0:0:0:0:
320,192,218902,1,0,0:0:0:0:
64,192,219148,128,0,219886:0:0:0:0:
192,192,219886,1,0,0:0:0:0:
448,192,220132,128,0,220869:0:0:0:0:
320,192,220869,1,0,0:0:0:0:
64,192,221115,1,0,0:0:0:0:
192,192,221115,1,0,0:0:0:0:
192,192,221361,1,0,0:0:0:0:
64,192,221361,1,0,0:0:0:0:
192,192,221607,128,0,222345:0:0:0:0:
320,192,221607,128,0,222345:0:0:0:0:
192,192,222591,1,0,0:0:0:0:
320,192,222591,1,0,0:0:0:0:
64,192,222836,128,0,223574:0:0:0:0:
448,192,222836,128,0,223574:0:0:0:0:
64,192,223820,1,0,0:0:0:0:
448,192,223820,1,0,0:0:0:0:
192,192,224066,1,0,0:0:0:0:
320,192,224066,1,0,0:0:0:0:
192,192,224312,128,0,225050:0:0:0:0:
320,192,224312,128,0,225050:0:0:0:0:
64,192,225296,1,0,0:0:0:0:
448,192,225296,1,0,0:0:0:0:
192,192,225541,128,0,227017:0:0:0:0:
448,192,227017,1,0,0:0:0:0:
64,192,227017,1,0,0:0:0:0:
